osu file format v14

[General]
AudioFilename: audio.mp3
AudioLeadIn: 0
PreviewTime: 47322
Countdown: 0
SampleSet: Normal
StackLeniency: 0.3
Mode: 0
LetterboxInBreaks: 0
WidescreenStoryboard: 0

[Editor]
Bookmarks: 65006
DistanceSpacing: 1.3
BeatDivisor: 4
GridSize: 4
TimelineZoom: 2.999999

[Metadata]
Title:FUSE
TitleUnicode:FUSE
Artist:Titancube
ArtistUnicode:Titancube
Creator:skildfrix
Version:Special
Source:VOEZ
Tags:Rayark, gaming music, drumstep
BeatmapID:1010872
BeatmapSetID:473076

[Difficulty]
HPDrainRate:8
CircleSize:4.2
OverallDifficulty:9
ApproachRate:8
SliderMultiplier:1.6
SliderTickRate:1

[Events]
//Background and Video events
0,0,"FUSE - BG.jpg",0,0
//Break Periods
//Storyboard Layer 0 (Background)
//Storyboard Layer 1 (Fail)
//Storyboard Layer 2 (Pass)
//Storyboard Layer 3 (Foreground)
//Storyboard Sound Samples

[TimingPoints]
1849,315.789473684211,4,1,1,70,1,0
27112,-100,4,1,1,50,0,0
36427,-100,4,1,1,60,0,0
46691,-50,4,1,1,60,0,0
46849,-100,4,1,1,60,0,0
47322,-100,4,1,1,70,0,1
52533,-100,4,2,1,70,0,1
52691,-100,4,1,1,70,0,1
52770,-100,4,2,1,70,0,1
53322,-100,4,1,1,70,0,1
53401,-100,4,2,1,70,0,1
53954,-100,4,1,1,70,0,1
54033,-100,4,2,1,70,0,1
54585,-100,4,1,1,70,0,1
54664,-100,4,2,1,70,0,1
54901,-100,4,1,1,70,0,1
57349,-100,4,1,1,70,0,0
57427,-100,4,1,1,70,0,1
62480,-100,4,2,1,70,0,1
62796,-100,4,1,1,70,0,1
62875,-100,4,2,1,70,0,1
63427,-100,4,1,1,70,0,1
63506,-100,4,2,1,70,0,1
64059,-100,4,1,1,70,0,1
64138,-100,4,2,1,70,0,1
64691,-100,4,1,1,70,0,1
64770,-100,4,2,1,70,0,1
65006,-100,4,1,1,70,0,1
67533,-100,4,2,1,70,0,0
68322,-100,4,1,1,70,0,0
73059,-100,4,2,1,70,0,0
74480,-100,4,1,1,70,0,0
82691,-100,4,2,1,70,0,0
83006,-100,4,1,1,70,0,0
83085,-100,4,2,1,70,0,0
83322,-100,4,1,1,70,0,0
83401,-100,4,2,1,70,0,0
83638,-100,4,1,1,70,0,0
83717,-100,4,2,1,70,0,0
83954,-100,4,1,1,70,0,0
84033,-100,4,2,1,70,0,0
84270,-100,4,1,1,70,0,0
84349,-100,4,2,1,70,0,0
84585,-100,4,1,1,70,0,0
84664,-100,4,2,1,70,0,0
84901,-100,4,1,1,70,0,0
84980,-100,4,2,1,70,0,0
85217,-100,4,1,1,70,0,0
87743,-100,4,2,1,70,0,0
87901,-100,4,1,1,70,0,0
128006,-100,4,2,1,70,0,0
128243,-100,4,2,0,10,0,0

[Colours]
Combo1 : 255,0,128
Combo2 : 255,255,255
Combo3 : 255,128,0

[HitObjects]
124,108,27112,6,0,B|144:168|144:168|144:200|144:200|168:264,1,160
232,204,27743,2,0,P|308:188|392:184,1,160
236,280,28375,2,0,P|148:216|160:168,1,160
304,80,29006,2,0,P|392:144|380:192,1,160
240,276,29638,2,0,P|212:316|104:340,1,160
148,176,30270,2,0,P|176:136|284:112,1,160
323,335,30901,2,0,L|244:192,1,160
76,144,31375,2,0,L|112:216,1,80
298,254,31691,1,0,0:0:0:0:
298,254,31849,2,0,L|258:174,1,80
111,215,32164,6,0,B|159:215|159:215|219:183|219:183|267:183,1,160
388,224,32796,2,0,B|340:224|340:224|280:256|280:256|236:256,1,160
111,215,33427,2,0,P|95:155|119:59,1,160
401,169,34059,2,0,P|417:229|393:325,1,160
288,236,34691,2,0,L|108:224,1,160
40,296,35322,2,0,P|4:236|44:144,1,160
384,172,35954,2,0,P|420:232|380:324,1,160
272,252,36427,5,0,0:0:0:0:
272,252,36506,1,0,0:0:0:0:
272,252,36585,1,0,0:0:0:0:
156,172,36743,2,0,L|228:172,1,40
392,168,36901,1,0,0:0:0:0:
120,176,37059,1,0,0:0:0:0:
392,168,37217,6,0,P|380:100|288:112,1,160,0|8,0:0|0:0,0:0:0:0:
288,192,37691,1,0,0:0:0:0:
428,40,37849,1,0,0:0:0:0:
284,120,38006,1,0,0:0:0:0:
232,276,38164,2,0,L|277:210,1,80,8|0,0:0|0:0,0:0:0:0:
360,176,38480,2,0,B|324:120|280:120|280:120|272:80|248:60,1,160,0|8,0:0|0:0,0:0:0:0:
160,304,38954,6,0,P|180:332|236:364,1,80
280,204,39270,1,0,0:0:0:0:
320,292,39427,2,0,B|364:288|388:228,1,80,8|0,0:0|0:0,0:0:0:0:
248,120,39743,2,0,B|200:128|188:176|188:176|144:176|112:200,1,160,0|8,0:0|0:0,0:0:0:0:
56,136,40217,6,0,B|96:96|152:100,1,80
268,200,40533,1,0,0:0:0:0:
341,258,40691,2,0,L|273:202,1,80,8|0,0:0|0:0,0:0:0:0:
392,220,41006,2,0,P|392:296|312:312,1,160,0|8,0:0|0:0,0:0:0:0:
192,264,41480,2,0,P|156:228|148:208,1,40
84,124,41638,1,0,0:0:0:0:
84,124,41796,6,0,L|76:24,2,80,0|8|0,0:0|0:0|0:0,0:0:0:0:
128,204,42270,2,0,L|200:124,1,80
120,296,42585,2,0,L|232:268,1,80,8|0,0:0|0:0,0:0:0:0:
428,256,42901,6,0,L|356:176,1,80
432,348,43217,2,0,L|354:328,1,80,8|0,0:0|0:0,0:0:0:0:
197,276,43533,5,0,0:0:0:0:
272,168,43691,2,0,L|216:248,1,80,0|8,0:0|0:0,0:0:0:0:
348,120,44006,2,0,P|312:80|256:80,1,80
226,233,44322,2,0,P|262:273|318:273,2,80,0|8|0,0:0|0:0|0:0,0:0:0:0:
204,48,44796,5,0,0:0:0:0:
188,49,44953,1,0,0:0:0:0:
172,53,45111,1,0,0:0:0:0:
157,59,45269,1,0,0:0:0:0:
143,67,45427,1,0,0:0:0:0:
131,77,45585,1,0,0:0:0:0:
120,88,45743,1,0,0:0:0:0:
111,101,45901,1,0,0:0:0:0:
104,116,46059,5,0,0:0:0:0:
99,135,46137,1,0,0:0:0:0:
101,154,46216,1,0,0:0:0:0:
109,173,46295,1,0,0:0:0:0:
122,188,46374,1,0,0:0:0:0:
139,198,46453,1,0,0:0:0:0:
158,203,46532,1,0,0:0:0:0:
178,200,46611,1,0,0:0:0:0:
196,196,46691,2,0,P|256:172|208:216,1,160
60,276,47006,1,4,0:0:0:0:
60,276,47322,6,0,L|224:252,1,160,0|8,0:0|0:0,0:0:0:0:
216,140,47796,1,0,0:0:0:0:
52,180,47954,1,0,0:0:0:0:
156,336,48112,1,0,0:0:0:0:
288,104,48270,2,0,P|240:64|192:72,1,80,8|0,0:0|0:0,0:0:0:0:
204,68,48506,1,0,0:0:0:0:
184,80,48585,1,0,0:0:0:0:
192,216,48743,5,0,0:0:0:0:
288,104,48901,2,0,L|348:84,3,40,8|0|0|0,0:0|0:0|0:0|0:0,0:0:0:0:
288,104,49217,2,0,P|328:168|356:184,1,80
436,60,49533,1,8,0:0:0:0:
264,28,49691,2,0,P|220:64|208:108,1,80
204,216,50006,5,0,0:0:0:0:
132,188,50164,2,0,P|168:212|220:212,1,80,8|0,0:0|0:0,0:0:0:0:
112,100,50480,2,0,P|72:124|52:156,1,80
200,216,50796,1,8,0:0:0:0:
16,52,50954,1,0,0:0:0:0:
176,276,51112,6,0,P|240:268|264:220,1,120
132,84,51427,1,8,0:0:0:0:
272,356,51585,1,0,0:0:0:0:
264,88,51743,1,0,0:0:0:0:
176,276,51901,1,0,0:0:0:0:
356,212,52059,2,0,P|432:184|452:96,1,160,8|0,0:0|0:0,0:0:0:0:
312,51,52533,5,0,0:0:0:0:
280,49,52611,1,0,0:0:0:0:
252,63,52690,1,8,0:0:0:0:
233,89,52769,1,0,0:0:0:0:
220,118,52848,1,0,0:0:0:0:
205,146,52927,1,0,0:0:0:0:
184,171,53006,2,0,P|156:183|136:179,3,40
120,175,53322,2,0,P|96:163|76:135,3,40,8|0|0|0,0:0|0:0|0:0|0:0,0:0:0:0:
60,131,53638,5,0,0:0:0:0:
53,99,53716,1,0,0:0:0:0:
55,67,53795,1,0,0:0:0:0:
67,38,53874,1,0,0:0:0:0:
91,17,53953,1,8,0:0:0:0:
120,6,54032,1,0,0:0:0:0:
152,4,54111,1,0,0:0:0:0:
183,14,54190,1,0,0:0:0:0:
208,35,54270,2,0,P|220:55|224:87,2,40
232,111,54506,5,0,0:0:0:0:
228,147,54585,2,0,P|224:167|208:191,2,40,8|0|0,0:0|0:0|0:0,0:0:0:0:
112,308,54901,6,0,P|144:336|192:340,1,80
228,147,55217,1,8,0:0:0:0:
264,76,55375,2,0,L|214:176,1,80
176,264,55691,1,0,0:0:0:0:
327,160,55849,1,8,0:0:0:0:
122,100,56006,2,0,P|170:136|256:136,1,120
312,84,56322,6,0,B|344:124|320:192|320:188,1,80,0|8,0:0|0:0,0:0:0:0:
160,132,56638,1,0,0:0:0:0:
464,124,56796,1,0,0:0:0:0:
343,267,56954,2,0,P|304:271|268:256,1,80,0|8,0:0|0:0,0:0:0:0:
160,132,57270,1,0,0:0:0:0:
268,255,57427,6,0,P|285:297|197:301,1,160,0|8,0:0|0:0,0:0:0:0:
124,128,57901,1,0,0:0:0:0:
312,184,58059,1,0,0:0:0:0:
252,52,58217,5,0,0:0:0:0:
201,311,58375,1,8,0:0:0:0:
416,216,58533,1,0,0:0:0:0:
260,132,58691,1,0,0:0:0:0:
248,136,58770,1,0,0:0:0:0:
240,140,58849,2,0,L|156:168,1,80,0|8,0:0|0:0,0:0:0:0:
364,104,59164,1,0,0:0:0:0:
64,160,59322,2,0,P|64:200|88:236,1,80
436,120,59638,2,0,P|436:80|412:44,1,80,8|0,0:0|0:0,0:0:0:0:
236,136,59954,5,0,0:0:0:0:
80,232,60112,2,0,L|164:216,1,80,0|8,0:0|0:0,0:0:0:0:
236,136,60427,1,0,0:0:0:0:
48,264,60585,2,0,L|132:248,1,80
236,136,60901,1,8,0:0:0:0:
348,208,61059,2,0,L|416:204,1,40
448,156,61217,2,0,P|464:188|376:280,1,160,0|8,0:0|0:0,0:0:0:0:
208,116,61691,5,0,0:0:0:0:
308,207,61849,2,0,L|388:204,1,80
224,288,62164,2,0,L|144:291,1,80,8|0,0:0|0:0,0:0:0:0:
44,228,62480,5,0,0:0:0:0:
16,198,62558,1,0,0:0:0:0:
2,161,62637,1,0,0:0:0:0:
3,121,62716,1,0,0:0:0:0:
18,85,62795,1,8,0:0:0:0:
46,57,62874,1,0,0:0:0:0:
84,44,62953,1,0,0:0:0:0:
123,45,63032,1,0,0:0:0:0:
252,68,63112,2,0,L|300:20,3,40
236,184,63427,2,0,L|303:194,3,40,8|0|0|0,0:0|0:0|0:0|0:0,0:0:0:0:
116,312,63743,5,0,0:0:0:0:
360,240,63901,1,0,0:0:0:0:
164,176,64059,1,8,0:0:0:0:
169,188,64137,1,0,0:0:0:0:
174,201,64216,1,0,0:0:0:0:
224,332,64375,6,0,L|248:384,1,40
320,237,64533,2,0,L|377:240,1,40
264,100,64691,2,0,L|316:76,2,40,8|0|0,0:0|0:0|0:0,0:0:0:0:
108,128,65006,6,0,P|120:172|156:208,1,80
353,308,65322,1,8,0:0:0:0:
260,124,65480,1,0,0:0:0:0:
320,236,65638,2,0,L|364:332,1,80
464,216,65954,1,8,0:0:0:0:
192,264,66112,2,0,B|152:276|152:276|108:268,1,80
32,168,66427,5,0,0:0:0:0:
172,112,66585,2,0,B|212:100|212:100|256:108,1,80,8|0,0:0|0:0,0:0:0:0:
192,264,66901,1,0,0:0:0:0:
212,100,67059,2,0,L|224:12,2,80,0|8|0,0:0|0:0|0:0,0:0:0:0:
184,328,67533,5,2,0:0:0:0:
328,128,67691,1,2,0:0:0:0:
204,300,67849,1,2,0:0:0:0:
312,152,68006,1,2,0:0:0:0:
228,268,68164,1,2,0:0:0:0:
292,180,68322,1,0,0:0:0:0:
144,104,68480,5,8,0:0:0:0:
396,240,68638,1,0,0:0:0:0:
396,240,68717,1,0,0:0:0:0:
396,240,68796,2,0,L|360:320,1,80
212,236,69112,1,8,0:0:0:0:
284,92,69270,2,0,L|332:0,1,80
352,168,69585,2,0,L|300:260,1,80,0|8,0:0|0:0,0:0:0:0:
224,372,69901,5,0,0:0:0:0:
96,208,70059,1,0,0:0:0:0:
316,240,70217,1,0,0:0:0:0:
168,300,70375,5,8,0:0:0:0:
220,80,70533,1,0,0:0:0:0:
340,308,70691,1,0,0:0:0:0:
168,172,70849,1,0,0:0:0:0:
68,183,71006,6,0,L|148:176,1,80,8|0,0:0|0:0,0:0:0:0:
332,120,71322,2,0,P|348:164|324:220,1,80
148,176,71638,1,8,0:0:0:0:
456,144,71796,1,0,0:0:0:0:
157,251,71954,2,0,P|141:207|165:151,1,80
240,56,72270,1,8,0:0:0:0:
360,120,72427,5,0,0:0:0:0:
360,120,72506,1,0,0:0:0:0:
360,120,72585,2,0,P|328:200|256:224,1,160
208,64,73059,1,0,0:0:0:0:
424,264,73217,1,0,0:0:0:0:
440,280,73295,1,0,0:0:0:0:
456,296,73374,1,0,0:0:0:0:
308,272,73533,1,0,0:0:0:0:
306,294,73611,1,0,0:0:0:0:
305,317,73690,1,0,0:0:0:0:
360,120,73849,5,0,0:0:0:0:
148,128,74006,1,0,0:0:0:0:
376,120,74164,1,0,0:0:0:0:
397,129,74242,1,0,0:0:0:0:
412,148,74321,1,0,0:0:0:0:
415,171,74400,1,0,0:0:0:0:
412,192,74480,2,0,P|368:240|300:208,1,120
352,176,74796,2,0,L|400:316,1,120
384,308,75112,6,0,P|336:336|304:336,1,80
148,208,75427,2,0,P|196:236|228:236,1,80,8|0,0:0|0:0,0:0:0:0:
112,112,75743,2,0,P|56:145|58:185,1,80
161,280,76059,2,0,P|216:246|214:206,1,80,8|0,0:0|0:0,0:0:0:0:
108,168,76375,2,0,L|168:228,1,80
296,336,76691,1,8,0:0:0:0:
476,312,76849,2,0,P|424:240|412:228,1,80
304,116,77164,1,0,0:0:0:0:
404,244,77322,5,10,0:0:0:0:
380,245,77400,1,2,0:0:0:0:
356,246,77479,1,2,0:0:0:0:
332,247,77558,1,2,0:0:0:0:
312,248,77638,2,0,L|304:116,1,120
304,112,77954,1,8,0:0:0:0:
312,260,78112,1,0,0:0:0:0:
300,72,78270,1,0,0:0:0:0:
316,300,78427,1,0,0:0:0:0:
124,184,78585,5,8,0:0:0:0:
308,80,78743,1,0,0:0:0:0:
308,80,78822,1,0,0:0:0:0:
308,80,78901,1,0,0:0:0:0:
324,308,79059,1,0,0:0:0:0:
324,308,79138,1,0,0:0:0:0:
324,308,79217,1,0,0:0:0:0:
232,180,79375,1,0,0:0:0:0:
232,180,79454,1,0,0:0:0:0:
232,180,79533,2,0,P|316:172|332:172,1,80
338,174,79849,1,8,0:0:0:0:
304,264,80006,5,0,0:0:0:0:
288,280,80085,1,0,0:0:0:0:
264,288,80164,1,0,0:0:0:0:
241,295,80242,1,0,0:0:0:0:
217,297,80321,1,0,0:0:0:0:
193,293,80400,1,0,0:0:0:0:
171,284,80479,1,8,0:0:0:0:
152,270,80558,1,0,0:0:0:0:
135,253,80637,1,0,0:0:0:0:
122,233,80716,1,0,0:0:0:0:
108,208,80796,6,0,P|104:180|112:152,3,40
112,140,81111,1,8,0:0:0:0:
127,122,81190,1,0,0:0:0:0:
147,108,81269,1,0,0:0:0:0:
169,98,81348,1,0,0:0:0:0:
272,44,81427,6,0,P|312:108|312:128,1,80
240,340,81743,2,0,P|200:276|200:256,1,80,8|0,0:0|0:0,0:0:0:0:
312,110,82059,6,0,P|372:106|416:122,1,80
199,273,82375,2,0,P|139:277|95:261,1,80,8|0,0:0|0:0,0:0:0:0:
204,104,82691,6,0,P|236:100|268:108,3,40
264,104,83006,2,0,P|288:108|308:116,3,40,8|0|0|0,0:0|0:0|0:0|0:0,0:0:0:0:
320,120,83322,2,0,P|352:136|374:153,3,40,8|0|0|0,0:0|0:0|0:0|0:0,0:0:0:0:
368,148,83638,2,0,P|381:157|404:188,3,40,8|0|0|0,0:0|0:0|0:0|0:0,0:0:0:0:
320,320,83954,6,0,L|300:364,3,40
276,224,84270,2,0,L|220:260,3,40,8|0|0|0,0:0|0:0|0:0|0:0,0:0:0:0:
272,120,84585,2,0,L|224:120,3,40,8|0|0|0,0:0|0:0|0:0|0:0,0:0:0:0:
320,16,84901,2,0,L|260:-8,3,40,8|0|0|0,0:0|0:0|0:0|0:0,0:0:0:0:
440,76,85217,6,2,L|432:192,1,80
332,296,85533,2,2,L|340:192,1,80
244,76,85849,2,2,L|236:192,1,80
120,268,86164,2,2,L|128:164,1,80
240,84,86480,5,2,0:0:0:0:
254,69,86558,1,2,0:0:0:0:
270,57,86637,1,2,0:0:0:0:
288,46,86716,1,2,0:0:0:0:
307,39,86795,1,2,0:0:0:0:
327,35,86874,1,2,0:0:0:0:
347,34,86953,1,2,0:0:0:0:
367,37,87032,1,2,0:0:0:0:
386,44,87111,5,2,0:0:0:0:
404,54,87190,1,2,0:0:0:0:
419,68,87269,1,2,0:0:0:0:
430,85,87348,1,2,0:0:0:0:
437,104,87427,1,2,0:0:0:0:
439,125,87506,1,2,0:0:0:0:
437,145,87585,1,2,0:0:0:0:
430,164,87664,1,2,0:0:0:0:
384,252,87743,6,0,B|364:292|364:292|304:324,1,80,4|0,0:0|0:0,0:0:0:0:
268,188,88059,2,0,B|284:148|284:148|347:115,1,80,8|0,0:0|0:0,0:0:0:0:
384,252,88375,1,0,0:0:0:0:
208,136,88533,2,0,P|228:92|260:72,1,80,0|8,0:0|0:0,0:0:0:0:
400,176,88849,1,0,0:0:0:0:
416,32,89006,6,0,L|408:124,1,80
312,284,89322,2,0,B|272:272|272:272|244:228,1,80,8|0,0:0|0:0,0:0:0:0:
216,168,89559,1,0,0:0:0:0:
216,168,89638,1,0,0:0:0:0:
408,224,89796,2,0,P|428:272|416:320,1,80,0|8,0:0|0:0,0:0:0:0:
208,272,90112,1,0,0:0:0:0:
64,164,90270,6,0,P|44:116|56:68,1,80
244,48,90585,2,0,L|323:54,1,80,8|0,0:0|0:0,0:0:0:0:
480,200,90901,1,0,0:0:0:0:
256,176,91059,1,0,0:0:0:0:
408,192,91217,2,0,L|328:185,1,80,8|0,0:0|0:0,0:0:0:0:
152,208,91533,6,0,B|164:248|164:248|196:272,1,80
328,185,91849,2,0,B|316:145|316:145|284:121,1,80,8|0,0:0|0:0,0:0:0:0:
184,112,92085,1,0,0:0:0:0:
184,112,92164,1,0,0:0:0:0:
100,180,92322,2,0,P|64:220|56:256,1,80,0|8,0:0|0:0,0:0:0:0:
56,272,92559,1,0,0:0:0:0:
57,301,92637,1,0,0:0:0:0:
69,329,92716,1,0,0:0:0:0:
160,384,92796,6,0,B|176:332|176:332|208:296|208:296|228:232,1,160,0|8,0:0|0:0,0:0:0:0:
152,152,93270,2,0,L|124:248,1,80
304,300,93585,2,0,L|324:216,1,80,0|8,0:0|0:0,0:0:0:0:
208,104,93901,2,0,B|176:80|176:80|112:84,1,80
129,228,94217,2,0,B|161:252|161:252|225:248,1,80,0|8,0:0|0:0,0:0:0:0:
228,32,94533,1,0,0:0:0:0:
228,32,94612,1,0,0:0:0:0:
228,32,94691,2,0,P|168:8|124:24,1,80
108,300,95006,2,0,P|172:324|212:304,1,80,8|0,0:0|0:0,0:0:0:0:
408,116,95322,6,0,B|360:116|360:116|328:144,1,80
320,228,95638,2,0,B|368:228|368:228|400:200,1,80,8|0,0:0|0:0,0:0:0:0:
335,137,95954,2,0,B|287:137|287:137|255:165,1,80
247,249,96270,2,0,B|295:249|295:249|327:221,1,80,8|0,0:0|0:0,0:0:0:0:
262,158,96585,2,0,B|214:158|214:158|182:186,1,80
174,270,96901,2,0,B|222:270|222:270|254:242,1,80,8|0,0:0|0:0,0:0:0:0:
264,232,97138,1,0,0:0:0:0:
272,220,97217,2,0,B|312:220|312:220|352:240|352:240|408:240,1,120
480,296,97533,2,0,P|504:244|488:212,1,80,8|0,0:0|0:0,0:0:0:0:
316,36,97849,6,0,P|292:88|308:120,1,80
419,242,98164,2,0,P|468:240|497:224,1,80,8|0,0:0|0:0,0:0:0:0:
267,99,98480,1,0,0:0:0:0:
494,225,98638,1,0,0:0:0:0:
267,99,98796,2,0,P|218:101|188:116,1,80,8|0,0:0|0:0,0:0:0:0:
80,224,99112,6,8,L|120:328,1,80,0|0,0:0|0:0,0:0:0:0:
220,189,99427,2,8,L|191:114,1,80,8|0,0:0|0:0,0:0:0:0:
184,92,99664,1,0,0:0:0:0:
176,72,99743,1,0,0:0:0:0:
320,104,99901,1,0,0:0:0:0:
328,124,99980,1,0,0:0:0:0:
336,140,100059,2,0,L|384:244,1,80,8|0,0:0|0:0,0:0:0:0:
304,336,100375,6,0,P|272:360|200:365,1,80
112,220,100691,2,0,P|140:196|215:190,1,80,8|0,0:0|0:0,0:0:0:0:
388,208,101006,1,0,0:0:0:0:
180,184,101164,1,0,0:0:0:0:
388,208,101322,2,0,L|396:92,1,80,8|0,0:0|0:0,0:0:0:0:
248,44,101638,2,0,L|240:140,1,80
332,288,101954,2,0,P|380:312|428:308,1,80,8|0,0:0|0:0,0:0:0:0:
424,304,102191,1,0,0:0:0:0:
436,292,102270,2,0,L|448:196,1,80
416,56,102585,1,8,0:0:0:0:
288,168,102743,5,0,0:0:0:0:
288,168,102822,1,0,0:0:0:0:
288,168,102901,2,0,B|276:224|276:224|252:256|252:256|244:320,1,160,0|8,0:0|0:0,0:0:0:0:
192,176,103375,2,0,L|212:72,1,80
328,296,103691,2,0,L|308:400,2,80,0|8|0,0:0|0:0|0:0,0:0:0:0:
284,168,104164,6,0,P|243:150|197:148,1,80
36,336,104480,2,0,P|76:353|122:355,1,80,8|0,0:0|0:0,0:0:0:0:
128,356,104717,1,0,0:0:0:0:
184,276,104796,2,0,L|200:188,1,80
104,76,105112,2,0,L|80:180,1,80,8|0,0:0|0:0,0:0:0:0:
184,276,105427,6,0,B|232:276|232:276|264:248,1,80
272,164,105743,2,0,B|224:164|224:164|192:192,1,80,8|0,0:0|0:0,0:0:0:0:
257,255,106059,2,0,B|305:255|305:255|337:227,1,80
345,143,106375,2,0,B|297:143|297:143|265:171,1,80,8|0,0:0|0:0,0:0:0:0:
329,233,106691,2,0,B|377:233|377:233|409:205,1,80
418,122,107006,2,0,B|370:122|370:122|338:150,1,80,8|0,0:0|0:0,0:0:0:0:
332,160,107243,1,0,0:0:0:0:
320,172,107322,2,0,B|280:172|280:172|240:152|240:152|184:152,1,120
112,96,107638,2,0,P|88:148|104:180,1,80,8|0,0:0|0:0,0:0:0:0:
180,316,107954,6,0,L|292:320,1,80
328,232,108270,2,0,L|232:232,1,80,8|0,0:0|0:0,0:0:0:0:
224,232,108506,1,0,0:0:0:0:
192,148,108585,2,0,P|176:104|192:64,1,80
328,232,108901,2,0,P|344:276|328:316,1,80,8|0,0:0|0:0,0:0:0:0:
192,344,109217,6,0,L|92:344,1,80
328,232,109533,2,0,L|424:232,1,80,8|0,0:0|0:0,0:0:0:0:
432,232,109770,1,0,0:0:0:0:
484,140,109849,2,0,P|492:92|476:52,1,80
240,164,110164,1,8,0:0:0:0:
232,176,110243,1,0,0:0:0:0:
224,192,110322,2,0,P|216:240|232:280,1,80
320,124,110638,6,0,P|288:88|232:80,1,80,0|8,0:0|0:0,0:0:0:0:
220,232,110954,1,0,0:0:0:0:
220,252,111033,1,0,0:0:0:0:
225,269,111112,2,0,P|257:305|313:313,2,80,0|0|8,0:0|0:0|0:0,0:0:0:0:
152,184,111585,2,0,P|190:156|228:151,1,80,0|0,0:3|0:3,0:3:0:0:
356,276,111901,6,0,P|315:307|267:315,1,80,0|8,0:0|0:0,0:0:0:0:
137,262,112217,1,0,0:0:0:0:
137,262,112296,1,0,0:0:0:0:
137,262,112375,2,0,L|153:174,1,80
280,80,112691,1,8,0:0:0:0:
280,80,112770,1,0,0:0:0:0:
280,80,112849,2,0,L|265:158,1,80
292,308,113164,6,0,B|328:328|328:328|392:332,1,80,0|8,0:0|0:0,0:0:0:0:
456,256,113480,1,0,0:0:0:0:
468,244,113559,1,0,0:0:0:0:
476,228,113638,2,0,P|492:168|488:136,1,80
304,16,113954,2,0,P|288:76|292:108,1,80,8|0,0:0|0:0,0:0:0:0:
343,259,114270,5,0,0:0:0:0:
264,269,114427,2,0,L|368:257,1,80,0|8,0:0|0:0,0:0:0:0:
432,152,114743,1,0,0:0:0:0:
440,140,114822,1,0,0:0:0:0:
448,128,114901,2,0,L|340:144,1,80
204,224,115217,1,8,0:0:0:0:
204,224,115296,1,0,0:0:0:0:
204,224,115375,2,0,L|120:240,1,80
304,144,115691,6,0,P|328:198|320:237,1,80,0|8,0:0|0:0,0:0:0:0:
147,312,116006,1,0,0:0:0:0:
147,312,116085,1,0,0:0:0:0:
147,312,116164,2,0,P|123:258|131:219,1,80
176,112,116480,2,0,P|218:83|273:84,1,80,8|0,0:0|0:0,0:0:0:0:
416,92,116796,1,0,0:0:0:0:
332,244,116954,6,0,P|290:273|235:272,1,80,0|8,0:0|0:0,0:0:0:0:
120,180,117270,1,0,0:0:0:0:
120,180,117349,1,0,0:0:0:0:
120,180,117427,1,0,0:0:0:0:
262,276,117585,1,0,0:0:0:0:
416,92,117743,1,8,0:0:0:0:
120,180,117901,1,0,0:0:0:0:
332,248,118059,6,0,B|404:256|432:240|436:244,1,80
199,179,118375,2,0,B|127:171|99:187|95:183,1,80,8|0,0:0|0:0,0:0:0:0:
336,248,118691,2,0,P|364:184|352:148,1,80
226,107,119006,2,0,P|198:171|210:207,1,80,8|0,0:0|0:0,0:0:0:0:
236,288,119322,6,0,P|259:320|328:340,1,80
224,104,119638,2,0,P|184:120|156:152,1,80,8|0,0:0|0:0,0:0:0:0:
168,288,119954,2,0,B|176:328|176:328|208:360,1,80
316,280,120270,2,0,L|412:284,1,80,8|0,0:0|0:0,0:0:0:0:
172,144,120585,6,0,L|64:148,1,80
395,283,120901,2,0,L|403:171,1,80,8|0,0:0|0:0,0:0:0:0:
172,144,121217,2,0,L|166:223,1,80
400,203,121533,2,0,L|408:91,1,80,8|0,0:0|0:0,0:0:0:0:
216,84,121849,6,0,B|176:72|176:72|128:92,1,80
324,205,122164,2,0,B|364:217|364:217|412:197,1,80,8|0,0:0|0:0,0:0:0:0:
216,84,122480,2,0,P|192:120|184:160,1,80
367,273,122796,2,0,P|391:237|399:197,1,80,8|0,0:0|0:0,0:0:0:0:
216,84,123112,6,0,L|136:32,1,80
184,155,123427,2,0,L|88:154,1,80,8|0,0:0|0:0,0:0:0:0:
328,232,123743,6,0,L|408:284,1,80
360,161,124058,2,0,L|456:162,1,80,8|0,0:0|0:0,0:0:0:0:
239,74,124375,5,0,0:0:0:0:
152,161,124533,1,0,0:0:0:0:
240,249,124691,1,8,0:0:0:0:
327,161,124849,1,0,0:0:0:0:
236,160,125006,5,0,0:0:0:0:
149,247,125164,1,0,0:0:0:0:
237,335,125322,1,8,0:0:0:0:
324,247,125480,1,0,0:0:0:0:
240,72,125638,6,0,P|264:64|296:60,3,40
312,60,125954,1,0,0:0:0:0:
351,63,126032,1,0,0:0:0:0:
388,78,126111,1,0,0:0:0:0:
417,105,126190,1,0,0:0:0:0:
484,196,126270,6,0,P|472:208|440:224,3,40
416,232,126585,1,0,0:0:0:0:
377,242,126663,1,0,0:0:0:0:
337,244,126742,1,0,0:0:0:0:
297,238,126821,1,0,0:0:0:0:
268,224,126901,5,0,0:0:0:0:
240,195,126979,1,0,0:0:0:0:
242,156,127058,1,0,0:0:0:0:
255,118,127137,1,0,0:0:0:0:
256,79,127216,1,0,0:0:0:0:
230,49,127295,1,0,0:0:0:0:
192,40,127374,1,0,0:0:0:0:
155,53,127453,1,0,0:0:0:0:
136,72,127533,5,0,0:0:0:0:
36,264,127691,1,0,0:0:0:0:
320,156,127849,1,4,0:0:0:0:
320,156,128164,1,4,0:0:0:0:
256,192,128243,12,2,132585,0:0:0:0:
