osu file format v14

[General]
AudioFilename: audio.mp3
AudioLeadIn: 0
PreviewTime: 87307
Countdown: 0
SampleSet: Soft
StackLeniency: 0.7
Mode: 3
LetterboxInBreaks: 0
SpecialStyle: 0
WidescreenStoryboard: 0

[Editor]
Bookmarks: 35,21853,43671,65489,87307,109125,130944
DistanceSpacing: 0.3
BeatDivisor: 12
GridSize: 16
TimelineZoom: 1.6

[Metadata]
Title:Apex Of The Vortex
TitleUnicode:Apex Of The Vortex
Artist:Tipper
ArtistUnicode:Tipper
Creator:Hytex
Version:Vertex
Source:
Tags:forward escape ambient instrumental electronic experimental david tippermusic famoss
BeatmapID:2698590
BeatmapSetID:1301036

[Difficulty]
HPDrainRate:8.5
CircleSize:4
OverallDifficulty:8.5
ApproachRate:5
SliderMultiplier:1.4
SliderTickRate:1

[Events]
//Background and Video events
0,0,"bg.jpg",0,0
//Break Periods
//Storyboard Layer 0 (Background)
//Storyboard Layer 1 (Fail)
//Storyboard Layer 2 (Pass)
//Storyboard Layer 3 (Foreground)
//Storyboard Layer 4 (Overlay)
//Storyboard Sound Samples
Sample,44350,0,"ride10.wav",50
Sample,46054,0,"snare1.wav",30
Sample,47077,0,"ride10.wav",50
Sample,48782,0,"snare1.wav",30
Sample,49804,0,"ride10.wav",50
Sample,51509,0,"snare1.wav",30
Sample,52532,0,"ride10.wav",50
Sample,54236,0,"snare1.wav",30
Sample,55259,0,"ride10.wav",50
Sample,56963,0,"snare1.wav",30
Sample,57986,0,"ride10.wav",50
Sample,59691,0,"snare1.wav",30
Sample,60713,0,"ride10.wav",50
Sample,62418,0,"snare1.wav",30
Sample,63441,0,"ride10.wav",50
Sample,63441,0,"tom01.wav",70
Sample,66168,0,"ride10.wav",50
Sample,67872,0,"snare1.wav",30
Sample,68895,0,"ride10.wav",50
Sample,70600,0,"snare1.wav",30
Sample,71622,0,"ride10.wav",50
Sample,73327,0,"snare1.wav",30
Sample,74350,0,"ride10.wav",50
Sample,77077,0,"ride10.wav",50
Sample,78782,0,"snare1.wav",30
Sample,79804,0,"ride10.wav",50
Sample,81509,0,"snare1.wav",30
Sample,82532,0,"ride10.wav",50
Sample,84236,0,"snare1.wav",30
Sample,85259,0,"tom01.wav",70
Sample,85259,0,"ride10.wav",50
Sample,89691,0,"snare1.wav",30
Sample,90713,0,"ride10.wav",50
Sample,92418,0,"snare1.wav",30
Sample,93441,0,"ride10.wav",50
Sample,95145,0,"snare1.wav",30
Sample,96168,0,"ride10.wav",50
Sample,97872,0,"snare1.wav",30
Sample,98895,0,"ride10.wav",50
Sample,100600,0,"snare1.wav",30
Sample,101622,0,"ride10.wav",50
Sample,103327,0,"snare1.wav",30
Sample,104350,0,"ride10.wav",50
Sample,107077,0,"ride10.wav",50
Sample,109804,0,"ride10.wav",50
Sample,112532,0,"ride10.wav",50
Sample,117986,0,"tom01.wav",70
Sample,117986,0,"ride10.wav",50
Sample,119350,0,"tom04.wav",70
Sample,119691,0,"tom04.wav",70
Sample,120713,0,"ride10.wav",50
Sample,123441,0,"ride10.wav",50
Sample,128895,0,"tom01.wav",70
Sample,128895,0,"ride10.wav",50

[TimingPoints]
32,681.818181818182,4,2,1,40,1,0
43671,-100,4,2,1,40,0,0

[HitObjects]
448,192,21850,128,0,22020:0:0:0:0:
192,192,22191,1,0,0:0:0:20:ride09.wav
320,192,22532,128,0,22645:0:0:0:20:ride10.wav
64,192,24577,128,0,24747:0:0:0:0:
192,192,24918,1,0,0:0:0:20:ride09.wav
320,192,25259,128,0,25372:0:0:0:20:ride10.wav
192,192,27304,128,0,27475:0:0:0:0:
192,192,27645,1,0,0:0:0:20:ride09.wav
320,192,27986,128,0,28100:0:0:0:20:ride10.wav
448,192,30032,128,0,30202:0:0:0:0:
192,192,30372,1,0,0:0:0:20:ride09.wav
320,192,30713,128,0,30827:0:0:0:20:ride10.wav
448,192,32759,128,0,32929:0:0:0:0:
192,192,33100,1,0,0:0:0:20:ride09.wav
320,192,33441,128,0,33554:0:0:0:20:ride10.wav
64,192,35486,128,0,35657:0:0:0:0:
192,192,35827,1,0,0:0:0:20:ride09.wav
320,192,36168,128,0,36282:0:0:0:20:ride10.wav
192,192,38213,128,0,38384:0:0:0:0:
192,192,38554,1,0,0:0:0:20:ride09.wav
320,192,38895,128,0,39009:0:0:0:20:ride10.wav
192,192,41282,1,0,0:0:0:20:ride09.wav
320,192,41622,128,0,41736:0:0:0:20:ride10.wav
64,192,41963,128,0,43497:0:0:0:0:
192,192,42304,128,0,43497:0:0:0:0:
320,192,42645,128,0,43497:0:0:0:0:
448,192,42986,128,0,43497:0:0:0:0:
64,192,43668,1,2,0:0:0:0:
192,192,43668,1,4,0:0:0:0:
448,192,43668,1,0,0:0:0:0:
320,192,43895,1,0,0:0:0:0:
64,192,44009,1,0,0:0:0:50:ride09.wav
320,192,44236,1,0,0:0:0:0:
192,192,44350,1,8,0:0:0:0:
448,192,44407,128,0,44520:0:0:0:0:
192,192,44577,1,0,0:0:0:0:
320,192,44691,1,0,0:0:0:0:
320,192,44918,1,2,0:0:0:0:
448,192,44918,1,0,0:0:0:0:
320,192,45032,1,2,0:0:0:0:
448,192,45032,1,0,0:0:0:0:
64,192,45259,1,0,0:0:0:0:
320,192,45372,1,8,0:0:0:0:
192,192,45543,1,0,0:0:0:0:
448,192,45600,1,0,0:0:0:0:
64,192,45657,1,0,0:0:0:0:
192,192,45713,1,8,0:0:0:0:
320,192,45770,128,0,45884:0:0:0:0:
192,192,45941,1,0,0:0:0:30:snare1.wav
320,192,46054,1,8,0:0:0:0:
64,192,46111,1,0,0:0:0:0:
192,192,46168,1,0,0:0:0:30:snare1.wav
192,192,46282,1,0,0:0:0:30:snare1.wav
320,192,46395,1,2,0:0:0:0:
448,192,46395,1,0,0:0:0:0:
192,192,46622,1,0,0:0:0:0:
448,192,46736,1,0,0:0:0:50:ride09.wav
192,192,46963,1,0,0:0:0:0:
320,192,47077,1,8,0:0:0:0:
64,192,47134,128,0,47247:0:0:0:0:
448,192,47304,128,0,47418:0:0:0:0:
192,192,47418,1,0,0:0:0:0:
320,192,47645,1,2,0:0:0:0:
448,192,47645,1,0,0:0:0:0:
192,192,47759,1,0,0:0:0:0:
64,192,47986,1,0,0:0:0:0:
320,192,47986,1,0,0:0:0:0:
448,192,48100,128,8,48185:0:0:0:0:
192,192,48270,1,0,0:0:0:0:
448,192,48327,1,0,0:0:0:0:
64,192,48384,1,0,0:0:0:0:
192,192,48441,1,8,0:0:0:0:
320,192,48497,128,0,48611:0:0:0:0:
192,192,48668,1,0,0:0:0:30:snare1.wav
320,192,48782,1,8,0:0:0:0:
64,192,48838,1,0,0:0:0:0:
192,192,48895,1,0,0:0:0:30:snare1.wav
192,192,49009,1,0,0:0:0:30:snare1.wav
64,192,49122,1,2,0:0:0:0:
320,192,49122,1,4,0:0:0:0:
448,192,49122,1,0,0:0:0:0:
320,192,49350,1,0,0:0:0:0:
64,192,49463,1,0,0:0:0:50:ride09.wav
320,192,49691,1,0,0:0:0:0:
192,192,49804,1,8,0:0:0:0:
448,192,49861,128,0,49975:0:0:0:0:
192,192,50032,1,0,0:0:0:0:
320,192,50145,1,0,0:0:0:0:
320,192,50372,1,2,0:0:0:0:
448,192,50372,1,0,0:0:0:0:
320,192,50486,1,2,0:0:0:0:
448,192,50486,1,0,0:0:0:0:
64,192,50713,1,0,0:0:0:0:
320,192,50827,128,8,50912:0:0:0:0:
192,192,50997,1,0,0:0:0:0:
448,192,51054,1,0,0:0:0:0:
64,192,51111,1,0,0:0:0:0:
192,192,51168,1,8,0:0:0:0:
320,192,51225,128,0,51338:0:0:0:0:
192,192,51395,1,0,0:0:0:30:snare1.wav
448,192,51509,1,8,0:0:0:0:
64,192,51566,1,0,0:0:0:0:
192,192,51622,1,0,0:0:0:30:snare1.wav
192,192,51736,1,0,0:0:0:30:snare1.wav
320,192,51850,1,2,0:0:0:0:
448,192,51850,1,0,0:0:0:0:
192,192,52077,1,0,0:0:0:0:
448,192,52191,1,0,0:0:0:50:ride09.wav
192,192,52418,1,0,0:0:0:0:
320,192,52532,1,8,0:0:0:0:
64,192,52588,128,0,52702:0:0:0:0:
448,192,52759,128,0,52872:0:0:0:70:tom01.wav
192,192,52872,1,0,0:0:0:0:
320,192,53100,1,2,0:0:0:0:
448,192,53100,1,0,0:0:0:0:
192,192,53441,1,0,0:0:0:0:
448,192,53441,1,0,0:0:0:0:
320,192,53554,128,8,53639:0:0:0:0:
192,192,53725,1,0,0:0:0:0:
448,192,53782,1,0,0:0:0:0:
64,192,53838,1,0,0:0:0:0:
192,192,53895,1,8,0:0:0:0:
320,192,53952,128,0,54066:0:0:0:0:
192,192,54122,1,0,0:0:0:30:snare1.wav
320,192,54236,1,8,0:0:0:0:
64,192,54293,1,0,0:0:0:0:
192,192,54350,1,0,0:0:0:30:snare1.wav
192,192,54463,1,0,0:0:0:30:snare1.wav
64,192,54577,1,4,0:0:0:0:
320,192,54577,1,2,0:0:0:0:
448,192,54577,1,0,0:0:0:0:
320,192,54804,1,0,0:0:0:0:
64,192,54918,1,0,0:0:0:50:ride09.wav
320,192,55032,1,2,0:0:0:0:
448,192,55032,1,0,0:0:0:0:
320,192,55145,1,2,0:0:0:0:
448,192,55145,1,0,0:0:0:0:
192,192,55259,1,8,0:0:0:0:
448,192,55316,128,0,55429:0:0:0:0:
192,192,55486,1,0,0:0:0:0:
320,192,55600,1,0,0:0:0:0:
192,192,55827,1,0,0:0:0:0:
320,192,55941,1,0,0:0:0:0:
64,192,56168,1,0,0:0:0:0:
448,192,56282,128,8,56367:0:0:0:0:
192,192,56452,1,0,0:0:0:0:
448,192,56509,1,0,0:0:0:0:
64,192,56566,1,0,0:0:0:0:
192,192,56622,1,8,0:0:0:0:
320,192,56679,128,0,56793:0:0:0:0:
192,192,56850,1,0,0:0:0:30:snare1.wav
320,192,56963,1,8,0:0:0:0:
64,192,57020,1,0,0:0:0:0:
192,192,57077,1,0,0:0:0:30:snare1.wav
192,192,57191,1,0,0:0:0:30:snare1.wav
320,192,57304,1,2,0:0:0:0:
448,192,57304,1,0,0:0:0:0:
320,192,57532,1,2,0:0:0:0:
448,192,57532,1,0,0:0:0:0:
192,192,57645,1,0,0:0:0:50:ride09.wav
64,192,57872,1,2,0:0:0:0:
192,192,57872,1,0,0:0:0:0:
320,192,57986,1,8,0:0:0:0:
64,192,58043,128,0,58157:0:0:0:0:
448,192,58213,128,0,58327:0:0:0:0:
192,192,58327,1,0,0:0:0:0:
320,192,58554,1,2,0:0:0:0:
448,192,58554,1,0,0:0:0:0:
192,192,58668,1,0,0:0:0:0:
64,192,58895,1,0,0:0:0:0:
320,192,58895,1,0,0:0:0:0:
448,192,59009,128,8,59094:0:0:0:0:
192,192,59179,1,0,0:0:0:0:
448,192,59236,1,0,0:0:0:0:
64,192,59293,1,0,0:0:0:0:
192,192,59350,1,8,0:0:0:0:
320,192,59407,128,0,59520:0:0:0:0:
192,192,59577,1,0,0:0:0:30:snare1.wav
320,192,59691,1,8,0:0:0:0:
64,192,59747,1,0,0:0:0:0:
192,192,59804,1,0,0:0:0:30:snare1.wav
192,192,59918,1,0,0:0:0:30:snare1.wav
64,192,60032,1,4,0:0:0:0:
320,192,60032,1,2,0:0:0:0:
448,192,60032,1,0,0:0:0:0:
320,192,60259,1,2,0:0:0:0:
448,192,60259,1,0,0:0:0:0:
320,192,60372,1,2,0:0:0:0:
448,192,60372,1,0,0:0:0:50:ride09.wav
320,192,60600,1,0,0:0:0:0:
192,192,60713,1,8,0:0:0:0:
448,192,60770,128,0,60884:0:0:0:0:
192,192,60941,1,0,0:0:0:0:
320,192,61054,1,0,0:0:0:0:
64,192,61282,1,2,0:0:0:0:
192,192,61282,1,0,0:0:0:0:
320,192,61395,1,0,0:0:0:0:
64,192,61622,1,0,0:0:0:0:
448,192,61736,128,8,61821:0:0:0:0:
192,192,61907,1,0,0:0:0:0:
448,192,61963,1,0,0:0:0:0:
64,192,62020,1,0,0:0:0:0:
192,192,62077,1,8,0:0:0:0:
320,192,62134,128,0,62247:0:0:0:0:
192,192,62304,1,0,0:0:0:30:snare1.wav
448,192,62418,1,8,0:0:0:0:
64,192,62475,1,0,0:0:0:0:
192,192,62532,1,0,0:0:0:30:snare1.wav
192,192,62645,1,0,0:0:0:30:snare1.wav
320,192,62759,1,2,0:0:0:0:
448,192,62759,1,0,0:0:0:0:
192,192,62986,1,0,0:0:0:0:
320,192,63100,1,0,0:0:0:50:ride09.wav
192,192,63185,1,0,0:0:0:0:
448,192,63270,1,0,0:0:0:0:
192,192,63327,1,2,0:0:0:0:
320,192,63384,1,0,0:0:0:0:
64,192,63441,1,8,0:0:0:0:
448,192,63497,128,0,63611:0:0:0:0:
64,192,63668,1,0,0:0:0:70:tom01.wav
192,192,63668,1,0,0:0:0:0:
320,192,63782,1,0,0:0:0:0:
64,192,64009,1,2,0:0:0:0:
448,192,64009,1,0,0:0:0:0:
320,192,64804,1,8,0:0:0:0:
192,192,64861,128,0,64975:0:0:0:0:
64,192,65486,1,2,0:0:0:0:
192,192,65486,1,4,0:0:0:0:
448,192,65486,1,0,0:0:0:0:
64,192,65713,1,2,0:0:0:0:
192,192,65713,1,0,0:0:0:0:
320,192,65827,1,0,0:0:0:50:ride09.wav
320,192,66054,1,2,0:0:0:0:
192,192,66168,1,8,0:0:0:0:
448,192,66225,128,0,66338:0:0:0:0:
192,192,66395,1,0,0:0:0:0:
320,192,66509,1,0,0:0:0:0:
64,192,66736,1,2,0:0:0:0:
192,192,66736,1,0,0:0:0:0:
320,192,66850,1,0,0:0:0:0:
64,192,67077,1,0,0:0:0:0:
448,192,67191,1,8,0:0:0:0:
192,192,67361,1,0,0:0:0:0:
448,192,67418,1,0,0:0:0:0:
64,192,67475,1,0,0:0:0:0:
192,192,67532,1,8,0:0:0:0:
320,192,67588,128,0,67702:0:0:0:0:
192,192,67759,1,0,0:0:0:30:snare1.wav
320,192,67872,1,8,0:0:0:0:
64,192,67929,1,0,0:0:0:0:
192,192,67986,1,0,0:0:0:30:snare1.wav
192,192,68100,1,0,0:0:0:30:snare1.wav
320,192,68213,1,2,0:0:0:0:
448,192,68213,1,0,0:0:0:0:
192,192,68441,1,0,0:0:0:0:
320,192,68554,1,0,0:0:0:50:ride09.wav
64,192,68782,1,2,0:0:0:0:
192,192,68782,1,0,0:0:0:0:
320,192,68895,1,8,0:0:0:0:
64,192,68952,128,0,69066:0:0:0:0:
448,192,69122,128,0,69236:0:0:0:0:
192,192,69236,1,0,0:0:0:0:
320,192,69463,1,2,0:0:0:0:
448,192,69463,1,0,0:0:0:0:
192,192,69577,1,0,0:0:0:0:
64,192,69804,1,0,0:0:0:0:
320,192,69804,1,0,0:0:0:0:
448,192,69918,128,8,70003:0:0:0:0:
192,192,70088,1,0,0:0:0:0:
448,192,70145,1,0,0:0:0:0:
64,192,70202,1,0,0:0:0:0:
192,192,70259,1,8,0:0:0:0:
320,192,70316,128,0,70429:0:0:0:0:
192,192,70486,1,0,0:0:0:30:snare1.wav
320,192,70600,1,8,0:0:0:0:
64,192,70657,1,0,0:0:0:0:
192,192,70713,1,0,0:0:0:30:snare1.wav
192,192,70827,1,0,0:0:0:30:snare1.wav
64,192,70941,1,2,0:0:0:0:
320,192,70941,1,4,0:0:0:0:
448,192,70941,1,0,0:0:0:0:
320,192,71168,1,0,0:0:0:0:
64,192,71282,1,0,0:0:0:50:ride09.wav
320,192,71509,1,0,0:0:0:0:
192,192,71622,1,8,0:0:0:0:
448,192,71679,128,0,71793:0:0:0:0:
192,192,71850,1,0,0:0:0:0:
320,192,71963,1,0,0:0:0:0:
320,192,72191,1,2,0:0:0:0:
448,192,72191,1,0,0:0:0:0:
320,192,72304,1,2,0:0:0:0:
448,192,72304,1,0,0:0:0:0:
64,192,72532,1,0,0:0:0:0:
448,192,72645,128,8,72730:0:0:0:0:
192,192,72816,1,0,0:0:0:0:
448,192,72872,1,0,0:0:0:0:
64,192,72929,1,0,0:0:0:0:
192,192,72986,1,8,0:0:0:0:
320,192,73043,128,0,73157:0:0:0:0:
192,192,73213,1,0,0:0:0:30:snare1.wav
320,192,73327,1,8,0:0:0:0:
64,192,73384,1,0,0:0:0:0:
192,192,73441,1,0,0:0:0:30:snare1.wav
192,192,73554,1,0,0:0:0:30:snare1.wav
320,192,73668,1,2,0:0:0:0:
448,192,73668,1,0,0:0:0:0:
192,192,73895,1,0,0:0:0:0:
448,192,74009,1,0,0:0:0:50:ride09.wav
192,192,74236,1,0,0:0:0:0:
320,192,74350,1,8,0:0:0:0:
64,192,74407,128,0,74520:0:0:0:0:
320,192,74577,1,0,0:0:0:0:
192,192,74691,1,0,0:0:0:0:
320,192,74918,1,2,0:0:0:0:
448,192,74918,1,0,0:0:0:0:
64,192,75259,1,0,0:0:0:0:
320,192,75259,1,0,0:0:0:0:
448,192,75372,128,8,75458:0:0:0:0:
192,192,75543,1,0,0:0:0:0:
320,192,75600,1,0,0:0:0:0:
64,192,75657,1,0,0:0:0:0:
192,192,75713,1,8,0:0:0:0:
448,192,75713,1,0,0:0:0:0:
320,192,75799,1,0,0:0:0:0:
64,192,75884,1,0,0:0:0:0:
320,192,75969,1,0,0:0:0:0:
192,192,76054,1,0,0:0:0:0:
64,192,76111,1,0,0:0:0:0:
448,192,76168,1,0,0:0:0:0:
192,192,76225,1,0,0:0:0:0:
320,192,76310,1,0,0:0:0:0:
64,192,76395,1,4,0:0:0:0:
192,192,76395,1,2,0:0:0:0:
448,192,76395,1,0,0:0:0:0:
448,192,76566,1,0,0:0:0:0:
320,192,76622,1,0,0:0:0:0:
64,192,76679,1,0,0:0:0:0:
192,192,76736,1,0,0:0:0:50:ride09.wav
320,192,76850,1,2,0:0:0:0:
448,192,76850,1,0,0:0:0:0:
320,192,76963,1,2,0:0:0:0:
448,192,76963,1,0,0:0:0:0:
192,192,77077,1,8,0:0:0:0:
448,192,77134,128,0,77247:0:0:0:0:
192,192,77304,1,0,0:0:0:0:
320,192,77418,1,0,0:0:0:0:
192,192,77645,1,0,0:0:0:0:
320,192,77759,1,0,0:0:0:0:
64,192,77986,1,0,0:0:0:0:
448,192,78100,128,8,78185:0:0:0:0:
192,192,78270,1,0,0:0:0:0:
448,192,78327,1,0,0:0:0:0:
64,192,78384,1,0,0:0:0:0:
192,192,78441,1,8,0:0:0:0:
320,192,78497,128,0,78611:0:0:0:0:
192,192,78668,1,0,0:0:0:30:snare1.wav
320,192,78782,1,8,0:0:0:0:
64,192,78838,1,0,0:0:0:0:
192,192,78895,1,0,0:0:0:30:snare1.wav
192,192,79009,1,0,0:0:0:30:snare1.wav
320,192,79122,1,2,0:0:0:0:
448,192,79122,1,0,0:0:0:0:
320,192,79350,1,2,0:0:0:0:
448,192,79350,1,0,0:0:0:0:
192,192,79463,1,0,0:0:0:50:ride09.wav
192,192,79691,1,2,0:0:0:0:
320,192,79804,1,8,0:0:0:0:
64,192,79861,128,0,79975:0:0:0:0:
448,192,80032,128,0,80145:0:0:0:0:
192,192,80145,1,0,0:0:0:0:
320,192,80372,1,2,0:0:0:0:
448,192,80372,1,0,0:0:0:0:
192,192,80486,1,0,0:0:0:0:
64,192,80713,1,0,0:0:0:0:
320,192,80713,1,0,0:0:0:0:
448,192,80827,128,8,80912:0:0:0:0:
192,192,80997,1,0,0:0:0:0:
448,192,81054,1,0,0:0:0:0:
64,192,81111,1,0,0:0:0:0:
192,192,81168,1,8,0:0:0:0:
320,192,81225,128,0,81338:0:0:0:0:
192,192,81395,1,0,0:0:0:30:snare1.wav
320,192,81509,1,8,0:0:0:0:
64,192,81566,1,0,0:0:0:0:
192,192,81622,1,0,0:0:0:30:snare1.wav
192,192,81736,1,0,0:0:0:30:snare1.wav
64,192,81850,1,4,0:0:0:0:
320,192,81850,1,2,0:0:0:0:
448,192,81850,1,0,0:0:0:0:
320,192,82077,1,2,0:0:0:0:
448,192,82077,1,0,0:0:0:0:
320,192,82191,1,2,0:0:0:0:
448,192,82191,1,0,0:0:0:50:ride09.wav
320,192,82418,1,0,0:0:0:0:
192,192,82532,1,8,0:0:0:0:
448,192,82588,128,0,82702:0:0:0:0:
192,192,82759,1,0,0:0:0:0:
320,192,82872,1,0,0:0:0:0:
64,192,83100,1,2,0:0:0:0:
192,192,83100,1,0,0:0:0:0:
320,192,83213,1,0,0:0:0:0:
64,192,83441,1,0,0:0:0:0:
448,192,83554,128,8,83639:0:0:0:0:
192,192,83725,1,0,0:0:0:0:
448,192,83782,1,0,0:0:0:0:
64,192,83838,1,0,0:0:0:0:
192,192,83895,1,8,0:0:0:0:
320,192,83952,128,0,84066:0:0:0:0:
192,192,84122,1,0,0:0:0:30:snare1.wav
320,192,84236,1,8,0:0:0:0:
64,192,84293,1,0,0:0:0:0:
192,192,84350,1,0,0:0:0:30:snare1.wav
192,192,84463,1,0,0:0:0:30:snare1.wav
320,192,84577,1,2,0:0:0:0:
448,192,84577,1,0,0:0:0:0:
192,192,84804,1,0,0:0:0:0:
320,192,84918,1,0,0:0:0:50:ride09.wav
192,192,85003,1,0,0:0:0:0:
448,192,85088,1,0,0:0:0:0:
192,192,85145,1,0,0:0:0:0:
320,192,85202,1,0,0:0:0:0:
64,192,85259,1,8,0:0:0:0:
448,192,85316,128,0,85429:0:0:0:0:
64,192,85486,1,0,0:0:0:70:tom01.wav
192,192,85486,1,0,0:0:0:0:
320,192,85600,1,0,0:0:0:0:
64,192,85827,1,2,0:0:0:0:
192,192,85827,1,4,0:0:0:0:
448,192,85827,1,0,0:0:0:0:
320,192,86622,1,8,0:0:0:0:
192,192,86679,128,0,86793:0:0:0:0:
64,192,87304,1,2,0:0:0:0:
320,192,87304,1,4,0:0:0:0:
448,192,87304,1,0,0:0:0:0:
192,192,87361,1,0,0:0:0:0:
320,192,87418,1,0,0:0:0:0:
64,192,87475,1,0,0:0:0:0:
448,192,87532,1,0,0:0:0:0:
192,192,87588,1,0,0:0:0:0:
320,192,87645,1,0,0:0:0:50:ride09.wav
64,192,87702,1,0,0:0:0:0:
448,192,87759,1,0,0:0:0:0:
192,192,87816,1,0,0:0:0:0:
320,192,87872,1,0,0:0:0:0:
448,192,87929,1,0,0:0:0:0:
64,192,87986,1,8,0:0:0:0:
192,192,87986,1,0,0:0:0:50:ride10.wav
320,192,88071,1,0,0:0:0:0:
448,192,88157,1,0,0:0:0:0:
192,192,88242,1,0,0:0:0:0:
320,192,88327,1,0,0:0:0:0:
64,192,88441,1,0,0:0:0:0:
320,192,88554,1,2,0:0:0:0:
448,192,88554,1,0,0:0:0:0:
320,192,88668,1,2,0:0:0:0:
448,192,88668,1,0,0:0:0:0:
64,192,88895,1,0,0:0:0:0:
192,192,88895,1,0,0:0:0:0:
320,192,89009,1,8,0:0:0:0:
448,192,89009,128,0,89094:0:0:0:0:
192,192,89179,1,0,0:0:0:0:
448,192,89236,1,0,0:0:0:0:
64,192,89293,1,0,0:0:0:0:
192,192,89350,1,8,0:0:0:0:
320,192,89407,128,0,89520:0:0:0:0:
192,192,89577,1,0,0:0:0:30:snare1.wav
320,192,89691,1,8,0:0:0:0:
64,192,89747,1,0,0:0:0:0:
192,192,89804,1,0,0:0:0:30:snare1.wav
192,192,89918,1,0,0:0:0:30:snare1.wav
320,192,90032,1,2,0:0:0:0:
448,192,90032,1,0,0:0:0:0:
192,192,90259,1,0,0:0:0:0:
448,192,90372,1,0,0:0:0:50:ride09.wav
192,192,90600,1,0,0:0:0:0:
320,192,90713,1,8,0:0:0:0:
64,192,90770,128,0,90884:0:0:0:0:
448,192,90941,128,0,91054:0:0:0:0:
192,192,91054,1,0,0:0:0:0:
320,192,91282,1,2,0:0:0:0:
448,192,91282,1,0,0:0:0:0:
192,192,91395,1,0,0:0:0:0:
64,192,91622,1,0,0:0:0:0:
320,192,91622,1,0,0:0:0:0:
448,192,91736,128,8,91821:0:0:0:0:
192,192,91907,1,0,0:0:0:0:
448,192,91963,1,0,0:0:0:0:
64,192,92020,1,0,0:0:0:0:
192,192,92077,1,8,0:0:0:0:
320,192,92134,128,0,92247:0:0:0:0:
192,192,92304,1,0,0:0:0:30:snare1.wav
320,192,92418,1,8,0:0:0:0:
64,192,92475,1,0,0:0:0:0:
192,192,92532,1,0,0:0:0:30:snare1.wav
192,192,92645,1,0,0:0:0:30:snare1.wav
64,192,92759,1,2,0:0:0:0:
320,192,92759,1,4,0:0:0:0:
448,192,92759,1,0,0:0:0:0:
320,192,92986,1,0,0:0:0:0:
64,192,93100,1,0,0:0:0:50:ride09.wav
320,192,93327,1,0,0:0:0:0:
192,192,93441,1,8,0:0:0:0:
448,192,93497,128,0,93611:0:0:0:0:
192,192,93668,1,0,0:0:0:0:
320,192,93782,1,0,0:0:0:0:
320,192,94009,1,2,0:0:0:0:
448,192,94009,1,0,0:0:0:0:
320,192,94122,1,2,0:0:0:0:
448,192,94122,1,0,0:0:0:0:
64,192,94350,1,0,0:0:0:0:
320,192,94350,1,0,0:0:0:0:
448,192,94463,128,8,94549:0:0:0:0:
192,192,94634,1,0,0:0:0:0:
448,192,94691,1,0,0:0:0:0:
64,192,94747,1,0,0:0:0:0:
192,192,94804,1,8,0:0:0:0:
320,192,94861,128,0,94975:0:0:0:0:
192,192,95032,1,0,0:0:0:30:snare1.wav
448,192,95145,1,8,0:0:0:0:
64,192,95202,1,0,0:0:0:0:
192,192,95259,1,0,0:0:0:30:snare1.wav
192,192,95372,1,0,0:0:0:30:snare1.wav
320,192,95486,1,2,0:0:0:0:
448,192,95486,1,0,0:0:0:0:
192,192,95713,1,0,0:0:0:0:
448,192,95827,1,0,0:0:0:50:ride09.wav
192,192,96054,1,0,0:0:0:0:
320,192,96168,1,8,0:0:0:0:
64,192,96225,128,0,96338:0:0:0:0:
448,192,96395,128,0,96509:0:0:0:0:
192,192,96509,1,0,0:0:0:0:
320,192,96736,1,2,0:0:0:0:
448,192,96736,1,0,0:0:0:0:
64,192,97077,1,0,0:0:0:0:
320,192,97077,1,0,0:0:0:0:
448,192,97191,128,8,97276:0:0:0:0:
192,192,97361,1,0,0:0:0:0:
448,192,97418,1,0,0:0:0:0:
64,192,97475,1,0,0:0:0:0:
192,192,97532,1,8,0:0:0:0:
320,192,97588,128,0,97702:0:0:0:0:
192,192,97759,1,0,0:0:0:30:snare1.wav
320,192,97872,1,8,0:0:0:0:
64,192,97929,1,0,0:0:0:0:
192,192,97986,1,0,0:0:0:30:snare1.wav
192,192,98100,1,0,0:0:0:30:snare1.wav
64,192,98213,1,4,0:0:0:0:
320,192,98213,1,2,0:0:0:0:
448,192,98213,1,0,0:0:0:0:
320,192,98441,1,0,0:0:0:0:
64,192,98554,1,0,0:0:0:50:ride09.wav
320,192,98668,1,2,0:0:0:0:
448,192,98668,1,0,0:0:0:0:
320,192,98782,1,2,0:0:0:0:
448,192,98782,1,0,0:0:0:0:
192,192,98895,1,8,0:0:0:0:
448,192,98952,128,0,99066:0:0:0:0:
192,192,99122,1,0,0:0:0:0:
320,192,99236,1,0,0:0:0:0:
192,192,99463,1,0,0:0:0:0:
448,192,99463,1,0,0:0:0:0:
320,192,99577,1,0,0:0:0:0:
192,192,99804,1,0,0:0:0:0:
320,192,99804,1,0,0:0:0:0:
64,192,99918,1,8,0:0:0:0:
192,192,100088,1,0,0:0:0:0:
448,192,100145,1,0,0:0:0:0:
64,192,100202,1,0,0:0:0:0:
192,192,100259,1,8,0:0:0:0:
320,192,100316,128,0,100429:0:0:0:0:
192,192,100486,1,0,0:0:0:30:snare1.wav
320,192,100600,1,8,0:0:0:0:
64,192,100657,1,0,0:0:0:0:
192,192,100713,1,0,0:0:0:30:snare1.wav
192,192,100827,1,0,0:0:0:30:snare1.wav
320,192,100941,1,2,0:0:0:0:
448,192,100941,1,0,0:0:0:0:
320,192,101168,1,2,0:0:0:0:
448,192,101168,1,0,0:0:0:0:
192,192,101509,1,2,0:0:0:0:
320,192,101622,1,8,0:0:0:0:
64,192,101679,128,0,101793:0:0:0:0:
448,192,101850,128,0,101963:0:0:0:0:
192,192,101963,1,0,0:0:0:0:
320,192,102191,1,2,0:0:0:0:
448,192,102191,1,0,0:0:0:0:
192,192,102304,1,0,0:0:0:0:
64,192,102532,1,0,0:0:0:0:
320,192,102532,1,0,0:0:0:0:
448,192,102645,128,8,102730:0:0:0:0:
192,192,102816,1,0,0:0:0:0:
448,192,102872,1,0,0:0:0:0:
64,192,102929,1,0,0:0:0:0:
192,192,102986,1,8,0:0:0:0:
320,192,103043,128,0,103157:0:0:0:0:
192,192,103213,1,0,0:0:0:30:snare1.wav
320,192,103327,1,8,0:0:0:0:
64,192,103384,1,0,0:0:0:0:
192,192,103441,1,0,0:0:0:30:snare1.wav
192,192,103554,1,0,0:0:0:30:snare1.wav
64,192,103668,1,4,0:0:0:0:
320,192,103668,1,2,0:0:0:0:
448,192,103668,1,0,0:0:0:0:
320,192,103895,1,2,0:0:0:0:
448,192,103895,1,0,0:0:0:0:
320,192,104009,1,2,0:0:0:0:
448,192,104009,1,0,0:0:0:50:ride09.wav
320,192,104236,1,0,0:0:0:0:
192,192,104350,1,8,0:0:0:0:
448,192,104407,128,0,104520:0:0:0:0:
192,192,104577,1,0,0:0:0:0:
320,192,104691,1,0,0:0:0:0:
64,192,104918,1,2,0:0:0:0:
192,192,104918,1,0,0:0:0:0:
320,192,105032,1,0,0:0:0:0:
192,192,105259,1,0,0:0:0:70:tom01.wav
448,192,105259,1,0,0:0:0:0:
64,192,105372,128,8,105458:0:0:0:0:
192,192,105543,1,0,0:0:0:0:
448,192,105600,1,0,0:0:0:0:
64,192,105657,1,0,0:0:0:0:
192,192,105713,1,8,0:0:0:0:
320,192,105770,128,0,105884:0:0:0:0:
64,192,105941,1,0,0:0:0:0:
192,192,106054,128,8,106282:0:0:0:0:
448,192,106054,1,0,0:0:0:0:
320,192,106225,128,0,106395:0:0:0:0:
64,192,106395,1,2,0:0:0:0:
192,192,106395,1,0,0:0:0:0:
448,192,106395,1,0,0:0:0:0:
192,192,106622,1,0,0:0:0:0:
320,192,106736,1,0,0:0:0:50:ride09.wav
64,192,106963,1,2,0:0:0:0:
192,192,106963,1,0,0:0:0:0:
320,192,107077,1,8,0:0:0:0:
64,192,107134,128,0,107247:0:0:0:0:
448,192,107304,128,0,107418:0:0:0:70:tom01.wav
192,192,107418,1,0,0:0:0:0:
320,192,107645,1,2,0:0:0:0:
448,192,107645,1,0,0:0:0:0:
192,192,107759,1,0,0:0:0:0:
64,192,107986,1,0,0:0:0:0:
448,192,108100,128,8,108185:0:0:0:0:
192,192,108213,1,0,0:0:0:0:
64,192,108327,1,0,0:0:0:0:
320,192,108441,1,8,0:0:0:0:
192,192,108497,128,0,108611:0:0:0:0:
64,192,109122,1,2,0:0:0:0:
320,192,109122,1,4,0:0:0:0:
448,192,109122,1,0,0:0:0:0:
192,192,109208,1,0,0:0:0:0:
448,192,109293,1,0,0:0:0:0:
64,192,109378,1,0,0:0:0:0:
320,192,109463,1,0,0:0:0:50:ride09.wav
448,192,109577,1,0,0:0:0:0:
192,192,109691,1,0,0:0:0:0:
320,192,109804,1,8,0:0:0:0:
448,192,109861,128,0,109975:0:0:0:0:
64,192,110032,1,0,0:0:0:0:
192,192,110145,1,0,0:0:0:0:
320,192,110259,1,0,0:0:0:0:
64,192,110372,1,2,0:0:0:0:
192,192,110372,1,0,0:0:0:0:
64,192,110486,1,2,0:0:0:0:
192,192,110486,1,0,0:0:0:0:
320,192,110713,1,0,0:0:0:0:
64,192,110827,1,8,0:0:0:0:
320,192,110941,1,0,0:0:0:70:tom01.wav
192,192,111054,1,0,0:0:0:70:tom02.wav
448,192,111168,1,8,0:0:0:0:
192,192,111225,128,0,111338:0:0:0:0:
64,192,111395,1,0,0:0:0:70:tom03.wav
448,192,111736,1,0,0:0:0:70:tom04.wav
64,192,111850,1,2,0:0:0:0:
192,192,111850,1,0,0:0:0:0:
64,192,112077,1,2,0:0:0:0:
192,192,112077,1,0,0:0:0:0:
64,192,112191,1,2,0:0:0:0:
192,192,112191,1,0,0:0:0:50:ride09.wav
192,192,112418,1,0,0:0:0:0:
320,192,112532,1,8,0:0:0:0:
64,192,112588,128,0,112702:0:0:0:0:
448,192,112759,128,0,112872:0:0:0:70:tom01.wav
192,192,112872,1,0,0:0:0:0:
320,192,113100,1,2,0:0:0:0:
448,192,113100,1,0,0:0:0:0:
64,192,113441,1,0,0:0:0:0:
320,192,113441,1,0,0:0:0:0:
448,192,113554,1,8,0:0:0:0:
64,192,113668,1,2,0:0:0:0:
192,192,113668,1,0,0:0:0:0:
64,192,113782,1,2,0:0:0:0:
192,192,113782,1,0,0:0:0:0:
448,192,113838,1,0,0:0:0:0:
64,192,113895,1,8,0:0:0:0:
320,192,113895,1,0,0:0:0:0:
192,192,113952,128,0,114066:0:0:0:0:
64,192,114122,1,0,0:0:0:50:snare1.wav
448,192,114122,1,0,0:0:0:0:
64,192,114350,1,0,0:0:0:50:snare1.wav
448,192,114350,1,0,0:0:0:0:
64,192,114577,1,2,0:0:0:0:
192,192,114577,1,4,0:0:0:0:
448,192,114577,1,0,0:0:0:0:
64,192,114804,1,2,0:0:0:0:
192,192,114804,1,0,0:0:0:0:
320,192,114918,1,0,0:0:0:0:
64,192,115032,1,0,0:0:0:0:
192,192,115145,1,0,0:0:0:50:snare1.wav
320,192,115259,1,0,0:0:0:50:ride10.wav
64,192,115316,128,0,115429:0:0:0:0:
320,192,115486,1,2,0:0:0:0:
448,192,115486,1,0,0:0:0:0:
192,192,115600,1,0,0:0:0:0:
320,192,115827,1,2,0:0:0:0:
448,192,115827,1,0,0:0:0:0:
192,192,115941,1,0,0:0:0:0:
320,192,116168,1,0,0:0:0:0:
64,192,116282,1,8,0:0:0:0:
320,192,116395,1,0,0:0:0:70:tom01.wav
192,192,116509,1,0,0:0:0:70:tom02.wav
64,192,116622,1,8,0:0:0:0:
320,192,116679,128,0,116793:0:0:0:0:
64,192,116850,1,0,0:0:0:30:snare1.wav
448,192,116850,1,0,0:0:0:0:
192,192,116963,1,0,0:0:0:30:snare1.wav
320,192,117077,1,0,0:0:0:30:snare1.wav
320,192,117191,1,0,0:0:0:30:snare1.wav
64,192,117304,1,2,0:0:0:0:
192,192,117304,1,0,0:0:0:0:
192,192,117532,1,0,0:0:0:0:
320,192,117645,1,0,0:0:0:50:ride09.wav
192,192,117730,1,0,0:0:0:30:snare1.wav
320,192,117816,1,0,0:0:0:30:snare1.wav
192,192,117872,1,0,0:0:0:0:
320,192,117929,1,0,0:0:0:0:
64,192,117986,1,8,0:0:0:0:
448,192,118043,128,0,118157:0:0:0:0:
64,192,118213,1,0,0:0:0:70:tom01.wav
192,192,118213,1,0,0:0:0:0:
320,192,118327,1,0,0:0:0:0:
64,192,118554,1,2,0:0:0:0:
192,192,118554,1,4,0:0:0:0:
448,192,118554,1,0,0:0:0:0:
192,192,118895,1,0,0:0:0:70:tom02.wav
320,192,119009,1,0,0:0:0:70:tom02.wav
192,192,119122,1,0,0:0:0:70:tom03.wav
64,192,119236,1,0,0:0:0:70:tom03.wav
448,192,119350,128,8,119463:0:0:0:0:
320,192,119463,1,0,0:0:0:70:tom04.wav
448,192,119577,128,0,119691:0:0:0:70:tom04.wav
320,192,119691,1,8,0:0:0:0:
448,192,119804,128,0,119918:0:0:0:70:tom04.wav
320,192,119918,1,0,0:0:0:70:tom04.wav
64,192,120032,1,2,0:0:0:0:
192,192,120032,1,4,0:0:0:0:
448,192,120032,1,0,0:0:0:0:
64,192,120259,1,2,0:0:0:0:
192,192,120259,1,0,0:0:0:0:
320,192,120372,1,0,0:0:0:50:ride09.wav
192,192,120600,1,0,0:0:0:0:
320,192,120713,1,8,0:0:0:0:
64,192,120770,128,0,120884:0:0:0:0:
320,192,120941,1,2,0:0:0:0:
448,192,120941,1,0,0:0:0:0:
192,192,121054,1,0,0:0:0:0:
320,192,121282,1,2,0:0:0:0:
448,192,121282,1,0,0:0:0:0:
192,192,121395,1,0,0:0:0:0:
320,192,121622,1,0,0:0:0:0:
64,192,121736,1,8,0:0:0:0:
320,192,121850,1,0,0:0:0:70:tom01.wav
192,192,121963,1,0,0:0:0:70:tom02.wav
448,192,122077,1,8,0:0:0:0:
192,192,122134,128,0,122247:0:0:0:0:
64,192,122304,1,0,0:0:0:70:tom03.wav
320,192,122418,1,8,0:0:0:0:
448,192,122645,1,0,0:0:0:70:tom04.wav
64,192,122759,1,2,0:0:0:0:
192,192,122759,1,0,0:0:0:0:
192,192,122986,1,0,0:0:0:0:
320,192,123100,1,0,0:0:0:50:ride09.wav
192,192,123185,1,0,0:0:0:0:
448,192,123270,1,0,0:0:0:0:
192,192,123327,1,0,0:0:0:0:
320,192,123384,1,0,0:0:0:0:
64,192,123441,1,8,0:0:0:0:
448,192,123497,128,0,123611:0:0:0:0:
64,192,123668,1,0,0:0:0:70:tom01.wav
192,192,123668,1,0,0:0:0:0:
320,192,123782,1,0,0:0:0:0:
64,192,124009,1,2,0:0:0:0:
448,192,124009,1,0,0:0:0:0:
192,192,124350,1,0,0:0:0:0:
320,192,124463,1,8,0:0:0:0:
192,192,124549,1,0,0:0:0:70:tom02.wav
448,192,124591,1,0,0:0:0:70:tom02.wav
320,192,124676,1,0,0:0:0:70:tom03.wav
64,192,124719,1,0,0:0:0:70:tom03.wav
192,192,124804,1,8,0:0:0:0:
320,192,124861,128,0,124975:0:0:0:0:
64,192,125032,1,0,0:0:0:50:snare1.wav
448,192,125032,1,0,0:0:0:0:
192,192,125145,1,8,0:0:0:0:
320,192,125145,1,0,0:0:0:0:
64,192,125259,1,0,0:0:0:50:snare1.wav
448,192,125259,1,0,0:0:0:0:
64,192,125486,1,2,0:0:0:0:
192,192,125486,1,4,0:0:0:0:
448,192,125486,1,0,0:0:0:0:
64,192,125600,1,2,0:0:0:0:
192,192,125600,1,0,0:0:0:0:
64,192,125713,1,2,0:0:0:0:
192,192,125713,1,0,0:0:0:0:
320,192,125827,1,2,0:0:0:0:
448,192,125827,1,0,0:0:0:50:ride09.wav
192,192,126054,1,0,0:0:0:50:snare1.wav
320,192,126168,1,0,0:0:0:50:ride10.wav
448,192,126225,128,0,126338:0:0:0:0:
192,192,126282,1,0,0:0:0:0:
320,192,126338,1,0,0:0:0:0:
64,192,126395,1,0,0:0:0:0:
192,192,126452,1,0,0:0:0:0:
320,192,126509,1,0,0:0:0:70:tom01.wav
448,192,126509,1,0,0:0:0:0:
64,192,126736,1,4,0:0:0:0:
192,192,126736,1,2,0:0:0:0:
448,192,126736,1,0,0:0:0:0:
192,192,126850,1,0,0:0:0:0:
192,192,127077,1,0,0:0:0:0:
448,192,127077,1,0,0:0:0:0:
64,192,127191,1,8,0:0:0:0:
320,192,127247,1,0,0:0:0:0:
192,192,127304,1,0,0:0:0:0:
448,192,127361,1,0,0:0:0:0:
192,192,127418,1,0,0:0:0:0:
320,192,127475,1,0,0:0:0:0:
64,192,127532,1,8,0:0:0:0:
192,192,127588,128,0,127702:0:0:0:0:
320,192,127759,1,0,0:0:0:70:tom03.wav
448,192,127759,1,0,0:0:0:0:
64,192,127872,1,0,0:0:0:0:
192,192,127986,1,0,0:0:0:70:tom01.wav
320,192,127986,1,0,0:0:0:0:
64,192,128213,1,2,0:0:0:0:
192,192,128213,1,0,0:0:0:0:
64,192,128441,1,2,0:0:0:0:
192,192,128441,1,0,0:0:0:0:
64,192,128554,1,2,0:0:0:0:
192,192,128554,1,0,0:0:0:50:ride09.wav
192,192,128782,1,0,0:0:0:0:
320,192,128895,1,8,0:0:0:0:
64,192,128952,128,0,129066:0:0:0:0:
448,192,129009,1,0,0:0:0:70:tom02.wav
192,192,129066,1,0,0:0:0:70:tom02.wav
320,192,129122,1,0,0:0:0:70:tom01.wav
64,192,129179,1,0,0:0:0:70:tom01.wav
192,192,129236,1,0,0:0:0:0:
64,192,129463,1,4,0:0:0:0:
320,192,129463,1,2,0:0:0:0:
448,192,129463,1,0,0:0:0:0:
192,192,130259,1,8,0:0:0:0:
320,192,130316,128,0,130429:0:0:0:0:
64,192,130941,1,2,0:0:0:0:
192,192,130941,1,4,0:0:0:0:
448,192,130941,1,0,0:0:0:0:
