osu file format v14

[General]
AudioFilename: audio.mp3
AudioLeadIn: 0
PreviewTime: 37794
Countdown: 0
SampleSet: Normal
StackLeniency: 0.7
Mode: 1
LetterboxInBreaks: 0
WidescreenStoryboard: 1

[Editor]
Bookmarks: 175419
DistanceSpacing: 4.8
BeatDivisor: 4
GridSize: 32
TimelineZoom: 1

[Metadata]
Title:Minnow
TitleUnicode:Minnow
Artist:Tiny Moving Parts
ArtistUnicode:Tiny Moving Parts
Creator:Mirabel
Version:Futsuu
Source:
Tags:celebrate midwest emo math rock punk indie english genjuro horiiizon
BeatmapID:2907914
BeatmapSetID:1410472

[Difficulty]
HPDrainRate:6.5
CircleSize:2
OverallDifficulty:3.5
ApproachRate:10
SliderMultiplier:1.4
SliderTickRate:1

[Events]
//Background and Video events
0,0,"stolen bg.jpg",0,0
//Break Periods
//Storyboard Layer 0 (Background)
//Storyboard Layer 1 (Fail)
//Storyboard Layer 2 (Pass)
//Storyboard Layer 3 (Foreground)
//Storyboard Layer 4 (Overlay)
//Storyboard Sound Samples

[TimingPoints]
294,375,3,1,0,85,1,0
4794,375,3,1,0,85,1,8
5169,375,3,1,0,85,1,0
14169,375,3,1,0,85,1,8
14544,375,3,1,0,85,1,0
23544,375,3,1,0,85,1,8
23919,375,3,1,0,85,1,0
32919,375,3,1,0,85,1,8
33294,375,3,1,0,85,1,0
37794,375,4,1,0,85,1,1
49794,-100,4,1,0,85,0,0
73794,-100,4,1,0,85,0,1
91794,-100,4,1,0,85,0,0
115794,375,3,1,0,85,1,0
200169,-100,4,1,0,85,0,1
223794,-100,4,1,0,85,0,0

[HitObjects]
256,192,294,5,0,0:0:0:0:
256,192,575,1,0,0:0:0:0:
256,192,856,1,0,0:0:0:0:
256,192,1419,1,8,0:0:0:0:
256,192,1700,1,8,0:0:0:0:
256,192,1981,1,8,0:0:0:0:
256,192,2544,1,0,0:0:0:0:
256,192,2825,1,0,0:0:0:0:
256,192,3106,1,0,0:0:0:0:
256,192,3669,1,8,0:0:0:0:
256,192,3950,1,8,0:0:0:0:
256,192,4231,1,8,0:0:0:0:
256,192,5169,1,0,0:0:0:0:
256,192,5450,1,0,0:0:0:0:
256,192,5731,1,0,0:0:0:0:
256,192,5919,1,8,0:0:0:0:
256,192,6294,1,8,0:0:0:0:
256,192,6575,1,8,0:0:0:0:
256,192,6856,1,8,0:0:0:0:
256,192,7044,1,0,0:0:0:0:
256,192,7419,1,0,0:0:0:0:
256,192,7794,1,0,0:0:0:0:
256,192,7981,1,0,0:0:0:0:
256,192,8169,1,0,0:0:0:0:
256,192,8544,1,8,0:0:0:0:
256,192,9669,1,0,0:0:0:0:
256,192,9950,1,0,0:0:0:0:
256,192,10231,1,0,0:0:0:0:
256,192,10794,1,8,0:0:0:0:
256,192,11075,1,8,0:0:0:0:
256,192,11356,1,8,0:0:0:0:
256,192,11919,1,0,0:0:0:0:
256,192,12200,1,0,0:0:0:0:
256,192,12481,1,0,0:0:0:0:
256,192,13044,1,8,0:0:0:0:
256,192,13325,1,8,0:0:0:0:
256,192,13606,1,8,0:0:0:0:
256,192,14544,1,0,0:0:0:0:
256,192,14825,1,0,0:0:0:0:
256,192,15106,1,0,0:0:0:0:
256,192,15294,1,8,0:0:0:0:
256,192,15669,1,8,0:0:0:0:
256,192,15950,1,8,0:0:0:0:
256,192,16231,1,8,0:0:0:0:
256,192,16419,1,0,0:0:0:0:
256,192,16794,1,0,0:0:0:0:
256,192,17169,1,0,0:0:0:0:
256,192,17356,1,0,0:0:0:0:
256,192,17544,1,0,0:0:0:0:
256,192,17919,1,0,0:0:0:0:
256,192,19044,1,0,0:0:0:0:
256,192,19325,1,8,0:0:0:0:
256,192,19606,1,0,0:0:0:0:
256,192,20169,1,8,0:0:0:0:
256,192,20450,1,0,0:0:0:0:
256,192,20731,1,8,0:0:0:0:
256,192,21294,1,8,0:0:0:0:
256,192,21575,1,0,0:0:0:0:
256,192,21856,1,0,0:0:0:0:
256,192,22419,1,8,0:0:0:0:
256,192,23919,1,0,0:0:0:0:
256,192,24200,1,0,0:0:0:0:
256,192,24481,1,0,0:0:0:0:
256,192,25044,1,8,0:0:0:0:
256,192,25325,1,8,0:0:0:0:
256,192,25606,1,8,0:0:0:0:
256,192,26169,1,0,0:0:0:0:
256,192,26544,1,0,0:0:0:0:
256,192,26731,1,0,0:0:0:0:
256,192,26919,1,0,0:0:0:0:
256,192,27294,1,8,0:0:0:0:
256,192,28044,1,8,0:0:0:0:
256,192,28419,1,0,0:0:0:0:
256,192,28700,1,8,0:0:0:0:
256,192,28981,1,0,0:0:0:0:
256,192,29544,1,8,0:0:0:0:
256,192,29825,1,0,0:0:0:0:
256,192,30106,1,8,0:0:0:0:
256,192,30669,1,8,0:0:0:0:
256,192,30950,1,0,0:0:0:0:
256,192,31231,1,0,0:0:0:0:
256,192,31794,1,8,0:0:0:0:
256,192,33294,1,0,0:0:0:0:
256,192,33575,1,0,0:0:0:0:
256,192,33856,1,0,0:0:0:0:
256,192,34419,1,8,0:0:0:0:
256,192,34700,1,8,0:0:0:0:
256,192,34981,1,8,0:0:0:0:
256,192,35544,1,0,0:0:0:0:
256,192,35919,1,0,0:0:0:0:
256,192,36106,1,0,0:0:0:0:
256,192,36294,1,0,0:0:0:0:
256,192,36669,1,4,0:0:0:0:
256,192,37794,1,0,0:0:0:0:
256,192,38544,1,0,0:0:0:0:
256,192,38919,1,8,0:0:0:0:
256,192,39294,1,0,0:0:0:0:
256,192,39669,1,8,0:0:0:0:
256,192,39856,1,8,0:0:0:0:
256,192,40044,1,0,0:0:0:0:
256,192,40231,1,0,0:0:0:0:
256,192,40419,1,8,0:0:0:0:
256,192,40794,1,0,0:0:0:0:
256,192,41544,1,8,0:0:0:0:
256,192,41919,1,0,0:0:0:0:
256,192,42294,1,8,0:0:0:0:
256,192,42669,1,0,0:0:0:0:
256,192,42856,1,0,0:0:0:0:
256,192,43044,1,8,0:0:0:0:
256,192,43231,1,8,0:0:0:0:
256,192,43419,1,0,0:0:0:0:
256,192,43794,1,8,0:0:0:0:
256,192,44544,1,0,0:0:0:0:
256,192,44919,1,8,0:0:0:0:
256,192,45294,1,0,0:0:0:0:
256,192,45481,1,0,0:0:0:0:
256,192,45669,1,8,0:0:0:0:
256,192,46044,1,0,0:0:0:0:
256,192,46419,1,8,0:0:0:0:
256,192,46794,1,0,0:0:0:0:
256,192,46981,1,8,0:0:0:0:
256,192,47169,1,0,0:0:0:0:
256,192,47356,1,0,0:0:0:0:
256,192,47544,1,8,0:0:0:0:
256,192,47919,1,8,0:0:0:0:
256,192,48294,1,8,0:0:0:0:
256,192,48481,1,0,0:0:0:0:
256,192,48669,1,8,0:0:0:0:
256,192,48856,1,8,0:0:0:0:
256,192,49044,1,0,0:0:0:0:
256,192,49794,1,0,0:0:0:0:
256,192,50169,1,0,0:0:0:0:
256,192,50356,1,8,0:0:0:0:
256,192,50731,1,0,0:0:0:0:
256,192,50919,1,8,0:0:0:0:
256,192,51294,1,8,0:0:0:0:
256,192,51481,1,0,0:0:0:0:
256,192,51669,1,0,0:0:0:0:
256,192,51856,1,8,0:0:0:0:
256,192,52044,1,0,0:0:0:0:
256,192,52794,1,0,0:0:0:0:
256,192,53169,1,0,0:0:0:0:
256,192,53356,1,8,0:0:0:0:
256,192,53731,1,0,0:0:0:0:
256,192,53919,1,8,0:0:0:0:
256,192,54294,1,0,0:0:0:0:
256,192,54481,1,8,0:0:0:0:
256,192,54669,1,8,0:0:0:0:
256,192,54856,1,0,0:0:0:0:
256,192,55044,1,8,0:0:0:0:
256,192,55794,1,8,0:0:0:0:
256,192,56169,1,8,0:0:0:0:
256,192,56356,1,0,0:0:0:0:
256,192,56731,1,8,0:0:0:0:
256,192,56919,1,0,0:0:0:0:
256,192,57294,1,8,0:0:0:0:
256,192,57481,1,8,0:0:0:0:
256,192,57669,1,0,0:0:0:0:
256,192,57856,1,0,0:0:0:0:
256,192,58044,1,8,0:0:0:0:
256,192,58794,1,0,0:0:0:0:
256,192,59169,1,0,0:0:0:0:
256,192,59356,1,8,0:0:0:0:
256,192,59731,1,0,0:0:0:0:
256,192,59919,1,8,0:0:0:0:
256,192,60294,1,0,0:0:0:0:
256,192,60481,1,0,0:0:0:0:
256,192,60669,1,8,0:0:0:0:
256,192,60856,1,8,0:0:0:0:
256,192,61044,1,0,0:0:0:0:
256,192,61419,1,8,0:0:0:0:
256,192,61606,1,8,0:0:0:0:
256,192,61794,1,0,0:0:0:0:
256,192,62169,1,8,0:0:0:0:
256,192,62919,1,8,0:0:0:0:
256,192,63294,1,0,0:0:0:0:
256,192,63669,1,8,0:0:0:0:
256,192,63856,1,0,0:0:0:0:
256,192,64044,1,0,0:0:0:0:
256,192,64419,1,8,0:0:0:0:
256,192,64794,1,0,0:0:0:0:
256,192,65169,1,8,0:0:0:0:
256,192,65356,1,0,0:0:0:0:
256,192,65919,1,8,0:0:0:0:
256,192,66294,1,0,0:0:0:0:
256,192,66669,1,8,0:0:0:0:
256,192,66856,1,8,0:0:0:0:
256,192,67044,1,0,0:0:0:0:
256,192,67419,1,8,0:0:0:0:
256,192,67794,1,0,0:0:0:0:
256,192,68169,1,8,0:0:0:0:
256,192,68919,1,8,0:0:0:0:
256,192,69294,1,0,0:0:0:0:
256,192,69669,1,8,0:0:0:0:
256,192,69856,1,0,0:0:0:0:
256,192,70044,1,0,0:0:0:0:
256,192,70419,1,8,0:0:0:0:
256,192,70794,1,0,0:0:0:0:
256,192,71169,1,8,0:0:0:0:
256,192,71919,1,8,0:0:0:0:
256,192,72294,1,0,0:0:0:0:
256,192,72669,1,8,0:0:0:0:
256,192,72856,1,8,0:0:0:0:
256,192,73044,1,8,0:0:0:0:
256,192,73231,1,0,0:0:0:0:
256,192,73419,1,0,0:0:0:0:
256,192,73794,1,8,0:0:0:0:
256,192,74169,1,0,0:0:0:0:
256,192,74356,1,8,0:0:0:0:
256,192,74919,1,8,0:0:0:0:
256,192,75294,1,0,0:0:0:0:
256,192,75481,1,0,0:0:0:0:
256,192,75669,1,8,0:0:0:0:
256,192,76044,1,8,0:0:0:0:
256,192,76794,1,0,0:0:0:0:
256,192,77169,1,0,0:0:0:0:
256,192,77356,1,8,0:0:0:0:
256,192,77919,1,8,0:0:0:0:
256,192,78294,1,0,0:0:0:0:
256,192,78669,1,0,0:0:0:0:
256,192,78856,1,0,0:0:0:0:
256,192,79044,1,8,0:0:0:0:
256,192,79419,1,8,0:0:0:0:
256,192,79606,1,8,0:0:0:0:
256,192,79794,1,0,0:0:0:0:
256,192,80169,1,0,0:0:0:0:
256,192,80356,1,8,0:0:0:0:
256,192,80919,1,8,0:0:0:0:
256,192,81294,1,8,0:0:0:0:
256,192,81481,1,0,0:0:0:0:
256,192,81669,1,8,0:0:0:0:
256,192,82044,1,8,0:0:0:0:
256,192,82794,1,0,0:0:0:0:
256,192,83169,1,0,0:0:0:0:
256,192,83356,1,8,0:0:0:0:
256,192,83919,1,8,0:0:0:0:
256,192,84294,1,0,0:0:0:0:
256,192,84669,1,8,0:0:0:0:
256,192,84856,1,8,0:0:0:0:
256,192,85044,1,0,0:0:0:0:
256,192,85231,1,0,0:0:0:0:
256,192,85419,1,8,0:0:0:0:
256,192,85794,1,0,0:0:0:0:
256,192,86169,1,0,0:0:0:0:
256,192,86356,1,8,0:0:0:0:
256,192,87294,1,0,0:0:0:0:
256,192,87669,1,8,0:0:0:0:
256,192,87856,1,0,0:0:0:0:
256,192,88044,1,0,0:0:0:0:
256,192,88419,1,8,0:0:0:0:
256,192,88794,1,0,0:0:0:0:
256,192,88981,1,8,0:0:0:0:
256,192,89169,1,0,0:0:0:0:
256,192,89356,1,0,0:0:0:0:
256,192,89544,1,8,0:0:0:0:
256,192,89919,1,8,0:0:0:0:
256,192,90294,1,8,0:0:0:0:
256,192,90481,1,8,0:0:0:0:
256,192,90669,1,0,0:0:0:0:
256,192,90856,1,0,0:0:0:0:
256,192,91044,1,8,0:0:0:0:
256,192,91419,1,8,0:0:0:0:
256,192,91794,1,4,0:0:0:0:
256,192,94794,1,0,0:0:0:0:
256,192,95169,1,8,0:0:0:0:
256,192,95356,1,0,0:0:0:0:
256,192,95919,1,8,0:0:0:0:
256,192,96294,1,0,0:0:0:0:
256,192,96669,1,8,0:0:0:0:
256,192,97419,1,8,0:0:0:0:
256,192,97794,1,0,0:0:0:0:
256,192,98169,1,8,0:0:0:0:
256,192,98356,1,0,0:0:0:0:
256,192,98919,1,8,0:0:0:0:
256,192,99294,1,0,0:0:0:0:
256,192,99669,1,8,0:0:0:0:
256,192,100419,1,8,0:0:0:0:
256,192,100794,1,0,0:0:0:0:
256,192,101169,1,8,0:0:0:0:
256,192,101356,1,0,0:0:0:0:
256,192,101919,1,8,0:0:0:0:
256,192,102294,1,0,0:0:0:0:
256,192,102669,1,8,0:0:0:0:
256,192,102856,1,8,0:0:0:0:
256,192,103044,1,0,0:0:0:0:
256,192,103419,1,8,0:0:0:0:
256,192,103794,1,0,0:0:0:0:
256,192,104169,1,8,0:0:0:0:
256,192,104919,1,8,0:0:0:0:
256,192,105294,1,0,0:0:0:0:
256,192,105669,1,8,0:0:0:0:
256,192,106044,1,8,0:0:0:0:
256,192,106231,1,0,0:0:0:0:
256,192,106419,1,0,0:0:0:0:
256,192,106794,1,0,0:0:0:0:
256,192,107169,1,8,0:0:0:0:
256,192,107919,1,8,0:0:0:0:
256,192,108294,1,0,0:0:0:0:
256,192,108669,1,8,0:0:0:0:
256,192,109044,1,0,0:0:0:0:
256,192,109231,1,0,0:0:0:0:
256,192,109419,1,8,0:0:0:0:
256,192,109606,1,8,0:0:0:0:
256,192,109794,1,0,0:0:0:0:
256,192,110169,1,8,0:0:0:0:
256,192,110919,1,8,0:0:0:0:
256,192,111294,1,0,0:0:0:0:
256,192,111669,1,8,0:0:0:0:
256,192,111856,1,8,0:0:0:0:
256,192,112044,1,0,0:0:0:0:
256,192,112419,1,8,0:0:0:0:
256,192,112794,1,0,0:0:0:0:
256,192,113169,1,8,0:0:0:0:
256,192,113544,1,0,0:0:0:0:
256,192,113731,1,0,0:0:0:0:
256,192,113919,1,8,0:0:0:0:
256,192,114294,1,0,0:0:0:0:
256,192,114669,1,0,0:0:0:0:
256,192,114856,1,0,0:0:0:0:
256,192,115044,1,0,0:0:0:0:
256,192,115231,1,0,0:0:0:0:
256,192,115419,1,0,0:0:0:0:
256,192,115794,1,12,0:0:0:0:
256,192,116919,1,12,0:0:0:0:
256,192,118044,1,12,0:0:0:0:
256,192,119169,1,4,0:0:0:0:
256,192,120294,1,8,0:0:0:0:
256,192,121419,1,0,0:0:0:0:
256,192,122356,1,0,0:0:0:0:
256,192,122544,1,8,0:0:0:0:
256,192,123669,1,4,0:0:0:0:
256,192,124419,1,8,0:0:0:0:
256,192,124794,1,0,0:0:0:0:
256,192,125544,1,8,0:0:0:0:
256,192,125919,1,0,0:0:0:0:
256,192,126669,1,8,0:0:0:0:
256,192,127044,1,0,0:0:0:0:
256,192,127419,1,0,0:0:0:0:
256,192,127794,1,8,0:0:0:0:
256,192,128169,1,4,0:0:0:0:
256,192,128919,1,8,0:0:0:0:
256,192,129294,1,0,0:0:0:0:
256,192,130044,1,8,0:0:0:0:
256,192,130419,1,0,0:0:0:0:
256,192,130794,1,0,0:0:0:0:
256,192,131169,1,0,0:0:0:0:
256,192,131544,1,0,0:0:0:0:
256,192,132669,1,4,0:0:0:0:
256,192,133419,1,8,0:0:0:0:
256,192,133794,1,0,0:0:0:0:
256,192,134544,1,8,0:0:0:0:
256,192,134919,1,0,0:0:0:0:
256,192,135669,1,8,0:0:0:0:
256,192,136044,1,0,0:0:0:0:
256,192,136419,1,0,0:0:0:0:
256,192,136794,1,8,0:0:0:0:
256,192,137169,1,4,0:0:0:0:
256,192,137919,1,8,0:0:0:0:
256,192,138294,1,0,0:0:0:0:
256,192,139044,1,8,0:0:0:0:
256,192,139419,1,0,0:0:0:0:
256,192,139794,1,0,0:0:0:0:
256,192,140169,1,0,0:0:0:0:
256,192,140544,1,8,0:0:0:0:
256,192,141669,1,12,0:0:0:0:
256,192,142794,1,12,0:0:0:0:
256,192,143919,1,12,0:0:0:0:
256,192,145044,1,4,0:0:0:0:
256,192,146169,1,8,0:0:0:0:
256,192,147294,1,0,0:0:0:0:
256,192,148419,1,8,0:0:0:0:
256,192,148794,1,0,0:0:0:0:
256,192,149544,1,12,0:0:0:0:
256,192,150669,1,12,0:0:0:0:
256,192,151794,1,12,0:0:0:0:
256,192,152919,1,4,0:0:0:0:
256,192,154044,1,8,0:0:0:0:
256,192,155169,1,0,0:0:0:0:
256,192,156294,1,8,0:0:0:0:
256,192,157419,1,0,0:0:0:0:
256,192,157794,1,0,0:0:0:0:
256,192,157981,1,0,0:0:0:0:
256,192,158169,1,8,0:0:0:0:
256,192,158544,1,0,0:0:0:0:
256,192,158919,1,8,0:0:0:0:
256,192,159294,1,8,0:0:0:0:
256,192,159669,1,0,0:0:0:0:
256,192,160231,1,0,0:0:0:0:
256,192,160419,1,8,0:0:0:0:
256,192,160794,1,0,0:0:0:0:
256,192,161919,1,0,0:0:0:0:
256,192,162294,1,8,0:0:0:0:
256,192,162481,1,8,0:0:0:0:
256,192,162669,1,0,0:0:0:0:
256,192,163044,1,0,0:0:0:0:
256,192,163419,1,8,0:0:0:0:
256,192,163794,1,0,0:0:0:0:
256,192,164169,1,8,0:0:0:0:
256,192,164731,1,0,0:0:0:0:
256,192,164919,1,8,0:0:0:0:
256,192,165294,1,0,0:0:0:0:
256,192,166419,1,0,0:0:0:0:
256,192,166794,1,8,0:0:0:0:
256,192,167169,1,8,0:0:0:0:
256,192,167544,1,0,0:0:0:0:
256,192,167919,1,8,0:0:0:0:
256,192,168106,1,8,0:0:0:0:
256,192,168294,1,0,0:0:0:0:
256,192,168669,1,0,0:0:0:0:
256,192,169044,1,8,0:0:0:0:
256,192,169419,1,0,0:0:0:0:
256,192,169794,1,8,0:0:0:0:
256,192,170919,1,8,0:0:0:0:
256,192,171294,1,0,0:0:0:0:
256,192,171669,1,0,0:0:0:0:
256,192,172044,1,8,0:0:0:0:
256,192,172419,1,0,0:0:0:0:
256,192,172606,1,0,0:0:0:0:
256,192,172794,1,8,0:0:0:0:
256,192,173169,1,8,0:0:0:0:
256,192,173544,1,0,0:0:0:0:
256,192,173919,1,8,0:0:0:0:
256,192,174294,1,0,0:0:0:0:
256,192,175419,1,8,0:0:0:0:
256,192,175794,1,8,0:0:0:0:
256,192,176169,1,8,0:0:0:0:
256,192,176544,1,0,0:0:0:0:
256,192,176919,1,0,0:0:0:0:
256,192,177294,1,8,0:0:0:0:
256,192,177669,1,0,0:0:0:0:
256,192,178044,1,8,0:0:0:0:
256,192,178419,1,8,0:0:0:0:
256,192,178794,1,0,0:0:0:0:
256,192,179919,1,8,0:0:0:0:
256,192,180294,1,0,0:0:0:0:
256,192,180669,1,0,0:0:0:0:
256,192,181044,1,8,0:0:0:0:
256,192,181419,1,0,0:0:0:0:
256,192,181794,1,0,0:0:0:0:
256,192,182169,1,8,0:0:0:0:
256,192,184419,1,0,0:0:0:0:
256,192,184794,1,0,0:0:0:0:
256,192,185544,1,8,0:0:0:0:
256,192,185919,1,0,0:0:0:0:
256,192,186669,1,0,0:0:0:0:
256,192,187044,1,0,0:0:0:0:
256,192,187794,1,4,0:0:0:0:
256,192,188919,1,8,0:0:0:0:
256,192,190044,1,0,0:0:0:0:
256,192,191169,1,8,0:0:0:0:
256,192,192294,1,0,0:0:0:0:
256,192,192669,1,0,0:0:0:0:
256,192,193419,1,8,0:0:0:0:
256,192,193794,1,0,0:0:0:0:
256,192,194544,1,0,0:0:0:0:
256,192,194919,1,0,0:0:0:0:
256,192,195669,1,4,0:0:0:0:
256,192,196794,1,8,0:0:0:0:
256,192,197919,1,0,0:0:0:0:
256,192,199044,1,8,0:0:0:0:
256,192,200169,1,0,0:0:0:0:
256,192,200544,1,0,0:0:0:0:
256,192,201106,1,0,0:0:0:0:
256,192,201294,1,8,0:0:0:0:
256,192,201669,1,0,0:0:0:0:
256,192,202419,1,8,0:0:0:0:
256,192,202794,1,8,0:0:0:0:
256,192,203544,1,0,0:0:0:0:
256,192,204669,1,8,0:0:0:0:
256,192,205044,1,0,0:0:0:0:
256,192,205419,1,0,0:0:0:0:
256,192,205794,1,8,0:0:0:0:
256,192,206919,1,0,0:0:0:0:
256,192,207294,1,8,0:0:0:0:
256,192,207669,1,8,0:0:0:0:
256,192,208044,1,0,0:0:0:0:
256,192,208419,1,0,0:0:0:0:
256,192,208981,1,0,0:0:0:0:
256,192,209169,1,8,0:0:0:0:
256,192,209544,1,0,0:0:0:0:
256,192,210294,1,8,0:0:0:0:
256,192,210669,1,8,0:0:0:0:
256,192,211419,1,0,0:0:0:0:
256,192,212544,1,8,0:0:0:0:
256,192,212919,1,0,0:0:0:0:
256,192,213294,1,0,0:0:0:0:
256,192,213669,1,8,0:0:0:0:
256,192,214044,1,8,0:0:0:0:
256,192,214419,1,0,0:0:0:0:
256,192,214794,1,8,0:0:0:0:
256,192,215919,1,0,0:0:0:0:
256,192,216294,1,0,0:0:0:0:
256,192,216669,1,8,0:0:0:0:
256,192,217044,1,8,0:0:0:0:
256,192,217419,1,0,0:0:0:0:
256,192,217794,1,8,0:0:0:0:
256,192,218169,1,0,0:0:0:0:
256,192,218544,1,8,0:0:0:0:
256,192,218919,1,8,0:0:0:0:
256,192,219294,1,0,0:0:0:0:
256,192,220419,1,0,0:0:0:0:
256,192,220794,1,8,0:0:0:0:
256,192,221169,1,8,0:0:0:0:
256,192,221544,1,0,0:0:0:0:
256,192,221919,1,8,0:0:0:0:
256,192,222294,1,0,0:0:0:0:
256,192,222669,1,0,0:0:0:0:
256,192,223044,1,8,0:0:0:0:
256,192,223419,1,0,0:0:0:0:
256,192,223794,1,12,0:0:0:0:
