osu file format v14

[General]
AudioFilename: tiny-moving-parts-birdhouse.mp3
AudioLeadIn: 0
PreviewTime: -1
Countdown: 0
SampleSet: None
StackLeniency: 0.7
Mode: 3
LetterboxInBreaks: 0
SpecialStyle: 0
WidescreenStoryboard: 0

[Editor]
DistanceSpacing: 1.6
BeatDivisor: 4
GridSize: 8
TimelineZoom: 2.1

[Metadata]
Title:Birdhouse
TitleUnicode:Birdhouse
Artist:Tiny Moving Parts
ArtistUnicode:Tiny Moving Parts
Creator:X_Devil
Version:7k Insane
Source:
Tags:tiny moving parts birdhouse
BeatmapID:1766415
BeatmapSetID:844414

[Difficulty]
HPDrainRate:8
CircleSize:7
OverallDifficulty:8
ApproachRate:5
SliderMultiplier:1.4
SliderTickRate:1

[Events]
//Background and Video events
0,0,"Tiny-Moving-Parts-6190-e1519055959490.jpg",0,0
//Break Periods
//Storyboard Layer 0 (Background)
//Storyboard Layer 1 (Fail)
//Storyboard Layer 2 (Pass)
//Storyboard Layer 3 (Foreground)
//Storyboard Sound Samples

[TimingPoints]
200,545.448087431694,4,2,0,15,1,0
200,-73.5294117647059,4,2,0,15,0,0
81037,387.096774193548,4,2,0,15,1,0
81037,-100,4,2,0,15,0,0

[HitObjects]
182,192,200,128,0,336:0:0:0:0:
402,192,200,128,0,336:0:0:0:0:
475,192,200,128,0,336:0:0:0:0:
109,192,472,128,0,745:0:0:0:0:
182,192,472,128,0,745:0:0:0:0:
329,192,472,128,0,745:0:0:0:0:
256,192,745,1,0,0:0:0:0:
402,192,745,1,0,0:0:0:0:
475,192,745,1,0,0:0:0:0:
36,192,881,1,0,0:0:0:0:
109,192,881,1,0,0:0:0:0:
256,192,881,128,0,1154:0:0:0:0:
402,192,1154,1,0,0:0:0:0:
475,192,1154,1,0,0:0:0:0:
329,192,1154,1,0,0:0:0:0:
109,192,1290,128,0,1427:0:0:0:0:
182,192,1290,128,0,1427:0:0:0:0:
402,192,1290,128,0,1427:0:0:0:0:
402,192,1563,128,0,1836:0:0:0:0:
329,192,1563,128,0,1836:0:0:0:0:
256,192,1563,128,0,1836:0:0:0:0:
182,192,1836,1,0,0:0:0:0:
109,192,1836,1,0,0:0:0:0:
475,192,1836,1,0,0:0:0:0:
36,192,1972,1,0,0:0:0:0:
109,192,1972,1,0,0:0:0:0:
256,192,1972,128,0,2245:0:0:0:0:
402,192,2245,1,0,0:0:0:0:
475,192,2381,128,0,2518:0:0:0:0:
36,192,2381,1,0,0:0:0:0:
109,192,2381,1,0,0:0:0:0:
182,192,2381,1,0,0:0:0:0:
256,192,2381,1,0,0:0:0:0:
402,192,2518,128,0,2654:0:0:0:0:
329,192,2654,128,0,2790:0:0:0:0:
256,192,2790,128,0,2927:0:0:0:0:
402,192,2927,128,0,3063:0:0:0:0:
36,192,2927,1,0,0:0:0:0:
109,192,2927,1,0,0:0:0:0:
182,192,2927,1,0,0:0:0:0:
475,192,2927,1,0,0:0:0:0:
329,192,3063,128,0,3199:0:0:0:0:
256,192,3199,128,0,3336:0:0:0:0:
182,192,3336,128,0,3472:0:0:0:0:
329,192,3472,128,0,3609:0:0:0:0:
36,192,3472,1,0,0:0:0:0:
109,192,3472,1,0,0:0:0:0:
402,192,3472,1,0,0:0:0:0:
475,192,3472,1,0,0:0:0:0:
256,192,3609,128,0,3745:0:0:0:0:
182,192,3745,128,0,3881:0:0:0:0:
109,192,3881,128,0,4018:0:0:0:0:
36,192,4018,128,0,4290:0:0:0:0:
329,192,4290,128,0,4563:0:0:0:0:
402,192,4290,128,0,4563:0:0:0:0:
182,192,4563,128,0,4699:0:0:0:0:
256,192,4563,128,0,4699:0:0:0:0:
475,192,4563,128,0,4699:0:0:0:0:
109,192,4836,128,0,5109:0:0:0:0:
182,192,4836,128,0,5109:0:0:0:0:
329,192,4836,128,0,5109:0:0:0:0:
256,192,5109,1,0,0:0:0:0:
402,192,5109,1,0,0:0:0:0:
475,192,5109,1,0,0:0:0:0:
256,192,5245,128,0,5518:0:0:0:0:
109,192,5245,1,0,0:0:0:0:
36,192,5245,1,0,0:0:0:0:
329,192,5518,1,0,0:0:0:0:
402,192,5518,1,0,0:0:0:0:
475,192,5518,1,0,0:0:0:0:
402,192,5654,128,0,5790:0:0:0:0:
182,192,5654,128,0,5790:0:0:0:0:
109,192,5654,128,0,5790:0:0:0:0:
256,192,5927,128,0,6199:0:0:0:0:
329,192,5927,128,0,6199:0:0:0:0:
402,192,5927,128,0,6199:0:0:0:0:
109,192,6199,1,0,0:0:0:0:
182,192,6199,1,0,0:0:0:0:
475,192,6199,1,0,0:0:0:0:
36,192,6336,1,0,0:0:0:0:
109,192,6336,1,0,0:0:0:0:
256,192,6336,128,0,6609:0:0:0:0:
402,192,6609,1,0,0:0:0:0:
475,192,6745,128,0,6881:0:0:0:0:
36,192,6745,1,0,0:0:0:0:
109,192,6745,1,0,0:0:0:0:
182,192,6745,1,0,0:0:0:0:
256,192,6745,1,0,0:0:0:0:
402,192,6881,128,0,7018:0:0:0:0:
329,192,7018,128,0,7154:0:0:0:0:
256,192,7154,128,0,7290:0:0:0:0:
402,192,7290,128,0,7427:0:0:0:0:
36,192,7290,1,0,0:0:0:0:
109,192,7290,1,0,0:0:0:0:
182,192,7290,1,0,0:0:0:0:
475,192,7290,1,0,0:0:0:0:
329,192,7427,128,0,7563:0:0:0:0:
256,192,7563,128,0,7699:0:0:0:0:
475,192,7563,1,0,0:0:0:0:
182,192,7699,128,0,7836:0:0:0:0:
402,192,7699,1,0,0:0:0:0:
36,192,7836,1,0,0:0:0:0:
109,192,7836,1,0,0:0:0:0:
329,192,7836,128,0,7972:0:0:0:0:
475,192,7836,1,0,0:0:0:0:
256,192,7972,128,0,8108:0:0:0:0:
402,192,7972,1,0,0:0:0:0:
182,192,8108,128,0,8245:0:0:0:0:
329,192,8108,1,0,0:0:0:0:
109,192,8245,128,0,8381:0:0:0:0:
256,192,8245,1,0,0:0:0:0:
182,192,8381,1,0,0:0:0:0:
36,192,8381,128,0,8654:0:0:0:0:
329,192,8654,128,0,8927:0:0:0:0:
402,192,8654,128,0,8927:0:0:0:0:
109,192,8927,128,0,9063:0:0:0:0:
182,192,8927,128,0,9063:0:0:0:0:
256,192,8927,128,0,9063:0:0:0:0:
109,192,9199,128,0,9336:0:0:0:0:
182,192,9199,128,0,9336:0:0:0:0:
256,192,9199,128,0,9336:0:0:0:0:
36,192,9472,1,0,0:0:0:0:
182,192,9472,1,0,0:0:0:0:
256,192,9472,1,0,0:0:0:0:
182,192,9608,128,0,9745:0:0:0:0:
329,192,9608,128,0,9745:0:0:0:0:
402,192,9608,128,0,9745:0:0:0:0:
256,192,9881,1,0,0:0:0:0:
475,192,9881,1,0,0:0:0:0:
402,192,9881,1,0,0:0:0:0:
109,192,10018,128,0,10154:0:0:0:0:
182,192,10018,128,0,10154:0:0:0:0:
256,192,10018,128,0,10154:0:0:0:0:
109,192,10290,128,0,10427:0:0:0:0:
182,192,10290,128,0,10427:0:0:0:0:
256,192,10290,128,0,10427:0:0:0:0:
36,192,10563,1,0,0:0:0:0:
182,192,10563,1,0,0:0:0:0:
256,192,10563,1,0,0:0:0:0:
182,192,10699,128,0,10836:0:0:0:0:
402,192,10699,128,0,10836:0:0:0:0:
329,192,10699,128,0,10836:0:0:0:0:
256,192,10972,1,0,0:0:0:0:
402,192,10972,1,0,0:0:0:0:
475,192,10972,1,0,0:0:0:0:
182,192,11108,128,0,11245:0:0:0:0:
36,192,11108,128,0,11245:0:0:0:0:
329,192,11108,128,0,11245:0:0:0:0:
109,192,11381,128,0,11518:0:0:0:0:
256,192,11381,128,0,11518:0:0:0:0:
402,192,11381,128,0,11518:0:0:0:0:
256,192,11654,1,0,0:0:0:0:
36,192,11654,1,0,0:0:0:0:
182,192,11790,128,0,11927:0:0:0:0:
402,192,11790,128,0,11927:0:0:0:0:
475,192,11790,128,0,11927:0:0:0:0:
109,192,12063,1,0,0:0:0:0:
256,192,12063,1,0,0:0:0:0:
329,192,12063,1,0,0:0:0:0:
475,192,12199,1,0,0:0:0:0:
256,192,12199,1,0,0:0:0:0:
36,192,12199,1,0,0:0:0:0:
256,192,12381,1,0,0:0:0:0:
36,192,12381,1,0,0:0:0:0:
475,192,12381,1,0,0:0:0:0:
475,192,12563,1,0,0:0:0:0:
36,192,12563,1,0,0:0:0:0:
256,192,12563,1,0,0:0:0:0:
36,192,12745,1,0,0:0:0:0:
256,192,12745,1,0,0:0:0:0:
475,192,12745,1,0,0:0:0:0:
475,192,12927,1,0,0:0:0:0:
256,192,12927,1,0,0:0:0:0:
36,192,12927,1,0,0:0:0:0:
36,192,13108,1,0,0:0:0:0:
256,192,13108,1,0,0:0:0:0:
475,192,13108,1,0,0:0:0:0:
182,192,13290,128,0,13427:0:0:0:0:
256,192,13290,128,0,13427:0:0:0:0:
109,192,13290,128,0,13427:0:0:0:0:
109,192,13563,128,0,13699:0:0:0:0:
182,192,13563,128,0,13699:0:0:0:0:
256,192,13563,128,0,13699:0:0:0:0:
36,192,13836,1,0,0:0:0:0:
182,192,13836,1,0,0:0:0:0:
256,192,13836,1,0,0:0:0:0:
182,192,13972,128,0,14108:0:0:0:0:
329,192,13972,128,0,14108:0:0:0:0:
402,192,13972,128,0,14108:0:0:0:0:
256,192,14245,1,0,0:0:0:0:
475,192,14245,1,0,0:0:0:0:
402,192,14245,1,0,0:0:0:0:
109,192,14381,128,0,14518:0:0:0:0:
182,192,14381,128,0,14518:0:0:0:0:
256,192,14381,128,0,14518:0:0:0:0:
109,192,14654,128,0,14790:0:0:0:0:
182,192,14654,128,0,14790:0:0:0:0:
256,192,14654,128,0,14790:0:0:0:0:
36,192,14927,1,0,0:0:0:0:
182,192,14927,1,0,0:0:0:0:
256,192,14927,1,0,0:0:0:0:
182,192,15063,128,0,15199:0:0:0:0:
402,192,15063,128,0,15199:0:0:0:0:
329,192,15063,128,0,15199:0:0:0:0:
256,192,15336,1,0,0:0:0:0:
402,192,15336,1,0,0:0:0:0:
475,192,15336,1,0,0:0:0:0:
36,192,15472,128,0,15608:0:0:0:0:
182,192,15472,128,0,15608:0:0:0:0:
329,192,15472,128,0,15608:0:0:0:0:
109,192,15745,128,0,15881:0:0:0:0:
256,192,15745,128,0,15881:0:0:0:0:
402,192,15745,128,0,15881:0:0:0:0:
36,192,16017,1,0,0:0:0:0:
256,192,16017,1,0,0:0:0:0:
182,192,16154,128,0,16290:0:0:0:0:
475,192,16154,128,0,16290:0:0:0:0:
402,192,16154,128,0,16290:0:0:0:0:
109,192,16427,1,0,0:0:0:0:
256,192,16427,1,0,0:0:0:0:
329,192,16427,1,0,0:0:0:0:
475,192,16563,1,0,0:0:0:0:
256,192,16563,1,0,0:0:0:0:
36,192,16563,1,0,0:0:0:0:
36,192,16745,1,0,0:0:0:0:
256,192,16745,1,0,0:0:0:0:
475,192,16745,1,0,0:0:0:0:
475,192,16927,1,0,0:0:0:0:
256,192,16927,1,0,0:0:0:0:
36,192,16927,1,0,0:0:0:0:
36,192,17108,1,0,0:0:0:0:
256,192,17108,1,0,0:0:0:0:
475,192,17108,1,0,0:0:0:0:
36,192,17290,1,0,0:0:0:0:
256,192,17290,1,0,0:0:0:0:
475,192,17290,1,0,0:0:0:0:
36,192,17472,1,0,0:0:0:0:
256,192,17472,1,0,0:0:0:0:
475,192,17472,1,0,0:0:0:0:
109,192,17654,128,0,17790:0:0:0:0:
36,192,17654,128,0,17790:0:0:0:0:
329,192,17654,128,0,17790:0:0:0:0:
182,192,17927,128,0,18199:0:0:0:0:
329,192,17927,128,0,18199:0:0:0:0:
402,192,17927,128,0,18199:0:0:0:0:
256,192,18199,1,0,0:0:0:0:
36,192,18199,1,0,0:0:0:0:
109,192,18199,1,0,0:0:0:0:
256,192,18336,128,0,18608:0:0:0:0:
475,192,18336,1,0,0:0:0:0:
402,192,18336,1,0,0:0:0:0:
36,192,18608,1,0,0:0:0:0:
109,192,18608,1,0,0:0:0:0:
182,192,18608,1,0,0:0:0:0:
402,192,18745,128,0,18881:0:0:0:0:
329,192,18745,128,0,18881:0:0:0:0:
109,192,18745,128,0,18881:0:0:0:0:
109,192,19017,128,0,19290:0:0:0:0:
182,192,19017,128,0,19290:0:0:0:0:
256,192,19017,128,0,19290:0:0:0:0:
329,192,19290,1,0,0:0:0:0:
402,192,19290,1,0,0:0:0:0:
36,192,19290,1,0,0:0:0:0:
475,192,19427,1,0,0:0:0:0:
402,192,19427,1,0,0:0:0:0:
256,192,19427,128,0,19699:0:0:0:0:
36,192,19699,1,0,0:0:0:0:
475,192,19836,128,0,19972:0:0:0:0:
402,192,19836,1,0,0:0:0:0:
329,192,19836,1,0,0:0:0:0:
256,192,19836,1,0,0:0:0:0:
182,192,19836,1,0,0:0:0:0:
402,192,19972,128,0,20108:0:0:0:0:
329,192,20108,128,0,20245:0:0:0:0:
256,192,20245,128,0,20381:0:0:0:0:
182,192,20381,1,0,0:0:0:0:
329,192,20381,1,0,0:0:0:0:
109,192,20381,1,0,0:0:0:0:
402,192,20381,128,0,20517:0:0:0:0:
329,192,20517,128,0,20654:0:0:0:0:
256,192,20654,128,0,20790:0:0:0:0:
182,192,20790,128,0,20927:0:0:0:0:
36,192,20927,1,0,0:0:0:0:
109,192,20927,1,0,0:0:0:0:
329,192,20927,128,0,21063:0:0:0:0:
402,192,20927,1,0,0:0:0:0:
475,192,20927,1,0,0:0:0:0:
256,192,21063,128,0,21199:0:0:0:0:
182,192,21199,128,0,21336:0:0:0:0:
109,192,21336,128,0,21472:0:0:0:0:
36,192,21472,128,0,21745:0:0:0:0:
475,192,21745,128,0,22017:0:0:0:0:
402,192,21745,128,0,22017:0:0:0:0:
256,192,22017,128,0,22154:0:0:0:0:
36,192,22017,128,0,22154:0:0:0:0:
329,192,22017,128,0,22154:0:0:0:0:
182,192,22290,128,0,22563:0:0:0:0:
329,192,22290,128,0,22563:0:0:0:0:
402,192,22290,128,0,22563:0:0:0:0:
256,192,22563,1,0,0:0:0:0:
36,192,22563,1,0,0:0:0:0:
109,192,22563,1,0,0:0:0:0:
475,192,22699,1,0,0:0:0:0:
402,192,22699,1,0,0:0:0:0:
256,192,22699,128,0,22972:0:0:0:0:
109,192,22972,1,0,0:0:0:0:
36,192,22972,1,0,0:0:0:0:
182,192,22972,1,0,0:0:0:0:
402,192,23108,128,0,23245:0:0:0:0:
329,192,23108,128,0,23245:0:0:0:0:
109,192,23108,128,0,23245:0:0:0:0:
109,192,23381,128,0,23654:0:0:0:0:
182,192,23381,128,0,23654:0:0:0:0:
256,192,23381,128,0,23654:0:0:0:0:
36,192,23654,1,0,0:0:0:0:
329,192,23654,1,0,0:0:0:0:
402,192,23654,1,0,0:0:0:0:
256,192,23790,128,0,24063:0:0:0:0:
402,192,23790,1,0,0:0:0:0:
475,192,23790,1,0,0:0:0:0:
402,192,24063,1,0,0:0:0:0:
475,192,24199,128,0,24336:0:0:0:0:
36,192,24199,1,0,0:0:0:0:
109,192,24199,1,0,0:0:0:0:
182,192,24199,1,0,0:0:0:0:
256,192,24199,1,0,0:0:0:0:
402,192,24336,128,0,24472:0:0:0:0:
329,192,24472,128,0,24608:0:0:0:0:
256,192,24608,128,0,24745:0:0:0:0:
182,192,24745,1,0,0:0:0:0:
109,192,24745,1,0,0:0:0:0:
402,192,24745,128,0,24881:0:0:0:0:
36,192,24745,1,0,0:0:0:0:
475,192,24745,1,0,0:0:0:0:
329,192,24881,128,0,25017:0:0:0:0:
256,192,25017,128,0,25154:0:0:0:0:
475,192,25017,1,0,0:0:0:0:
182,192,25154,128,0,25290:0:0:0:0:
402,192,25154,1,0,0:0:0:0:
36,192,25290,1,0,0:0:0:0:
109,192,25290,1,0,0:0:0:0:
329,192,25290,128,0,25426:0:0:0:0:
475,192,25290,1,0,0:0:0:0:
256,192,25426,128,0,25563:0:0:0:0:
402,192,25426,1,0,0:0:0:0:
182,192,25563,128,0,25699:0:0:0:0:
329,192,25563,1,0,0:0:0:0:
109,192,25699,128,0,25836:0:0:0:0:
256,192,25699,1,0,0:0:0:0:
36,192,25836,128,0,26108:0:0:0:0:
182,192,25836,1,0,0:0:0:0:
402,192,26108,128,0,26381:0:0:0:0:
475,192,26108,128,0,26381:0:0:0:0:
182,192,26381,128,0,26517:0:0:0:0:
329,192,26381,128,0,26517:0:0:0:0:
256,192,26381,128,0,26517:0:0:0:0:
182,192,26654,128,0,26790:0:0:0:0:
329,192,26654,128,0,26790:0:0:0:0:
256,192,26654,128,0,26790:0:0:0:0:
475,192,26926,1,0,0:0:0:0:
329,192,26926,1,0,0:0:0:0:
256,192,26926,1,0,0:0:0:0:
329,192,27063,128,0,27199:0:0:0:0:
182,192,27063,128,0,27199:0:0:0:0:
109,192,27063,128,0,27199:0:0:0:0:
256,192,27336,1,0,0:0:0:0:
36,192,27336,1,0,0:0:0:0:
109,192,27336,1,0,0:0:0:0:
182,192,27472,128,0,27608:0:0:0:0:
329,192,27472,128,0,27608:0:0:0:0:
256,192,27472,128,0,27608:0:0:0:0:
182,192,27745,128,0,27881:0:0:0:0:
329,192,27745,128,0,27881:0:0:0:0:
256,192,27745,128,0,27881:0:0:0:0:
475,192,28017,1,0,0:0:0:0:
329,192,28017,1,0,0:0:0:0:
256,192,28017,1,0,0:0:0:0:
329,192,28154,128,0,28290:0:0:0:0:
109,192,28154,128,0,28290:0:0:0:0:
182,192,28154,128,0,28290:0:0:0:0:
256,192,28426,1,0,0:0:0:0:
109,192,28426,1,0,0:0:0:0:
36,192,28426,1,0,0:0:0:0:
475,192,28563,128,0,28699:0:0:0:0:
329,192,28563,128,0,28699:0:0:0:0:
182,192,28563,128,0,28699:0:0:0:0:
109,192,28836,128,0,28972:0:0:0:0:
256,192,28836,128,0,28972:0:0:0:0:
402,192,28836,128,0,28972:0:0:0:0:
256,192,29108,1,0,0:0:0:0:
475,192,29108,1,0,0:0:0:0:
36,192,29245,128,0,29381:0:0:0:0:
109,192,29245,128,0,29381:0:0:0:0:
329,192,29245,128,0,29381:0:0:0:0:
182,192,29517,1,0,0:0:0:0:
256,192,29517,1,0,0:0:0:0:
402,192,29517,1,0,0:0:0:0:
36,192,29654,1,0,0:0:0:0:
256,192,29654,1,0,0:0:0:0:
475,192,29654,1,0,0:0:0:0:
36,192,29836,1,0,0:0:0:0:
256,192,29836,1,0,0:0:0:0:
475,192,29836,1,0,0:0:0:0:
36,192,30017,1,0,0:0:0:0:
256,192,30017,1,0,0:0:0:0:
475,192,30017,1,0,0:0:0:0:
475,192,30199,1,0,0:0:0:0:
256,192,30199,1,0,0:0:0:0:
36,192,30199,1,0,0:0:0:0:
36,192,30381,1,0,0:0:0:0:
256,192,30381,1,0,0:0:0:0:
475,192,30381,1,0,0:0:0:0:
36,192,30563,1,0,0:0:0:0:
256,192,30563,1,0,0:0:0:0:
475,192,30563,1,0,0:0:0:0:
402,192,30745,128,0,30881:0:0:0:0:
329,192,30745,128,0,30881:0:0:0:0:
256,192,30745,128,0,30881:0:0:0:0:
402,192,31017,128,0,31154:0:0:0:0:
329,192,31017,128,0,31154:0:0:0:0:
256,192,31017,128,0,31154:0:0:0:0:
475,192,31290,1,0,0:0:0:0:
329,192,31290,1,0,0:0:0:0:
256,192,31290,1,0,0:0:0:0:
329,192,31426,128,0,31563:0:0:0:0:
182,192,31426,128,0,31563:0:0:0:0:
109,192,31426,128,0,31563:0:0:0:0:
256,192,31699,1,0,0:0:0:0:
36,192,31699,1,0,0:0:0:0:
109,192,31699,1,0,0:0:0:0:
402,192,31835,128,0,31972:0:0:0:0:
329,192,31835,128,0,31972:0:0:0:0:
256,192,31835,128,0,31972:0:0:0:0:
402,192,32108,128,0,32245:0:0:0:0:
329,192,32108,128,0,32245:0:0:0:0:
256,192,32108,128,0,32245:0:0:0:0:
475,192,32381,1,0,0:0:0:0:
329,192,32381,1,0,0:0:0:0:
256,192,32381,1,0,0:0:0:0:
329,192,32517,128,0,32654:0:0:0:0:
109,192,32517,128,0,32654:0:0:0:0:
182,192,32517,128,0,32654:0:0:0:0:
256,192,32790,1,0,0:0:0:0:
109,192,32790,1,0,0:0:0:0:
36,192,32790,1,0,0:0:0:0:
475,192,32926,128,0,33063:0:0:0:0:
329,192,32926,128,0,33063:0:0:0:0:
182,192,32926,128,0,33063:0:0:0:0:
402,192,33199,128,0,33335:0:0:0:0:
256,192,33199,128,0,33335:0:0:0:0:
109,192,33199,128,0,33335:0:0:0:0:
475,192,33472,1,0,0:0:0:0:
256,192,33472,1,0,0:0:0:0:
329,192,33608,128,0,33745:0:0:0:0:
36,192,33608,128,0,33745:0:0:0:0:
109,192,33608,128,0,33745:0:0:0:0:
182,192,33881,1,0,0:0:0:0:
256,192,33881,1,0,0:0:0:0:
402,192,33881,1,0,0:0:0:0:
36,192,34017,1,0,0:0:0:0:
256,192,34017,1,0,0:0:0:0:
475,192,34017,1,0,0:0:0:0:
36,192,34199,1,0,0:0:0:0:
256,192,34199,1,0,0:0:0:0:
475,192,34199,1,0,0:0:0:0:
36,192,34381,1,0,0:0:0:0:
256,192,34381,1,0,0:0:0:0:
475,192,34381,1,0,0:0:0:0:
36,192,34563,1,0,0:0:0:0:
256,192,34563,1,0,0:0:0:0:
475,192,34563,1,0,0:0:0:0:
36,192,34745,1,0,0:0:0:0:
256,192,34745,1,0,0:0:0:0:
475,192,34745,1,0,0:0:0:0:
36,192,34926,1,0,0:0:0:0:
256,192,34926,1,0,0:0:0:0:
475,192,34926,1,0,0:0:0:0:
36,192,35108,128,0,41654:0:0:0:0:
256,192,35108,128,0,41654:0:0:0:0:
475,192,35108,128,0,41654:0:0:0:0:
329,192,35108,1,0,0:0:0:0:
109,192,35381,1,0,0:0:0:0:
182,192,35381,1,0,0:0:0:0:
329,192,35926,1,0,0:0:0:0:
109,192,36063,1,0,0:0:0:0:
182,192,36063,1,0,0:0:0:0:
182,192,36335,1,0,0:0:0:0:
402,192,36472,1,0,0:0:0:0:
329,192,36472,1,0,0:0:0:0:
402,192,37017,1,0,0:0:0:0:
329,192,37154,1,0,0:0:0:0:
109,192,37290,1,0,0:0:0:0:
182,192,37290,1,0,0:0:0:0:
402,192,37563,1,0,0:0:0:0:
329,192,37563,1,0,0:0:0:0:
329,192,38108,1,0,0:0:0:0:
109,192,38245,1,0,0:0:0:0:
182,192,38245,1,0,0:0:0:0:
182,192,38517,1,0,0:0:0:0:
402,192,38654,1,0,0:0:0:0:
329,192,38654,1,0,0:0:0:0:
109,192,38722,1,0,0:0:0:0:
402,192,38790,1,0,0:0:0:0:
109,192,38858,1,0,0:0:0:0:
402,192,38926,1,0,0:0:0:0:
402,192,39063,1,0,0:0:0:0:
329,192,39063,1,0,0:0:0:0:
182,192,39199,1,0,0:0:0:0:
329,192,39199,1,0,0:0:0:0:
109,192,39335,1,0,0:0:0:0:
329,192,39335,1,0,0:0:0:0:
109,192,39472,1,0,0:0:0:0:
182,192,39472,1,0,0:0:0:0:
182,192,39608,1,0,0:0:0:0:
402,192,39744,1,0,0:0:0:0:
329,192,39744,1,0,0:0:0:0:
109,192,39744,1,0,0:0:0:0:
329,192,40290,1,0,0:0:0:0:
182,192,40426,1,0,0:0:0:0:
109,192,40426,1,0,0:0:0:0:
182,192,40699,1,0,0:0:0:0:
402,192,40835,1,0,0:0:0:0:
329,192,40835,1,0,0:0:0:0:
402,192,41381,1,0,0:0:0:0:
329,192,41517,1,0,0:0:0:0:
109,192,41654,1,0,0:0:0:0:
182,192,41654,1,0,0:0:0:0:
329,192,41926,1,0,0:0:0:0:
402,192,41926,1,0,0:0:0:0:
182,192,42472,1,0,0:0:0:0:
109,192,42472,1,0,0:0:0:0:
329,192,42608,1,0,0:0:0:0:
329,192,42881,1,0,0:0:0:0:
109,192,43017,1,0,0:0:0:0:
182,192,43017,1,0,0:0:0:0:
402,192,43154,1,0,0:0:0:0:
109,192,43290,1,0,0:0:0:0:
182,192,43290,1,0,0:0:0:0:
329,192,43563,1,0,0:0:0:0:
36,192,43835,128,0,43972:0:0:0:0:
109,192,43972,128,0,44108:0:0:0:0:
36,192,44108,128,0,44244:0:0:0:0:
182,192,44244,128,0,44381:0:0:0:0:
109,192,44381,128,0,44517:0:0:0:0:
256,192,44517,128,0,44654:0:0:0:0:
182,192,44654,128,0,44790:0:0:0:0:
329,192,44790,128,0,44926:0:0:0:0:
475,192,44926,128,0,45063:0:0:0:0:
402,192,45063,128,0,45199:0:0:0:0:
256,192,45199,128,0,45335:0:0:0:0:
402,192,45335,128,0,45472:0:0:0:0:
329,192,45472,128,0,45608:0:0:0:0:
182,192,45608,128,0,45744:0:0:0:0:
329,192,45744,128,0,45881:0:0:0:0:
256,192,45881,128,0,46017:0:0:0:0:
475,192,46017,128,0,46154:0:0:0:0:
36,192,46290,128,0,46426:0:0:0:0:
329,192,46290,128,0,46426:0:0:0:0:
182,192,46290,128,0,46426:0:0:0:0:
475,192,46290,128,0,46426:0:0:0:0:
402,192,46563,1,0,0:0:0:0:
182,192,46563,1,0,0:0:0:0:
475,192,46563,1,0,0:0:0:0:
329,192,46699,1,0,0:0:0:0:
109,192,46699,1,0,0:0:0:0:
475,192,46699,1,0,0:0:0:0:
36,192,46835,1,0,0:0:0:0:
256,192,46835,1,0,0:0:0:0:
475,192,46835,1,0,0:0:0:0:
182,192,46972,1,0,0:0:0:0:
475,192,47108,1,0,0:0:0:0:
402,192,47108,1,0,0:0:0:0:
256,192,47108,1,0,0:0:0:0:
182,192,47244,1,0,0:0:0:0:
256,192,47381,1,0,0:0:0:0:
182,192,47449,1,0,0:0:0:0:
109,192,47517,1,0,0:0:0:0:
36,192,47585,1,0,0:0:0:0:
182,192,47653,1,0,0:0:0:0:
402,192,47653,1,0,0:0:0:0:
256,192,47790,1,0,0:0:0:0:
109,192,47790,1,0,0:0:0:0:
182,192,47926,1,0,0:0:0:0:
36,192,47926,1,0,0:0:0:0:
256,192,48063,1,0,0:0:0:0:
109,192,48063,1,0,0:0:0:0:
36,192,48199,128,0,48335:0:0:0:0:
109,192,48335,128,0,48472:0:0:0:0:
36,192,48472,128,0,48608:0:0:0:0:
182,192,48608,128,0,48744:0:0:0:0:
109,192,48744,128,0,48881:0:0:0:0:
256,192,48881,128,0,49017:0:0:0:0:
182,192,49017,128,0,49153:0:0:0:0:
329,192,49153,128,0,49290:0:0:0:0:
475,192,49290,128,0,49426:0:0:0:0:
402,192,49426,128,0,49563:0:0:0:0:
256,192,49563,128,0,49699:0:0:0:0:
402,192,49699,128,0,49835:0:0:0:0:
329,192,49835,128,0,49972:0:0:0:0:
182,192,49972,128,0,50108:0:0:0:0:
329,192,50108,128,0,50244:0:0:0:0:
256,192,50244,128,0,50381:0:0:0:0:
36,192,50381,128,0,50517:0:0:0:0:
36,192,50653,128,0,50790:0:0:0:0:
182,192,50653,128,0,50790:0:0:0:0:
329,192,50653,128,0,50790:0:0:0:0:
256,192,50926,1,0,0:0:0:0:
36,192,50926,1,0,0:0:0:0:
402,192,50926,1,0,0:0:0:0:
329,192,51063,1,0,0:0:0:0:
109,192,51063,1,0,0:0:0:0:
182,192,51199,1,0,0:0:0:0:
402,192,51199,1,0,0:0:0:0:
256,192,51199,1,0,0:0:0:0:
256,192,51472,1,0,0:0:0:0:
109,192,51472,1,0,0:0:0:0:
36,192,51472,1,0,0:0:0:0:
329,192,51608,1,0,0:0:0:0:
475,192,51744,1,0,0:0:0:0:
402,192,51813,1,0,0:0:0:0:
329,192,51881,1,0,0:0:0:0:
256,192,51949,1,0,0:0:0:0:
182,192,52017,1,0,0:0:0:0:
36,192,52017,1,0,0:0:0:0:
475,192,52017,1,0,0:0:0:0:
256,192,52153,1,0,0:0:0:0:
402,192,52153,1,0,0:0:0:0:
182,192,52290,1,0,0:0:0:0:
329,192,52290,1,0,0:0:0:0:
109,192,52426,1,0,0:0:0:0:
402,192,52426,1,0,0:0:0:0:
256,192,52426,1,0,0:0:0:0:
36,192,52563,128,0,52699:0:0:0:0:
109,192,52699,128,0,52835:0:0:0:0:
36,192,52835,128,0,52972:0:0:0:0:
182,192,52972,128,0,53108:0:0:0:0:
109,192,53108,128,0,53244:0:0:0:0:
256,192,53244,128,0,53381:0:0:0:0:
182,192,53381,128,0,53517:0:0:0:0:
329,192,53517,128,0,53653:0:0:0:0:
475,192,53653,128,0,53790:0:0:0:0:
402,192,53790,128,0,53926:0:0:0:0:
256,192,53926,128,0,54062:0:0:0:0:
402,192,54062,128,0,54199:0:0:0:0:
329,192,54199,128,0,54335:0:0:0:0:
182,192,54335,128,0,54472:0:0:0:0:
329,192,54472,128,0,54608:0:0:0:0:
256,192,54608,128,0,54744:0:0:0:0:
36,192,54744,128,0,54881:0:0:0:0:
36,192,55017,128,0,55153:0:0:0:0:
329,192,55017,128,0,55153:0:0:0:0:
182,192,55017,128,0,55153:0:0:0:0:
475,192,55290,1,0,0:0:0:0:
256,192,55290,1,0,0:0:0:0:
36,192,55290,1,0,0:0:0:0:
402,192,55426,1,0,0:0:0:0:
182,192,55426,1,0,0:0:0:0:
36,192,55426,1,0,0:0:0:0:
109,192,55562,1,0,0:0:0:0:
329,192,55562,1,0,0:0:0:0:
36,192,55562,1,0,0:0:0:0:
182,192,55699,1,0,0:0:0:0:
475,192,55835,1,0,0:0:0:0:
402,192,55835,1,0,0:0:0:0:
256,192,55835,1,0,0:0:0:0:
182,192,55972,1,0,0:0:0:0:
109,192,56108,1,0,0:0:0:0:
36,192,56244,1,0,0:0:0:0:
182,192,56381,1,0,0:0:0:0:
329,192,56381,1,0,0:0:0:0:
109,192,56517,1,0,0:0:0:0:
256,192,56517,1,0,0:0:0:0:
36,192,56653,1,0,0:0:0:0:
182,192,56653,1,0,0:0:0:0:
109,192,56790,1,0,0:0:0:0:
256,192,56790,1,0,0:0:0:0:
36,192,56926,128,0,57062:0:0:0:0:
109,192,57062,128,0,57199:0:0:0:0:
36,192,57199,128,0,57335:0:0:0:0:
182,192,57335,128,0,57472:0:0:0:0:
109,192,57472,128,0,57608:0:0:0:0:
256,192,57608,128,0,57744:0:0:0:0:
182,192,57744,128,0,57881:0:0:0:0:
329,192,57881,128,0,58017:0:0:0:0:
475,192,58017,128,0,58153:0:0:0:0:
402,192,58153,128,0,58290:0:0:0:0:
256,192,58290,128,0,58426:0:0:0:0:
402,192,58426,128,0,58562:0:0:0:0:
329,192,58562,128,0,58699:0:0:0:0:
182,192,58699,128,0,58835:0:0:0:0:
329,192,58835,128,0,58972:0:0:0:0:
256,192,58972,128,0,59108:0:0:0:0:
36,192,59108,128,0,59244:0:0:0:0:
36,192,59381,128,0,59517:0:0:0:0:
182,192,59381,128,0,59517:0:0:0:0:
329,192,59381,128,0,59517:0:0:0:0:
256,192,59653,1,0,0:0:0:0:
36,192,59653,1,0,0:0:0:0:
402,192,59653,1,0,0:0:0:0:
329,192,59790,1,0,0:0:0:0:
109,192,59790,1,0,0:0:0:0:
182,192,59926,1,0,0:0:0:0:
402,192,59926,1,0,0:0:0:0:
256,192,59926,1,0,0:0:0:0:
256,192,60199,1,0,0:0:0:0:
109,192,60199,1,0,0:0:0:0:
36,192,60199,1,0,0:0:0:0:
329,192,60335,1,0,0:0:0:0:
475,192,60472,1,0,0:0:0:0:
329,192,60608,1,0,0:0:0:0:
182,192,60744,1,0,0:0:0:0:
36,192,60744,1,0,0:0:0:0:
475,192,60744,1,0,0:0:0:0:
256,192,60881,1,0,0:0:0:0:
402,192,60881,1,0,0:0:0:0:
182,192,61017,1,0,0:0:0:0:
329,192,61017,1,0,0:0:0:0:
109,192,61153,1,0,0:0:0:0:
402,192,61153,1,0,0:0:0:0:
256,192,61153,1,0,0:0:0:0:
329,192,61290,1,0,0:0:0:0:
475,192,61290,1,0,0:0:0:0:
182,192,61290,128,0,61835:0:0:0:0:
329,192,61426,1,0,0:0:0:0:
475,192,61426,1,0,0:0:0:0:
109,192,61562,1,0,0:0:0:0:
402,192,61562,1,0,0:0:0:0:
36,192,61562,1,0,0:0:0:0:
256,192,61562,1,0,0:0:0:0:
329,192,61835,1,0,0:0:0:0:
475,192,61835,1,0,0:0:0:0:
256,192,61835,128,0,62381:0:0:0:0:
329,192,61971,1,0,0:0:0:0:
475,192,61971,1,0,0:0:0:0:
402,192,62108,1,0,0:0:0:0:
36,192,62108,1,0,0:0:0:0:
109,192,62108,1,0,0:0:0:0:
182,192,62108,1,0,0:0:0:0:
36,192,62381,128,0,62926:0:0:0:0:
109,192,62381,1,0,0:0:0:0:
182,192,62381,1,0,0:0:0:0:
109,192,62517,1,0,0:0:0:0:
182,192,62517,1,0,0:0:0:0:
256,192,62653,1,0,0:0:0:0:
329,192,62653,1,0,0:0:0:0:
402,192,62653,1,0,0:0:0:0:
475,192,62653,1,0,0:0:0:0:
329,192,62926,128,0,63471:0:0:0:0:
109,192,62926,1,0,0:0:0:0:
182,192,62926,1,0,0:0:0:0:
109,192,63062,1,0,0:0:0:0:
182,192,63062,1,0,0:0:0:0:
36,192,63199,1,0,0:0:0:0:
256,192,63199,1,0,0:0:0:0:
402,192,63199,1,0,0:0:0:0:
475,192,63199,1,0,0:0:0:0:
256,192,63471,128,0,64017:0:0:0:0:
402,192,63471,1,0,0:0:0:0:
475,192,63471,1,0,0:0:0:0:
402,192,63608,1,0,0:0:0:0:
475,192,63608,1,0,0:0:0:0:
329,192,63744,1,0,0:0:0:0:
182,192,63744,1,0,0:0:0:0:
36,192,63744,1,0,0:0:0:0:
109,192,63744,1,0,0:0:0:0:
182,192,64017,128,0,64562:0:0:0:0:
402,192,64017,1,0,0:0:0:0:
475,192,64017,1,0,0:0:0:0:
402,192,64153,1,0,0:0:0:0:
475,192,64153,1,0,0:0:0:0:
329,192,64290,1,0,0:0:0:0:
256,192,64290,1,0,0:0:0:0:
109,192,64290,1,0,0:0:0:0:
36,192,64290,1,0,0:0:0:0:
475,192,64562,128,0,65108:0:0:0:0:
256,192,64562,1,0,0:0:0:0:
109,192,64562,1,0,0:0:0:0:
109,192,64699,1,0,0:0:0:0:
256,192,64699,1,0,0:0:0:0:
182,192,64835,1,0,0:0:0:0:
36,192,64835,1,0,0:0:0:0:
329,192,64835,1,0,0:0:0:0:
402,192,64835,1,0,0:0:0:0:
402,192,65108,128,0,65653:0:0:0:0:
329,192,65108,1,0,0:0:0:0:
256,192,65108,1,0,0:0:0:0:
256,192,65244,1,0,0:0:0:0:
329,192,65244,1,0,0:0:0:0:
36,192,65381,1,0,0:0:0:0:
109,192,65381,1,0,0:0:0:0:
182,192,65381,1,0,0:0:0:0:
475,192,65381,1,0,0:0:0:0:
256,192,65517,1,0,0:0:0:0:
329,192,65517,1,0,0:0:0:0:
182,192,65653,1,0,0:0:0:0:
475,192,65653,128,0,65926:0:0:0:0:
36,192,65653,128,0,65926:0:0:0:0:
109,192,65653,1,0,0:0:0:0:
109,192,65926,1,0,0:0:0:0:
256,192,65926,1,0,0:0:0:0:
402,192,65926,128,0,66199:0:0:0:0:
182,192,66199,1,0,0:0:0:0:
329,192,66199,1,0,0:0:0:0:
182,192,66335,1,0,0:0:0:0:
329,192,66335,1,0,0:0:0:0:
36,192,66471,1,0,0:0:0:0:
109,192,66471,1,0,0:0:0:0:
402,192,66471,1,0,0:0:0:0:
475,192,66471,1,0,0:0:0:0:
256,192,66471,128,0,66744:0:0:0:0:
475,192,66744,1,0,0:0:0:0:
329,192,66744,1,0,0:0:0:0:
36,192,66744,1,0,0:0:0:0:
109,192,66744,128,0,67017:0:0:0:0:
402,192,66744,128,0,67017:0:0:0:0:
36,192,67017,1,0,0:0:0:0:
182,192,67017,1,0,0:0:0:0:
256,192,67017,1,0,0:0:0:0:
256,192,67290,1,0,0:0:0:0:
402,192,67290,1,0,0:0:0:0:
256,192,67426,1,0,0:0:0:0:
402,192,67426,1,0,0:0:0:0:
329,192,67562,1,0,0:0:0:0:
475,192,67562,1,0,0:0:0:0:
36,192,67562,1,0,0:0:0:0:
109,192,67562,1,0,0:0:0:0:
182,192,67699,1,0,0:0:0:0:
256,192,67699,1,0,0:0:0:0:
329,192,67835,1,0,0:0:0:0:
402,192,67835,1,0,0:0:0:0:
475,192,67835,128,0,68381:0:0:0:0:
329,192,67971,1,0,0:0:0:0:
402,192,67971,1,0,0:0:0:0:
36,192,68108,1,0,0:0:0:0:
109,192,68108,1,0,0:0:0:0:
182,192,68108,1,0,0:0:0:0:
256,192,68108,1,0,0:0:0:0:
402,192,68381,128,0,68926:0:0:0:0:
182,192,68381,1,0,0:0:0:0:
256,192,68381,1,0,0:0:0:0:
182,192,68517,1,0,0:0:0:0:
256,192,68517,1,0,0:0:0:0:
36,192,68653,1,0,0:0:0:0:
109,192,68653,1,0,0:0:0:0:
329,192,68653,1,0,0:0:0:0:
475,192,68653,1,0,0:0:0:0:
182,192,68790,1,0,0:0:0:0:
256,192,68790,1,0,0:0:0:0:
329,192,68926,128,0,69471:0:0:0:0:
36,192,68926,1,0,0:0:0:0:
109,192,68926,1,0,0:0:0:0:
36,192,69062,1,0,0:0:0:0:
109,192,69062,1,0,0:0:0:0:
182,192,69199,1,0,0:0:0:0:
256,192,69199,1,0,0:0:0:0:
402,192,69199,1,0,0:0:0:0:
475,192,69199,1,0,0:0:0:0:
36,192,69335,1,0,0:0:0:0:
109,192,69335,1,0,0:0:0:0:
402,192,69471,1,0,0:0:0:0:
475,192,69471,1,0,0:0:0:0:
256,192,69471,128,0,70017:0:0:0:0:
402,192,69608,1,0,0:0:0:0:
475,192,69608,1,0,0:0:0:0:
182,192,69744,1,0,0:0:0:0:
36,192,69744,1,0,0:0:0:0:
109,192,69744,1,0,0:0:0:0:
329,192,69744,1,0,0:0:0:0:
402,192,69880,1,0,0:0:0:0:
475,192,69880,1,0,0:0:0:0:
182,192,70017,128,0,70153:0:0:0:0:
402,192,70017,128,0,70153:0:0:0:0:
475,192,70017,128,0,70153:0:0:0:0:
329,192,70290,128,0,70562:0:0:0:0:
182,192,70290,128,0,70562:0:0:0:0:
109,192,70290,128,0,70562:0:0:0:0:
256,192,70562,1,0,0:0:0:0:
402,192,70562,1,0,0:0:0:0:
475,192,70562,1,0,0:0:0:0:
109,192,70699,1,0,0:0:0:0:
36,192,70699,1,0,0:0:0:0:
256,192,70699,128,0,70971:0:0:0:0:
329,192,70971,1,0,0:0:0:0:
402,192,70971,1,0,0:0:0:0:
475,192,70971,1,0,0:0:0:0:
109,192,71108,128,0,71244:0:0:0:0:
182,192,71108,128,0,71244:0:0:0:0:
402,192,71108,128,0,71244:0:0:0:0:
402,192,71380,128,0,71653:0:0:0:0:
329,192,71380,128,0,71653:0:0:0:0:
256,192,71380,128,0,71653:0:0:0:0:
182,192,71653,1,0,0:0:0:0:
109,192,71653,1,0,0:0:0:0:
475,192,71653,1,0,0:0:0:0:
36,192,71790,1,0,0:0:0:0:
109,192,71790,1,0,0:0:0:0:
256,192,71790,128,0,72062:0:0:0:0:
475,192,72062,1,0,0:0:0:0:
36,192,72199,128,0,74380:0:0:0:0:
329,192,72744,128,0,73290:0:0:0:0:
256,192,73290,128,0,73835:0:0:0:0:
475,192,73290,128,0,74380:0:0:0:0:
182,192,73835,128,0,74380:0:0:0:0:
329,192,74380,128,0,74517:0:0:0:0:
402,192,74380,128,0,74517:0:0:0:0:
256,192,74380,128,0,74517:0:0:0:0:
256,192,74653,128,0,74790:0:0:0:0:
329,192,74653,128,0,74790:0:0:0:0:
402,192,74653,128,0,74790:0:0:0:0:
36,192,74926,1,0,0:0:0:0:
182,192,74926,1,0,0:0:0:0:
256,192,74926,1,0,0:0:0:0:
182,192,75062,128,0,75199:0:0:0:0:
329,192,75062,128,0,75199:0:0:0:0:
402,192,75062,128,0,75199:0:0:0:0:
256,192,75335,1,0,0:0:0:0:
402,192,75335,1,0,0:0:0:0:
475,192,75335,1,0,0:0:0:0:
109,192,75471,128,0,75608:0:0:0:0:
182,192,75471,128,0,75608:0:0:0:0:
256,192,75471,128,0,75608:0:0:0:0:
109,192,75744,128,0,75880:0:0:0:0:
182,192,75744,128,0,75880:0:0:0:0:
256,192,75744,128,0,75880:0:0:0:0:
36,192,76017,1,0,0:0:0:0:
182,192,76017,1,0,0:0:0:0:
256,192,76017,1,0,0:0:0:0:
182,192,76153,128,0,76290:0:0:0:0:
329,192,76153,128,0,76290:0:0:0:0:
402,192,76153,128,0,76290:0:0:0:0:
256,192,76426,1,0,0:0:0:0:
402,192,76426,1,0,0:0:0:0:
475,192,76426,1,0,0:0:0:0:
36,192,76562,128,0,76699:0:0:0:0:
182,192,76562,128,0,76699:0:0:0:0:
329,192,76562,128,0,76699:0:0:0:0:
109,192,76835,128,0,76971:0:0:0:0:
256,192,76835,128,0,76971:0:0:0:0:
402,192,76835,128,0,76971:0:0:0:0:
36,192,77108,1,0,0:0:0:0:
256,192,77108,1,0,0:0:0:0:
182,192,77244,128,0,77380:0:0:0:0:
475,192,77244,128,0,77380:0:0:0:0:
402,192,77244,128,0,77380:0:0:0:0:
109,192,77517,1,0,0:0:0:0:
256,192,77517,1,0,0:0:0:0:
329,192,77517,1,0,0:0:0:0:
475,192,77653,1,0,0:0:0:0:
256,192,77653,1,0,0:0:0:0:
36,192,77653,1,0,0:0:0:0:
36,192,77835,1,0,0:0:0:0:
256,192,77835,1,0,0:0:0:0:
475,192,77835,1,0,2:0:0:0:
256,192,78017,1,0,0:0:0:0:
36,192,78017,1,0,0:0:0:0:
475,192,78017,1,0,0:0:0:0:
36,192,78199,1,0,0:0:0:0:
256,192,78199,1,0,0:0:0:0:
475,192,78199,1,0,0:0:0:0:
36,192,78380,1,0,0:0:0:0:
256,192,78380,1,0,0:0:0:0:
475,192,78380,1,0,0:0:0:0:
36,192,78562,1,0,0:0:0:0:
256,192,78562,1,0,0:0:0:0:
475,192,78562,1,0,0:0:0:0:
475,192,78744,1,0,0:0:0:0:
256,192,78744,1,0,0:0:0:0:
36,192,78744,1,0,0:0:0:0:
109,192,78744,1,0,0:0:0:0:
402,192,78744,1,0,0:0:0:0:
36,192,78926,1,0,0:0:0:0:
256,192,78926,1,0,0:0:0:0:
475,192,78926,1,0,0:0:0:0:
256,192,79108,1,0,0:0:0:0:
36,192,79108,1,0,0:0:0:0:
475,192,79108,1,0,0:0:0:0:
36,192,79289,1,0,0:0:0:0:
256,192,79289,1,0,0:0:0:0:
475,192,79289,1,0,0:0:0:0:
36,192,79471,1,0,0:0:0:0:
256,192,79471,1,0,0:0:0:0:
475,192,79471,1,0,0:0:0:0:
36,192,79653,1,0,0:0:0:0:
256,192,79653,1,0,0:0:0:0:
475,192,79653,1,0,0:0:0:0:
402,192,79926,128,0,80108:0:0:0:0:
329,192,79926,1,0,0:0:0:0:
182,192,79926,1,0,0:0:0:0:
109,192,79926,128,0,80108:0:0:0:0:
36,192,80108,1,0,0:0:0:0:
475,192,80108,1,0,0:0:0:0:
329,192,80289,1,0,0:0:0:0:
182,192,80289,1,0,0:0:0:0:
109,192,80289,128,0,80471:0:0:0:0:
402,192,80289,128,0,80471:0:0:0:0:
475,192,80471,1,0,0:0:0:0:
36,192,80471,1,0,0:0:0:0:
402,192,80653,128,0,80835:0:0:0:0:
329,192,80653,1,0,0:0:0:0:
182,192,80653,1,0,0:0:0:0:
109,192,80653,128,0,80835:0:0:0:0:
36,192,80835,1,0,0:0:0:0:
475,192,80835,1,0,0:0:0:0:
256,192,81037,1,0,0:0:0:0:
109,192,81037,1,0,0:0:0:0:
402,192,81037,1,0,0:0:0:0:
182,192,81230,1,0,0:0:0:0:
329,192,81230,1,0,0:0:0:0:
109,192,81424,1,0,0:0:0:0:
402,192,81424,1,0,0:0:0:0:
36,192,81617,1,0,0:0:0:0:
256,192,81617,1,0,0:0:0:0:
475,192,81617,1,0,0:0:0:0:
109,192,81811,1,0,0:0:0:0:
402,192,81811,1,0,0:0:0:0:
36,192,82004,1,0,0:0:0:0:
256,192,82004,1,0,0:0:0:0:
475,192,82004,1,0,0:0:0:0:
182,192,82198,128,0,82391:0:0:0:0:
329,192,82198,128,0,82391:0:0:0:0:
36,192,82391,128,0,82585:0:0:0:0:
475,192,82391,128,0,82585:0:0:0:0:
109,192,82585,1,0,0:0:0:0:
256,192,82585,1,0,0:0:0:0:
109,192,82778,1,0,0:0:0:0:
256,192,82778,1,0,0:0:0:0:
475,192,82972,128,0,83359:0:0:0:0:
182,192,82972,128,0,83359:0:0:0:0:
109,192,83359,128,0,83746:0:0:0:0:
402,192,83359,128,0,83746:0:0:0:0:
36,192,83746,1,0,0:0:0:0:
256,192,83746,1,0,0:0:0:0:
475,192,83746,1,0,0:0:0:0:
182,192,83940,1,0,0:0:0:0:
329,192,83940,1,0,0:0:0:0:
182,192,84133,128,0,84520:0:0:0:0:
329,192,84133,128,0,84520:0:0:0:0:
36,192,84520,1,0,0:0:0:0:
475,192,84520,1,0,0:0:0:0:
256,192,84520,1,0,0:0:0:0:
109,192,84714,1,0,0:0:0:0:
402,192,84714,1,0,0:0:0:0:
36,192,84907,1,0,0:0:0:0:
256,192,84907,1,0,0:0:0:0:
475,192,84907,1,0,0:0:0:0:
182,192,85101,1,0,0:0:0:0:
329,192,85101,1,0,0:0:0:0:
109,192,85295,1,0,0:0:0:0:
256,192,85295,1,0,0:0:0:0:
402,192,85295,1,0,0:0:0:0:
182,192,85488,1,0,0:0:0:0:
329,192,85488,1,0,0:0:0:0:
256,192,85682,1,0,0:0:0:0:
109,192,85682,1,0,0:0:0:0:
402,192,85682,1,0,0:0:0:0:
36,192,85682,128,0,86069:0:0:0:0:
475,192,85682,128,0,86069:0:0:0:0:
109,192,86069,1,0,0:0:0:0:
402,192,86069,1,0,0:0:0:0:
36,192,86262,1,0,0:0:0:0:
256,192,86262,1,0,0:0:0:0:
475,192,86262,1,0,0:0:0:0:
109,192,86456,1,0,0:0:0:0:
402,192,86456,1,0,0:0:0:0:
36,192,86649,1,0,0:0:0:0:
256,192,86649,1,0,0:0:0:0:
475,192,86649,1,0,0:0:0:0:
182,192,86843,128,0,87037:0:0:0:0:
329,192,86843,128,0,87037:0:0:0:0:
36,192,87037,128,0,87230:0:0:0:0:
475,192,87037,128,0,87230:0:0:0:0:
109,192,87230,1,0,0:0:0:0:
256,192,87230,1,0,0:0:0:0:
109,192,87424,1,0,0:0:0:0:
256,192,87424,1,0,0:0:0:0:
475,192,87617,128,0,88004:0:0:0:0:
329,192,87617,128,0,88004:0:0:0:0:
109,192,88004,128,0,88391:0:0:0:0:
402,192,88004,128,0,88391:0:0:0:0:
36,192,88391,1,0,0:0:0:0:
256,192,88391,1,0,0:0:0:0:
475,192,88391,1,0,0:0:0:0:
182,192,88585,1,0,0:0:0:0:
329,192,88585,1,0,0:0:0:0:
182,192,88778,128,0,89166:0:0:0:0:
329,192,88778,128,0,89166:0:0:0:0:
36,192,89166,1,0,0:0:0:0:
475,192,89166,1,0,0:0:0:0:
256,192,89166,1,0,0:0:0:0:
109,192,89359,1,0,0:0:0:0:
402,192,89359,1,0,0:0:0:0:
36,192,89553,1,0,0:0:0:0:
256,192,89553,1,0,0:0:0:0:
475,192,89553,1,0,0:0:0:0:
182,192,89746,1,0,0:0:0:0:
329,192,89746,1,0,0:0:0:0:
109,192,89940,1,0,0:0:0:0:
256,192,89940,1,0,0:0:0:0:
402,192,89940,1,0,0:0:0:0:
182,192,90133,1,0,0:0:0:0:
329,192,90133,1,0,0:0:0:0:
256,192,90327,1,0,0:0:0:0:
402,192,90327,1,0,0:0:0:0:
109,192,90327,1,0,0:0:0:0:
36,192,90327,1,0,0:0:0:0:
475,192,90327,1,0,0:0:0:0:
329,192,90520,1,0,0:0:0:0:
182,192,90520,1,0,0:0:0:0:
402,192,90714,1,0,0:0:0:0:
109,192,90714,1,0,0:0:0:0:
475,192,90907,1,0,0:0:0:0:
256,192,90907,1,0,0:0:0:0:
36,192,90907,1,0,0:0:0:0:
402,192,91101,1,0,0:0:0:0:
109,192,91101,1,0,0:0:0:0:
475,192,91295,1,0,0:0:0:0:
256,192,91295,1,0,0:0:0:0:
36,192,91295,1,0,0:0:0:0:
329,192,91488,128,0,91682:0:0:0:0:
182,192,91488,128,0,91682:0:0:0:0:
475,192,91682,128,0,91875:0:0:0:0:
36,192,91682,128,0,91875:0:0:0:0:
402,192,91875,1,0,0:0:0:0:
256,192,91875,1,0,0:0:0:0:
402,192,92069,1,0,0:0:0:0:
256,192,92069,1,0,0:0:0:0:
36,192,92262,128,0,92649:0:0:0:0:
329,192,92262,128,0,92649:0:0:0:0:
402,192,92649,128,0,93037:0:0:0:0:
109,192,92649,128,0,93037:0:0:0:0:
475,192,93037,1,0,0:0:0:0:
256,192,93037,1,0,0:0:0:0:
36,192,93037,1,0,0:0:0:0:
329,192,93230,1,0,0:0:0:0:
182,192,93230,1,0,0:0:0:0:
329,192,93424,128,0,93811:0:0:0:0:
182,192,93424,128,0,93811:0:0:0:0:
475,192,93811,1,0,0:0:0:0:
36,192,93811,1,0,0:0:0:0:
256,192,93811,1,0,0:0:0:0:
402,192,94004,1,0,0:0:0:0:
109,192,94004,1,0,0:0:0:0:
475,192,94198,1,0,0:0:0:0:
256,192,94198,1,0,0:0:0:0:
36,192,94198,1,0,0:0:0:0:
329,192,94391,1,0,0:0:0:0:
182,192,94391,1,0,0:0:0:0:
402,192,94585,1,0,0:0:0:0:
256,192,94585,1,0,0:0:0:0:
109,192,94585,1,0,0:0:0:0:
329,192,94778,1,0,0:0:0:0:
182,192,94778,1,0,0:0:0:0:
256,192,94972,1,0,0:0:0:0:
402,192,94972,1,0,0:0:0:0:
109,192,94972,1,0,0:0:0:0:
475,192,94972,128,0,95359:0:0:0:0:
36,192,94972,128,0,95359:0:0:0:0:
402,192,95359,1,0,0:0:0:0:
109,192,95359,1,0,0:0:0:0:
475,192,95553,1,0,0:0:0:0:
256,192,95553,1,0,0:0:0:0:
36,192,95553,1,0,0:0:0:0:
402,192,95746,1,0,0:0:0:0:
109,192,95746,1,0,0:0:0:0:
475,192,95940,1,0,0:0:0:0:
256,192,95940,1,0,0:0:0:0:
36,192,95940,1,0,0:0:0:0:
329,192,96133,128,0,96327:0:0:0:0:
182,192,96133,128,0,96327:0:0:0:0:
475,192,96327,128,0,96520:0:0:0:0:
36,192,96327,128,0,96520:0:0:0:0:
402,192,96520,1,0,0:0:0:0:
256,192,96520,1,0,0:0:0:0:
402,192,96714,1,0,0:0:0:0:
256,192,96714,1,0,0:0:0:0:
36,192,96907,128,0,97295:0:0:0:0:
182,192,96907,128,0,97295:0:0:0:0:
402,192,97295,128,0,97682:0:0:0:0:
109,192,97295,128,0,97682:0:0:0:0:
475,192,97682,1,0,0:0:0:0:
256,192,97682,1,0,0:0:0:0:
36,192,97682,1,0,0:0:0:0:
329,192,97875,1,0,0:0:0:0:
182,192,97875,1,0,0:0:0:0:
329,192,98069,128,0,98456:0:0:0:0:
182,192,98069,128,0,98456:0:0:0:0:
475,192,98456,1,0,0:0:0:0:
36,192,98456,1,0,0:0:0:0:
256,192,98456,1,0,0:0:0:0:
402,192,98649,1,0,0:0:0:0:
109,192,98649,1,0,0:0:0:0:
475,192,98843,1,0,0:0:0:0:
256,192,98843,1,0,0:0:0:0:
36,192,98843,1,0,0:0:0:0:
329,192,99037,1,0,0:0:0:0:
182,192,99037,1,0,0:0:0:0:
402,192,99230,1,0,0:0:0:0:
256,192,99230,1,0,0:0:0:0:
109,192,99230,1,0,0:0:0:0:
329,192,99424,1,0,0:0:0:0:
182,192,99424,1,0,0:0:0:0:
182,192,99617,128,0,100198:0:0:0:0:
329,192,99617,128,0,100198:0:0:0:0:
475,192,99617,128,0,100198:0:0:0:0:
109,192,100198,128,0,100778:0:0:0:0:
256,192,100198,128,0,100778:0:0:0:0:
402,192,100198,128,0,100778:0:0:0:0:
182,192,100778,128,0,101262:0:0:0:0:
329,192,100778,128,0,101262:0:0:0:0:
36,192,100778,128,0,101262:0:0:0:0:
256,192,101359,128,0,101843:0:0:0:0:
182,192,101359,128,0,101843:0:0:0:0:
36,192,101359,128,0,101843:0:0:0:0:
402,192,101940,128,0,102230:0:0:0:0:
475,192,101940,128,0,102230:0:0:0:0:
36,192,101940,128,0,102424:0:0:0:0:
182,192,101940,128,0,102424:0:0:0:0:
402,192,102327,128,0,102617:0:0:0:0:
475,192,102327,128,0,102617:0:0:0:0:
36,192,102520,128,0,102907:0:0:0:0:
182,192,102520,128,0,102907:0:0:0:0:
402,192,102714,128,0,103004:0:0:0:0:
475,192,102714,128,0,103004:0:0:0:0:
109,192,102907,128,0,103295:0:0:0:0:
256,192,102907,128,0,103295:0:0:0:0:
402,192,103101,128,0,103391:0:0:0:0:
475,192,103101,128,0,103391:0:0:0:0:
182,192,103295,128,0,103682:0:0:0:0:
329,192,103295,128,0,103682:0:0:0:0:
402,192,103488,128,0,103778:0:0:0:0:
475,192,103488,128,0,103778:0:0:0:0:
256,192,103682,128,0,104069:0:0:0:0:
109,192,103682,128,0,104069:0:0:0:0:
402,192,103875,128,0,104166:0:0:0:0:
475,192,103875,128,0,104166:0:0:0:0:
36,192,104069,128,0,104456:0:0:0:0:
329,192,104069,128,0,104456:0:0:0:0:
109,192,104262,128,0,104843:0:0:0:0:
256,192,104262,128,0,104843:0:0:0:0:
182,192,104262,128,0,104843:0:0:0:0:
475,192,104843,128,0,105424:0:0:0:0:
329,192,104843,128,0,105424:0:0:0:0:
402,192,104843,128,0,105424:0:0:0:0:
182,192,105424,128,0,105907:0:0:0:0:
256,192,105424,128,0,105907:0:0:0:0:
36,192,105424,128,0,105907:0:0:0:0:
109,192,106004,128,0,106488:0:0:0:0:
182,192,106004,128,0,106488:0:0:0:0:
36,192,106004,128,0,106488:0:0:0:0:
402,192,106585,128,0,106875:0:0:0:0:
475,192,106585,128,0,106875:0:0:0:0:
36,192,106585,128,0,107069:0:0:0:0:
182,192,106585,128,0,107069:0:0:0:0:
402,192,106972,128,0,107262:0:0:0:0:
475,192,106972,128,0,107262:0:0:0:0:
36,192,107166,128,0,107553:0:0:0:0:
182,192,107166,128,0,107553:0:0:0:0:
402,192,107359,128,0,107649:0:0:0:0:
475,192,107359,128,0,107649:0:0:0:0:
109,192,107553,128,0,107940:0:0:0:0:
256,192,107553,128,0,107940:0:0:0:0:
402,192,107746,128,0,108037:0:0:0:0:
475,192,107746,128,0,108037:0:0:0:0:
182,192,107940,128,0,108327:0:0:0:0:
329,192,107940,128,0,108327:0:0:0:0:
402,192,108133,128,0,108424:0:0:0:0:
475,192,108133,128,0,108424:0:0:0:0:
256,192,108327,128,0,108714:0:0:0:0:
109,192,108327,128,0,108714:0:0:0:0:
402,192,108520,128,0,108811:0:0:0:0:
475,192,108520,128,0,108811:0:0:0:0:
36,192,108714,128,0,108907:0:0:0:0:
329,192,108714,128,0,108907:0:0:0:0:
109,192,108907,1,0,0:0:0:0:
256,192,108907,1,0,0:0:0:0:
475,192,108907,128,0,109488:0:0:0:0:
182,192,109101,1,0,0:0:0:0:
109,192,109295,1,0,0:0:0:0:
256,192,109488,1,0,0:0:0:0:
36,192,109488,1,0,0:0:0:0:
402,192,109488,128,0,110069:0:0:0:0:
329,192,109682,1,0,0:0:0:0:
256,192,109875,1,0,0:0:0:0:
36,192,110069,1,0,0:0:0:0:
109,192,110069,1,0,0:0:0:0:
329,192,110069,128,0,110843:0:0:0:0:
182,192,110262,1,0,0:0:0:0:
109,192,110456,1,0,0:0:0:0:
256,192,110456,1,0,0:0:0:0:
36,192,110649,1,0,0:0:0:0:
182,192,110843,1,0,0:0:0:0:
402,192,110843,128,0,111230:0:0:0:0:
475,192,110843,1,0,0:0:0:0:
109,192,111037,1,0,0:0:0:0:
475,192,111230,1,0,0:0:0:0:
36,192,111230,1,0,0:0:0:0:
182,192,111230,1,0,0:0:0:0:
256,192,111230,1,0,0:0:0:0:
402,192,111424,1,0,0:0:0:0:
329,192,111617,1,0,0:0:0:0:
475,192,111811,1,0,0:0:0:0:
182,192,111811,1,0,0:0:0:0:
256,192,111811,1,0,0:0:0:0:
109,192,111811,1,0,0:0:0:0:
402,192,112004,1,0,0:0:0:0:
329,192,112198,1,0,0:0:0:0:
475,192,112391,1,0,0:0:0:0:
36,192,112391,1,0,0:0:0:0:
109,192,112391,1,0,0:0:0:0:
182,192,112391,1,0,0:0:0:0:
402,192,112585,1,0,0:0:0:0:
329,192,112778,1,0,0:0:0:0:
109,192,112778,1,0,0:0:0:0:
182,192,112778,1,0,0:0:0:0:
36,192,112778,1,0,0:0:0:0:
475,192,112972,1,0,0:0:0:0:
402,192,113166,1,0,0:0:0:0:
182,192,113166,1,0,0:0:0:0:
109,192,113166,1,0,0:0:0:0:
256,192,113166,1,0,0:0:0:0:
329,192,113359,1,0,0:0:0:0:
109,192,113553,1,0,0:0:0:0:
475,192,113553,128,0,114133:0:0:0:0:
36,192,113553,1,0,0:0:0:0:
256,192,113553,1,0,0:0:0:0:
182,192,113746,1,0,0:0:0:0:
109,192,113940,1,0,0:0:0:0:
256,192,114133,1,0,0:0:0:0:
36,192,114133,1,0,0:0:0:0:
402,192,114133,128,0,114714:0:0:0:0:
329,192,114327,1,0,0:0:0:0:
256,192,114520,1,0,0:0:0:0:
36,192,114714,1,0,0:0:0:0:
109,192,114714,1,0,0:0:0:0:
329,192,114714,128,0,115488:0:0:0:0:
182,192,114907,1,0,0:0:0:0:
109,192,115101,1,0,0:0:0:0:
256,192,115101,1,0,0:0:0:0:
36,192,115295,1,0,0:0:0:0:
182,192,115488,1,0,0:0:0:0:
402,192,115488,128,0,115875:0:0:0:0:
475,192,115488,1,0,0:0:0:0:
109,192,115682,1,0,0:0:0:0:
475,192,115875,1,0,0:0:0:0:
36,192,115875,1,0,0:0:0:0:
182,192,115875,1,0,0:0:0:0:
256,192,115875,1,0,0:0:0:0:
402,192,116069,1,0,0:0:0:0:
329,192,116262,1,0,0:0:0:0:
475,192,116456,1,0,0:0:0:0:
182,192,116456,1,0,0:0:0:0:
256,192,116456,1,0,0:0:0:0:
109,192,116456,1,0,0:0:0:0:
402,192,116649,1,0,0:0:0:0:
329,192,116843,1,0,0:0:0:0:
475,192,117037,1,0,0:0:0:0:
36,192,117037,1,0,0:0:0:0:
109,192,117037,1,0,0:0:0:0:
182,192,117037,1,0,0:0:0:0:
402,192,117230,1,0,0:0:0:0:
329,192,117424,1,0,0:0:0:0:
109,192,117424,1,0,0:0:0:0:
182,192,117424,1,0,0:0:0:0:
36,192,117424,1,0,0:0:0:0:
475,192,117617,1,0,0:0:0:0:
256,192,117617,1,0,0:0:0:0:
109,192,117617,1,0,0:0:0:0:
402,192,117811,1,0,0:0:0:0:
182,192,117811,1,0,0:0:0:0:
109,192,117811,1,0,0:0:0:0:
256,192,117811,1,0,0:0:0:0:
329,192,118004,1,0,0:0:0:0:
475,192,118198,128,0,118778:0:0:0:0:
36,192,118198,1,0,0:0:0:0:
256,192,118198,1,0,0:0:0:0:
402,192,118198,1,0,0:0:0:0:
182,192,118391,1,0,0:0:0:0:
109,192,118585,1,0,0:0:0:0:
402,192,118778,128,0,119359:0:0:0:0:
36,192,118778,1,0,0:0:0:0:
256,192,118778,1,0,0:0:0:0:
329,192,118972,1,0,0:0:0:0:
256,192,119166,1,0,0:0:0:0:
329,192,119359,128,0,120133:0:0:0:0:
109,192,119359,1,0,0:0:0:0:
36,192,119359,1,0,0:0:0:0:
182,192,119553,1,0,0:0:0:0:
256,192,119746,1,0,0:0:0:0:
109,192,119746,1,0,0:0:0:0:
36,192,119940,1,0,0:0:0:0:
182,192,119940,1,0,0:0:0:0:
475,192,120133,1,0,0:0:0:0:
402,192,120133,128,0,120520:0:0:0:0:
256,192,120133,1,0,0:0:0:0:
109,192,120133,1,0,0:0:0:0:
182,192,120327,1,0,0:0:0:0:
182,192,120520,1,0,0:0:0:0:
256,192,120520,1,0,0:0:0:0:
475,192,120520,1,0,0:0:0:0:
36,192,120520,1,0,0:0:0:0:
402,192,120714,1,0,0:0:0:0:
329,192,120907,1,0,0:0:0:0:
256,192,121101,1,0,0:0:0:0:
109,192,121101,1,0,0:0:0:0:
475,192,121101,1,0,0:0:0:0:
182,192,121101,1,0,0:0:0:0:
402,192,121295,1,0,0:0:0:0:
329,192,121488,1,0,0:0:0:0:
109,192,121682,1,0,0:0:0:0:
182,192,121682,1,0,0:0:0:0:
475,192,121682,1,0,0:0:0:0:
36,192,121682,1,0,0:0:0:0:
402,192,121875,1,0,0:0:0:0:
182,192,122069,1,0,0:0:0:0:
36,192,122069,1,0,0:0:0:0:
329,192,122069,1,0,0:0:0:0:
109,192,122069,1,0,0:0:0:0:
475,192,122262,1,0,0:0:0:0:
182,192,122262,1,0,0:0:0:0:
109,192,122262,1,0,0:0:0:0:
109,192,122456,1,0,0:0:0:0:
256,192,122456,1,0,0:0:0:0:
402,192,122456,1,0,0:0:0:0:
182,192,122456,1,0,0:0:0:0:
329,192,122649,1,0,0:0:0:0:
475,192,122843,128,0,123424:0:0:0:0:
36,192,122843,1,0,0:0:0:0:
256,192,122843,1,0,0:0:0:0:
402,192,122843,1,0,0:0:0:0:
182,192,123036,1,0,0:0:0:0:
109,192,123230,1,0,0:0:0:0:
402,192,123424,128,0,124004:0:0:0:0:
36,192,123424,1,0,0:0:0:0:
256,192,123424,1,0,0:0:0:0:
329,192,123617,1,0,0:0:0:0:
256,192,123811,1,0,0:0:0:0:
329,192,124004,128,0,124778:0:0:0:0:
109,192,124004,1,0,0:0:0:0:
36,192,124004,1,0,0:0:0:0:
182,192,124198,1,0,0:0:0:0:
256,192,124391,1,0,0:0:0:0:
109,192,124391,1,0,0:0:0:0:
36,192,124585,1,0,0:0:0:0:
182,192,124585,1,0,0:0:0:0:
475,192,124778,1,0,0:0:0:0:
402,192,124778,128,0,125166:0:0:0:0:
182,192,124778,1,0,0:0:0:0:
109,192,124972,1,0,0:0:0:0:
475,192,125166,1,0,0:0:0:0:
256,192,125166,128,0,127488:0:0:0:0:
182,192,125166,128,0,127488:0:0:0:0:
36,192,125166,128,0,127488:0:0:0:0:
329,192,126327,1,0,0:0:0:0:
402,192,126327,1,0,0:0:0:0:
475,192,127488,1,0,0:0:0:0:
329,192,127488,1,0,0:0:0:0:
109,192,127488,128,0,128069:0:0:0:0:
402,192,127682,1,0,0:0:0:0:
329,192,127875,1,0,0:0:0:0:
182,192,128069,128,0,128649:0:0:0:0:
36,192,128069,1,0,0:0:0:0:
402,192,128069,1,0,0:0:0:0:
475,192,128069,1,0,0:0:0:0:
329,192,128262,1,0,0:0:0:0:
256,192,128456,1,0,0:0:0:0:
109,192,128456,1,0,0:0:0:0:
329,192,128649,1,0,0:0:0:0:
36,192,128649,128,0,129230:0:0:0:0:
475,192,128649,1,0,0:0:0:0:
402,192,128649,1,0,0:0:0:0:
256,192,128843,1,0,0:0:0:0:
182,192,129036,1,0,0:0:0:0:
329,192,129036,1,0,0:0:0:0:
256,192,129230,1,0,0:0:0:0:
402,192,129230,128,0,129811:0:0:0:0:
475,192,129230,1,0,0:0:0:0:
109,192,129230,1,0,0:0:0:0:
182,192,129424,1,0,0:0:0:0:
109,192,129617,1,0,0:0:0:0:
256,192,129811,128,0,132133:0:0:0:0:
36,192,129811,128,0,132133:0:0:0:0:
402,192,130972,1,0,0:0:0:0:
329,192,130972,1,0,0:0:0:0:
402,192,132133,128,0,132714:0:0:0:0:
475,192,132133,1,0,0:0:0:0:
329,192,132133,1,0,0:0:0:0:
182,192,132133,1,0,0:0:0:0:
109,192,132327,1,0,0:0:0:0:
182,192,132520,1,0,0:0:0:0:
475,192,132714,1,0,0:0:0:0:
36,192,132714,1,0,0:0:0:0:
109,192,132714,1,0,0:0:0:0:
329,192,132714,128,0,133295:0:0:0:0:
182,192,132907,1,0,0:0:0:0:
256,192,133101,1,0,0:0:0:0:
402,192,133101,1,0,0:0:0:0:
182,192,133295,1,0,0:0:0:0:
475,192,133295,128,0,133875:0:0:0:0:
36,192,133295,1,0,0:0:0:0:
109,192,133295,1,0,0:0:0:0:
256,192,133488,1,0,0:0:0:0:
329,192,133682,1,0,0:0:0:0:
182,192,133682,1,0,0:0:0:0:
256,192,133875,1,0,0:0:0:0:
109,192,133875,128,0,134456:0:0:0:0:
36,192,133875,1,0,0:0:0:0:
402,192,133875,1,0,0:0:0:0:
329,192,134069,1,0,0:0:0:0:
402,192,134262,1,0,0:0:0:0:
256,192,134456,128,0,136778:0:0:0:0:
475,192,134456,128,0,136778:0:0:0:0:
402,192,135424,1,0,0:0:0:0:
329,192,135520,1,0,0:0:0:0:
109,192,135617,1,0,0:0:0:0:
182,192,135617,1,0,0:0:0:0:
402,192,136778,128,0,137359:0:0:0:0:
36,192,136778,1,0,0:0:0:0:
182,192,136778,1,0,0:0:0:0:
329,192,136778,1,0,0:0:0:0:
109,192,136972,1,0,0:0:0:0:
182,192,137166,1,0,0:0:0:0:
36,192,137359,1,0,0:0:0:0:
109,192,137359,1,0,0:0:0:0:
329,192,137359,128,0,137940:0:0:0:0:
475,192,137359,1,0,0:0:0:0:
182,192,137553,1,0,0:0:0:0:
402,192,137746,1,0,0:0:0:0:
256,192,137746,1,0,0:0:0:0:
36,192,137940,1,0,0:0:0:0:
109,192,137940,1,0,0:0:0:0:
182,192,137940,1,0,0:0:0:0:
475,192,137940,128,0,138520:0:0:0:0:
256,192,138133,1,0,0:0:0:0:
182,192,138327,1,0,0:0:0:0:
329,192,138327,1,0,0:0:0:0:
36,192,138520,1,0,0:0:0:0:
402,192,138520,1,0,0:0:0:0:
256,192,138520,1,0,0:0:0:0:
109,192,138520,128,0,139101:0:0:0:0:
329,192,138714,1,0,0:0:0:0:
402,192,138907,1,0,0:0:0:0:
475,192,139101,128,0,141424:0:0:0:0:
256,192,139101,128,0,141424:0:0:0:0:
182,192,140262,1,0,0:0:0:0:
109,192,140262,1,0,0:0:0:0:
109,192,141424,128,0,142004:0:0:0:0:
329,192,141424,1,0,0:0:0:0:
36,192,141424,1,0,0:0:0:0:
182,192,141424,1,0,0:0:0:0:
402,192,141617,1,0,0:0:0:0:
329,192,141811,1,0,0:0:0:0:
182,192,142004,128,0,142585:0:0:0:0:
36,192,142004,1,0,0:0:0:0:
475,192,142004,1,0,0:0:0:0:
402,192,142004,1,0,0:0:0:0:
329,192,142198,1,0,0:0:0:0:
256,192,142391,1,0,0:0:0:0:
109,192,142391,1,0,0:0:0:0:
329,192,142585,1,0,0:0:0:0:
36,192,142585,128,0,143166:0:0:0:0:
475,192,142585,1,0,0:0:0:0:
402,192,142585,1,0,0:0:0:0:
256,192,142778,1,0,0:0:0:0:
182,192,142972,1,0,0:0:0:0:
329,192,142972,1,0,0:0:0:0:
256,192,143166,1,0,0:0:0:0:
402,192,143166,128,0,143746:0:0:0:0:
475,192,143166,1,0,0:0:0:0:
109,192,143166,1,0,0:0:0:0:
182,192,143359,1,0,0:0:0:0:
109,192,143553,1,0,0:0:0:0:
256,192,143746,128,0,146069:0:0:0:0:
36,192,143746,128,0,146069:0:0:0:0:
402,192,144907,1,0,0:0:0:0:
329,192,144907,1,0,0:0:0:0:
109,192,146069,128,0,148295:0:0:0:0:
109,192,148391,128,0,150617:0:0:0:0:
36,192,150714,1,0,0:0:0:0:
109,192,150714,1,0,0:0:0:0:
36,192,153036,1,0,0:0:0:0:
109,192,153036,1,0,0:0:0:0:
36,192,155359,1,0,0:0:0:0:
182,192,155359,1,0,0:0:0:0:
329,192,155359,1,0,0:0:0:0:
475,192,155359,1,0,0:0:0:0:
256,192,155553,1,0,0:0:0:0:
402,192,155553,1,0,0:0:0:0:
182,192,155746,1,0,0:0:0:0:
329,192,155746,1,0,0:0:0:0:
36,192,155940,1,0,0:0:0:0:
182,192,155940,1,0,0:0:0:0:
329,192,155940,1,0,0:0:0:0:
475,192,155940,1,0,0:0:0:0:
109,192,156133,1,0,0:0:0:0:
256,192,156133,1,0,0:0:0:0:
182,192,156327,1,0,0:0:0:0:
329,192,156327,1,0,0:0:0:0:
36,192,156520,1,0,0:0:0:0:
329,192,156520,1,0,0:0:0:0:
182,192,156520,1,0,0:0:0:0:
109,192,156520,1,0,0:0:0:0:
329,192,156714,1,0,0:0:0:0:
475,192,156714,1,0,0:0:0:0:
256,192,156907,1,0,0:0:0:0:
402,192,156907,1,0,0:0:0:0:
329,192,157101,1,0,0:0:0:0:
256,192,157101,1,0,0:0:0:0:
402,192,157101,1,0,0:0:0:0:
182,192,157101,1,0,0:0:0:0:
109,192,157295,1,0,0:0:0:0:
256,192,157295,1,0,0:0:0:0:
36,192,157488,1,0,0:0:0:0:
182,192,157488,1,0,0:0:0:0:
109,192,157682,128,0,159907:0:0:0:0:
36,192,157682,128,0,159907:0:0:0:0:
182,192,157682,128,0,159907:0:0:0:0:
329,192,158069,128,0,158166:0:0:0:0:
475,192,158069,128,0,158166:0:0:0:0:
329,192,158262,128,0,158359:0:0:0:0:
475,192,158262,128,0,158359:0:0:0:0:
329,192,158456,128,0,158553:0:0:0:0:
475,192,158456,128,0,158553:0:0:0:0:
329,192,158649,128,0,158746:0:0:0:0:
475,192,158649,128,0,158746:0:0:0:0:
329,192,158843,128,0,158940:0:0:0:0:
475,192,158843,128,0,158940:0:0:0:0:
256,192,158843,128,0,158940:0:0:0:0:
329,192,159230,128,0,159327:0:0:0:0:
475,192,159230,128,0,159327:0:0:0:0:
329,192,159424,128,0,159520:0:0:0:0:
475,192,159424,128,0,159520:0:0:0:0:
329,192,159617,128,0,159714:0:0:0:0:
475,192,159617,128,0,159714:0:0:0:0:
329,192,159811,128,0,159907:0:0:0:0:
475,192,159811,128,0,159907:0:0:0:0:
36,192,160004,1,0,0:0:0:0:
182,192,160004,1,0,0:0:0:0:
329,192,160004,1,0,0:0:0:0:
475,192,160004,1,0,0:0:0:0:
256,192,160198,1,0,0:0:0:0:
402,192,160198,1,0,0:0:0:0:
182,192,160391,1,0,0:0:0:0:
329,192,160391,1,0,0:0:0:0:
36,192,160585,1,0,0:0:0:0:
182,192,160585,1,0,0:0:0:0:
329,192,160585,1,0,0:0:0:0:
475,192,160585,1,0,0:0:0:0:
109,192,160778,1,0,0:0:0:0:
256,192,160778,1,0,0:0:0:0:
182,192,160972,1,0,0:0:0:0:
329,192,160972,1,0,0:0:0:0:
36,192,161166,1,0,0:0:0:0:
329,192,161166,1,0,0:0:0:0:
182,192,161166,1,0,0:0:0:0:
109,192,161166,1,0,0:0:0:0:
329,192,161359,1,0,0:0:0:0:
475,192,161359,1,0,0:0:0:0:
256,192,161553,1,0,0:0:0:0:
402,192,161553,1,0,0:0:0:0:
329,192,161746,1,0,0:0:0:0:
256,192,161746,1,0,0:0:0:0:
402,192,161746,1,0,0:0:0:0:
182,192,161746,1,0,0:0:0:0:
109,192,161940,1,0,0:0:0:0:
256,192,161940,1,0,0:0:0:0:
36,192,162133,1,0,0:0:0:0:
182,192,162133,1,0,0:0:0:0:
109,192,162327,128,0,164553:0:0:0:0:
36,192,162327,128,0,164553:0:0:0:0:
182,192,162327,128,0,164553:0:0:0:0:
329,192,162714,128,0,162811:0:0:0:0:
475,192,162714,128,0,162811:0:0:0:0:
329,192,162907,128,0,163004:0:0:0:0:
475,192,162907,128,0,163004:0:0:0:0:
329,192,163101,128,0,163198:0:0:0:0:
475,192,163101,128,0,163198:0:0:0:0:
329,192,163295,128,0,163391:0:0:0:0:
475,192,163295,128,0,163391:0:0:0:0:
329,192,163488,128,0,163585:0:0:0:0:
475,192,163488,128,0,163585:0:0:0:0:
256,192,163488,128,0,163585:0:0:0:0:
329,192,163875,128,0,163972:0:0:0:0:
475,192,163875,128,0,163972:0:0:0:0:
329,192,164069,128,0,164166:0:0:0:0:
475,192,164069,128,0,164166:0:0:0:0:
329,192,164262,128,0,164359:0:0:0:0:
475,192,164262,128,0,164359:0:0:0:0:
329,192,164456,128,0,164553:0:0:0:0:
475,192,164456,128,0,164553:0:0:0:0:
475,192,164649,1,0,0:0:0:0:
329,192,164649,1,0,0:0:0:0:
182,192,164649,1,0,0:0:0:0:
36,192,164649,1,0,0:0:0:0:
256,192,164843,1,0,0:0:0:0:
109,192,164843,1,0,0:0:0:0:
329,192,165036,1,0,0:0:0:0:
182,192,165036,1,0,0:0:0:0:
475,192,165230,1,0,0:0:0:0:
329,192,165230,1,0,0:0:0:0:
182,192,165230,1,0,0:0:0:0:
36,192,165230,1,0,0:0:0:0:
402,192,165424,1,0,0:0:0:0:
256,192,165424,1,0,0:0:0:0:
329,192,165617,1,0,0:0:0:0:
182,192,165617,1,0,0:0:0:0:
475,192,165811,1,0,0:0:0:0:
182,192,165811,1,0,0:0:0:0:
329,192,165811,1,0,0:0:0:0:
402,192,165811,1,0,0:0:0:0:
182,192,166004,1,0,0:0:0:0:
36,192,166004,1,0,0:0:0:0:
256,192,166198,1,0,0:0:0:0:
109,192,166198,1,0,0:0:0:0:
182,192,166391,1,0,0:0:0:0:
256,192,166391,1,0,0:0:0:0:
109,192,166391,1,0,0:0:0:0:
329,192,166391,1,0,0:0:0:0:
402,192,166585,1,0,0:0:0:0:
256,192,166585,1,0,0:0:0:0:
475,192,166778,1,0,0:0:0:0:
329,192,166778,1,0,0:0:0:0:
402,192,166972,128,0,169198:0:0:0:0:
475,192,166972,128,0,169198:0:0:0:0:
329,192,166972,128,0,169198:0:0:0:0:
182,192,167359,128,0,167456:0:0:0:0:
36,192,167359,128,0,167456:0:0:0:0:
182,192,167553,128,0,167649:0:0:0:0:
36,192,167553,128,0,167649:0:0:0:0:
182,192,167746,128,0,167843:0:0:0:0:
36,192,167746,128,0,167843:0:0:0:0:
182,192,167940,128,0,168036:0:0:0:0:
36,192,167940,128,0,168036:0:0:0:0:
182,192,168133,128,0,168230:0:0:0:0:
36,192,168133,128,0,168230:0:0:0:0:
256,192,168133,128,0,168230:0:0:0:0:
182,192,168520,128,0,168617:0:0:0:0:
36,192,168520,128,0,168617:0:0:0:0:
182,192,168714,128,0,168811:0:0:0:0:
36,192,168714,128,0,168811:0:0:0:0:
182,192,168907,128,0,169004:0:0:0:0:
36,192,168907,128,0,169004:0:0:0:0:
182,192,169101,128,0,169198:0:0:0:0:
36,192,169101,128,0,169198:0:0:0:0:
475,192,169295,1,0,0:0:0:0:
329,192,169295,1,0,0:0:0:0:
182,192,169295,1,0,0:0:0:0:
36,192,169295,1,0,0:0:0:0:
256,192,169488,1,0,0:0:0:0:
109,192,169488,1,0,0:0:0:0:
329,192,169682,1,0,0:0:0:0:
182,192,169682,1,0,0:0:0:0:
475,192,169875,1,0,0:0:0:0:
329,192,169875,1,0,0:0:0:0:
182,192,169875,1,0,0:0:0:0:
36,192,169875,1,0,0:0:0:0:
402,192,170069,1,0,0:0:0:0:
256,192,170069,1,0,0:0:0:0:
329,192,170262,1,0,0:0:0:0:
182,192,170262,1,0,0:0:0:0:
475,192,170456,1,0,0:0:0:0:
182,192,170456,1,0,0:0:0:0:
329,192,170456,1,0,0:0:0:0:
402,192,170456,1,0,0:0:0:0:
182,192,170649,1,0,0:0:0:0:
36,192,170649,1,0,0:0:0:0:
256,192,170843,1,0,0:0:0:0:
109,192,170843,1,0,0:0:0:0:
182,192,171036,1,0,0:0:0:0:
256,192,171036,1,0,0:0:0:0:
109,192,171036,1,0,0:0:0:0:
329,192,171036,1,0,0:0:0:0:
402,192,171230,1,0,0:0:0:0:
256,192,171230,1,0,0:0:0:0:
475,192,171424,1,0,0:0:0:0:
329,192,171424,1,0,0:0:0:0:
36,192,171617,1,0,0:0:0:0:
109,192,171617,1,0,0:0:0:0:
182,192,171617,1,0,0:0:0:0:
256,192,171617,1,0,0:0:0:0:
36,192,171811,1,0,0:0:0:0:
182,192,171811,1,0,0:0:0:0:
36,192,172004,1,0,0:0:0:0:
182,192,172004,1,0,0:0:0:0:
36,192,172198,1,0,0:0:0:0:
182,192,172198,1,0,0:0:0:0:
36,192,172391,1,0,0:0:0:0:
182,192,172391,1,0,0:0:0:0:
36,192,172585,1,0,0:0:0:0:
182,192,172585,1,0,0:0:0:0:
36,192,172778,1,0,0:0:0:0:
109,192,172778,1,0,0:0:0:0:
182,192,172778,1,0,0:0:0:0:
256,192,172778,1,0,0:0:0:0:
475,192,173166,1,0,0:0:0:0:
475,192,173359,1,0,0:0:0:0:
475,192,173553,1,0,0:0:0:0:
475,192,173746,1,0,0:0:0:0:
36,192,173940,1,0,0:0:0:0:
182,192,173940,1,0,0:0:0:0:
256,192,173940,1,0,0:0:0:0:
329,192,173940,1,0,0:0:0:0:
109,192,173940,1,0,0:0:0:0:
36,192,174133,1,0,0:0:0:0:
182,192,174133,1,0,0:0:0:0:
256,192,174133,1,0,0:0:0:0:
36,192,174327,1,0,0:0:0:0:
182,192,174327,1,0,0:0:0:0:
256,192,174327,1,0,0:0:0:0:
36,192,174520,1,0,0:0:0:0:
182,192,174520,1,0,0:0:0:0:
256,192,174520,1,0,0:0:0:0:
36,192,174714,1,0,0:0:0:0:
182,192,174714,1,0,0:0:0:0:
256,192,174714,1,0,0:0:0:0:
36,192,174907,1,0,0:0:0:0:
182,192,174907,1,0,0:0:0:0:
256,192,174907,1,0,0:0:0:0:
36,192,175101,1,0,0:0:0:0:
182,192,175101,1,0,0:0:0:0:
256,192,175101,1,0,0:0:0:0:
329,192,175101,1,0,0:0:0:0:
109,192,175101,1,0,0:0:0:0:
402,192,175488,1,0,0:0:0:0:
475,192,175488,1,0,0:0:0:0:
402,192,175682,1,0,0:0:0:0:
475,192,175682,1,0,0:0:0:0:
402,192,175875,1,0,0:0:0:0:
475,192,175875,1,0,0:0:0:0:
402,192,176069,1,0,0:0:0:0:
475,192,176069,1,0,0:0:0:0:
36,192,176262,1,0,0:0:0:0:
109,192,176262,1,0,0:0:0:0:
182,192,176262,1,0,0:0:0:0:
256,192,176262,1,0,0:0:0:0:
329,192,176262,1,0,0:0:0:0:
36,192,176456,1,0,0:0:0:0:
109,192,176456,1,0,0:0:0:0:
182,192,176456,1,0,0:0:0:0:
256,192,176456,1,0,0:0:0:0:
36,192,176649,1,0,0:0:0:0:
109,192,176649,1,0,0:0:0:0:
182,192,176649,1,0,0:0:0:0:
256,192,176649,1,0,0:0:0:0:
36,192,176843,1,0,0:0:0:0:
109,192,176843,1,0,0:0:0:0:
182,192,176843,1,0,0:0:0:0:
256,192,176843,1,0,0:0:0:0:
36,192,177036,1,0,0:0:0:0:
109,192,177036,1,0,0:0:0:0:
182,192,177036,1,0,0:0:0:0:
256,192,177036,1,0,0:0:0:0:
36,192,177230,1,0,0:0:0:0:
109,192,177230,1,0,0:0:0:0:
256,192,177230,1,0,0:0:0:0:
182,192,177230,1,0,0:0:0:0:
36,192,177424,1,0,0:0:0:0:
109,192,177424,1,0,0:0:0:0:
256,192,177424,1,0,0:0:0:0:
182,192,177424,1,0,0:0:0:0:
329,192,177424,1,0,0:0:0:0:
402,192,177811,128,0,177907:0:0:0:0:
475,192,177811,128,0,177907:0:0:0:0:
329,192,178004,128,0,178101:0:0:0:0:
475,192,178004,128,0,178101:0:0:0:0:
256,192,178198,128,0,178295:0:0:0:0:
402,192,178198,128,0,178295:0:0:0:0:
329,192,178198,128,0,178295:0:0:0:0:
329,192,178391,128,0,178488:0:0:0:0:
402,192,178391,128,0,178488:0:0:0:0:
475,192,178391,128,0,178488:0:0:0:0:
