osu file format v14

[General]
AudioFilename: Rosebleu - .mp3
AudioLeadIn: 0
PreviewTime: 57116
Countdown: 1
SampleSet: None
StackLeniency: 0.7
Mode: 1
LetterboxInBreaks: 1
WidescreenStoryboard: 1

[Editor]
DistanceSpacing: 0.9
BeatDivisor: 4
GridSize: 32
TimelineZoom: 2.799999

[Metadata]
Title:Black Wing Heart
TitleUnicode:黒翼は~と
Artist:Tiny Dungeon
ArtistUnicode:Tiny Dungeon
Creator:Pouyter
Version:Inner Oni
Source:Tiny Dungeon~BLACK and WHITE~
Tags:Rosebleu,Tiny Dungeon,BLACK,WHITE, ~BLACK and WHITE~
BeatmapID:2002323
BeatmapSetID:956455

[Difficulty]
HPDrainRate:6
CircleSize:2
OverallDifficulty:6
ApproachRate:6
SliderMultiplier:2.5
SliderTickRate:1

[Events]
//Background and Video events
0,0,"BG4.png",0,0
//Break Periods
//Storyboard Layer 0 (Background)
//Storyboard Layer 1 (Fail)
//Storyboard Layer 2 (Pass)
//Storyboard Layer 3 (Foreground)
//Storyboard Sound Samples

[TimingPoints]
1900,600,4,1,0,100,1,0
78700,-100,4,1,0,100,0,1
97900,-100,4,1,0,100,0,0
136300,-100,4,1,0,100,0,1
155500,-100,4,1,0,50,0,0

[HitObjects]
256,192,1600,5,0,0:0:0:0:
256,192,1750,1,0,0:0:0:0:
256,192,1900,1,8,0:0:0:0:
256,192,2500,1,8,0:0:0:0:
256,192,3100,1,8,0:0:0:0:
256,192,3550,1,0,0:0:0:0:
256,192,3700,1,8,0:0:0:0:
256,192,4000,1,8,0:0:0:0:
256,192,4150,1,8,0:0:0:0:
256,192,4300,1,0,0:0:0:0:
256,192,4600,1,8,0:0:0:0:
256,192,4900,1,8,0:0:0:0:
256,192,5200,1,8,0:0:0:0:
256,192,5500,1,0,0:0:0:0:
256,192,6100,1,8,0:0:0:0:
256,192,6400,1,0,0:0:0:0:
256,192,6550,1,8,0:0:0:0:
256,192,6700,1,8,0:0:0:0:
256,192,7150,1,0,0:0:0:0:
256,192,7300,1,8,0:0:0:0:
256,192,7900,1,0,0:0:0:0:
256,192,8200,1,8,0:0:0:0:
256,192,8350,1,0,0:0:0:0:
256,192,8500,1,8,0:0:0:0:
256,192,8800,1,8,0:0:0:0:
256,192,8950,1,8,0:0:0:0:
256,192,9100,1,0,0:0:0:0:
256,192,9400,1,8,0:0:0:0:
256,192,9550,1,8,0:0:0:0:
256,192,9700,1,0,0:0:0:0:
256,192,9850,1,8,0:0:0:0:
256,192,10000,1,0,0:0:0:0:
256,192,10150,1,0,0:0:0:0:
256,192,10300,1,8,0:0:0:0:
256,192,10600,1,0,0:0:0:0:
256,192,10750,1,8,0:0:0:0:
256,192,10900,1,8,0:0:0:0:
256,192,11200,1,0,0:0:0:0:
256,192,11350,1,0,0:0:0:0:
256,192,11500,1,8,0:0:0:0:
256,192,12100,1,8,0:0:0:0:
256,192,12700,1,8,0:0:0:0:
256,192,13150,1,0,0:0:0:0:
256,192,13300,1,8,0:0:0:0:
256,192,13600,1,8,0:0:0:0:
256,192,13750,1,8,0:0:0:0:
256,192,13900,1,0,0:0:0:0:
256,192,14200,1,8,0:0:0:0:
256,192,14500,1,8,0:0:0:0:
256,192,14800,1,8,0:0:0:0:
256,192,14950,1,8,0:0:0:0:
256,192,15100,1,0,0:0:0:0:
256,192,15400,1,0,0:0:0:0:
256,192,15550,1,0,0:0:0:0:
256,192,15700,1,8,0:0:0:0:
256,192,15850,1,8,0:0:0:0:
256,192,16000,1,0,0:0:0:0:
256,192,16150,1,8,0:0:0:0:
256,192,16300,1,8,0:0:0:0:
256,192,16900,1,8,0:0:0:0:
256,192,17500,1,0,0:0:0:0:
256,192,17800,1,8,0:0:0:0:
256,192,18100,1,8,0:0:0:0:
256,192,18400,1,0,0:0:0:0:
256,192,18700,1,0,0:0:0:0:
256,192,19000,1,8,0:0:0:0:
256,192,19150,1,8,0:0:0:0:
256,192,19300,1,0,0:0:0:0:
256,192,19450,1,0,0:0:0:0:
256,192,19600,1,8,0:0:0:0:
256,192,19750,1,0,0:0:0:0:
256,192,19900,1,8,0:0:0:0:
256,192,20200,1,0,0:0:0:0:
256,192,20350,1,0,0:0:0:0:
256,192,20500,1,8,0:0:0:0:
256,192,20650,1,8,0:0:0:0:
256,192,20800,1,0,0:0:0:0:
256,192,20950,1,0,0:0:0:0:
256,192,21100,1,8,0:0:0:0:
