osu file format v14

[General]
AudioFilename: audio.mp3
AudioLeadIn: 0
PreviewTime: -1
Countdown: 0
SampleSet: Normal
StackLeniency: 0.7
Mode: 0
LetterboxInBreaks: 0
WidescreenStoryboard: 1

[Editor]
Bookmarks: 11198,17198,21698,29198,33885,39791,41948,45698,56665,58165,62665,65197,87790
DistanceSpacing: 0.8
BeatDivisor: 1
GridSize: 4
TimelineZoom: 1

[Metadata]
Title:STICK STICK STICK
TitleUnicode:STICK STICK STICK
Artist:Tinsounds
ArtistUnicode:Tinsounds
Creator:Dr_Llama_Jim
Version:Easy
Source:
Tags:
BeatmapID:1488227
BeatmapSetID:703421

[Difficulty]
HPDrainRate:3
CircleSize:2.5
OverallDifficulty:3
ApproachRate:3.5
SliderMultiplier:0.90000000596046
SliderTickRate:1

[Events]
//Background and Video events
Video,0,"CBeebies Songs Hey Duggee Stick Song.mp4"
0,0,"hey-duggee-1024-576.jpg",0,0
//Break Periods
2,29023,32411
2,42241,44317
2,63990,79285
//Storyboard Layer 0 (Background)
//Storyboard Layer 1 (Fail)
//Storyboard Layer 2 (Pass)
//Storyboard Layer 3 (Foreground)
//Storyboard Sound Samples

[TimingPoints]
10073,375,4,1,0,100,1,0
33791,375,4,1,0,100,1,0
45697,375,4,1,0,100,1,0
56665,375,4,1,0,100,1,0
80665,375,4,1,0,100,1,0

[Colours]
Combo1 : 255,255,0
Combo2 : 255,0,0
Combo3 : 0,0,255

[HitObjects]
90,44,11198,5,0,0:0:0:0:
74,114,11573,1,0,0:0:0:0:
111,175,11948,1,0,0:0:0:0:
53,218,12323,1,0,0:0:0:0:
25,284,12698,1,0,0:0:0:0:
74,336,13073,1,0,0:0:0:0:
141,321,13448,1,0,0:0:0:0:
198,364,13823,1,0,0:0:0:0:
239,305,14198,5,0,0:0:0:0:
310,316,14573,1,0,0:0:0:0:
364,362,14948,1,0,0:0:0:0:
432,338,15323,1,0,0:0:0:0:
446,267,15698,2,0,B|474:219|474:219|459:174,3,90.000000596046
424,125,17198,1,0,0:0:0:0:
427,53,17573,1,0,0:0:0:0:
355,47,17948,1,0,0:0:0:0:
306,100,18323,5,0,0:0:0:0:
237,78,18698,1,0,0:0:0:0:
200,140,19073,1,0,0:0:0:0:
136,173,19448,1,0,0:0:0:0:
128,244,19823,1,0,0:0:0:0:
70,287,20198,1,0,0:0:0:0:
119,339,20573,1,0,0:0:0:0:
188,319,20948,1,0,0:0:0:0:
254,348,21323,5,0,0:0:0:0:
319,319,21698,2,0,B|370:298|370:298|386:253,3,90.000000596046
393,194,23198,2,0,B|425:145|425:145|413:85,1,90.000000596046
376,55,23948,2,0,B|327:22|327:22|266:35,1,90.000000596046
316,98,24698,2,0,B|285:104|285:104|236:72,1,90.000000596046
173,36,25448,1,0,0:0:0:0:
105,61,25823,1,0,0:0:0:0:
84,129,26198,2,0,B|51:178|51:178|63:238,1,90.000000596046
127,189,26948,6,0,B|133:219|133:219|101:268,1,90.000000596046
99,341,27698,2,0,B|147:367|147:367|192:350,3,90.000000596046
421,98,33791,6,0,B|390:51|390:51|343:45,3,90.000000596046
284,52,35291,1,0,0:0:0:0:
280,123,35666,1,0,0:0:0:0:
291,194,36041,1,0,0:0:0:0:
253,255,36416,1,0,0:0:0:0:
181,259,36791,5,0,0:0:0:0:
155,191,37166,1,0,0:0:0:0:
196,132,37541,1,0,0:0:0:0:
155,72,37916,1,0,0:0:0:0:
83,60,38291,5,0,0:0:0:0:
51,124,38666,1,0,0:0:0:0:
93,181,39041,1,0,0:0:0:0:
50,239,39416,1,0,0:0:0:0:
85,301,39791,6,0,B|137:316|137:316|178:292,3,90.000000596046
231,266,41291,1,0,0:0:0:0:
294,299,41666,1,0,0:0:0:0:
356,263,42041,1,0,0:0:0:0:
443,122,45697,5,0,0:0:0:0:
402,62,46072,1,0,0:0:0:0:
331,47,46447,1,0,0:0:0:0:
277,95,46822,1,0,0:0:0:0:
209,70,47197,1,0,0:0:0:0:
143,99,47572,1,0,0:0:0:0:
71,95,47947,1,0,0:0:0:0:
30,154,48322,1,0,0:0:0:0:
69,214,48697,5,0,0:0:0:0:
50,283,49072,1,0,0:0:0:0:
121,281,49447,1,0,0:0:0:0:
168,335,49822,1,0,0:0:0:0:
236,312,50197,1,0,0:0:0:0:
303,336,50572,2,0,B|356:351|356:351|396:327,3,90.000000596046
378,261,52072,6,0,L|484:280,3,90.000000596046
396,190,53572,2,0,L|497:154,3,90.000000596046
376,120,55072,2,0,L|446:38,3,90.000000596046
344,49,56665,1,0,0:0:0:0:
283,87,57040,1,0,0:0:0:0:
213,66,57415,1,0,0:0:0:0:
157,112,57790,1,0,0:0:0:0:
129,178,58165,1,0,0:0:0:0:
165,240,58540,1,0,0:0:0:0:
235,224,58915,2,0,P|286:228|320:288,2,90.000000596046
168,241,60040,1,0,0:0:0:0:
100,267,60415,2,0,P|67:296|62:340,2,90.000000596046
158,236,61540,1,0,0:0:0:0:
126,171,61915,2,0,P|100:130|98:77,1,90.000000596046
165,71,62665,2,0,B|194:53|194:53|247:68,3,90.000000596046
439,157,80665,6,0,B|456:186|456:186|441:239,3,90.000000596046
370,229,82165,1,0,0:0:0:0:
314,183,82540,1,0,0:0:0:0:
254,222,82915,2,0,P|204:235|152:190,2,90.000000596046
311,183,84040,1,0,0:0:0:0:
366,135,84415,2,0,P|386:95|376:52,2,90.000000596046
322,184,85540,1,0,0:0:0:0:
256,192,85915,12,0,88165,0:0:0:0:
