osu file format v14

[General]
AudioFilename: audio.mp3
AudioLeadIn: 0
PreviewTime: 61058
Countdown: 0
SampleSet: Soft
StackLeniency: 0.4
Mode: 0
LetterboxInBreaks: 0
WidescreenStoryboard: 1

[Editor]
Bookmarks: 258,9858,22658,35458,48258,61058,73858,86658,99458,112258,118658,125058,137858
DistanceSpacing: 1
BeatDivisor: 4
GridSize: 32
TimelineZoom: 2.500005

[Metadata]
Title:Throw A Fit
TitleUnicode:Throw A Fit
Artist:Tinashe
ArtistUnicode:Tinashe
Creator:C00L
Version:hannody's Hard
Source:
Tags:hip hop pop english trap cool hannody mkguh mk cd
BeatmapID:2885205
BeatmapSetID:1398260

[Difficulty]
HPDrainRate:4
CircleSize:3.6
OverallDifficulty:6
ApproachRate:7
SliderMultiplier:1.5
SliderTickRate:1

[Events]
//Background and Video events
0,0,"Throw_A_Fit.jpg",0,0
//Break Periods
2,4266,5758
2,112458,117758
//Storyboard Layer 0 (Background)
//Storyboard Layer 1 (Fail)
//Storyboard Layer 2 (Pass)
//Storyboard Layer 3 (Foreground)
//Storyboard Layer 4 (Overlay)
//Storyboard Sound Samples

[TimingPoints]
258,400,4,2,1,60,1,0
258,-100,4,2,1,60,0,0
2658,-100,4,2,1,30,0,0
2958,-100,4,2,1,5,0,0
3058,-100,4,2,1,25,0,0
3358,-100,4,2,1,5,0,0
3458,-100,4,2,1,20,0,0
7658,-100,4,2,1,40,0,0
8458,-100,4,2,1,30,0,0
9458,-100,4,2,1,40,0,0
9858,-100,4,2,1,60,0,0
10158,-100,4,2,1,5,0,0
10258,-100,4,2,1,60,0,0
11358,-100,4,2,1,5,0,0
11458,-100,4,2,1,60,0,0
12558,-100,4,2,1,5,0,0
12658,-100,4,2,1,60,0,0
13358,-100,4,2,1,5,0,0
13458,-100,4,2,1,60,0,0
14558,-100,4,2,1,5,0,0
14658,-100,4,2,1,60,0,0
15758,-100,4,2,1,5,0,0
15858,-100,4,2,1,60,0,0
16558,-100,4,2,1,5,0,0
16658,-100,4,2,1,60,0,0
17758,-100,4,2,1,5,0,0
17858,-100,4,2,1,60,0,0
18958,-100,4,2,1,5,0,0
19058,-100,4,2,1,60,0,0
19758,-100,4,2,1,5,0,0
19858,-100,4,2,1,60,0,0
20958,-100,4,2,1,5,0,0
21058,-100,4,2,1,60,0,0
22158,-100,4,2,1,5,0,0
22258,-100,4,2,1,60,0,0
25358,-100,4,2,1,5,0,0
25458,-100,4,2,1,60,0,0
26158,-100,4,2,1,5,0,0
26258,-100,4,2,1,60,0,0
27358,-100,4,2,1,5,0,0
27458,-100,4,2,1,60,0,0
28558,-100,4,2,1,5,0,0
28658,-100,4,2,1,60,0,0
30558,-100,4,2,1,5,0,0
30658,-100,4,2,1,60,0,0
32558,-100,4,2,1,5,0,0
32658,-100,4,2,1,60,0,0
33758,-100,4,2,1,5,0,0
33858,-100,4,2,1,60,0,0
34958,-100,4,2,1,5,0,0
35058,-100,4,2,1,50,0,0
35458,-87.719298245614,4,2,1,75,0,1
46258,-87.719298245614,4,2,1,75,0,0
46658,-87.719298245614,4,2,1,40,0,0
47858,-87.719298245614,4,2,1,50,0,0
48258,-100,4,2,1,60,0,0
48558,-100,4,2,1,5,0,0
48658,-100,4,2,1,60,0,0
49758,-100,4,2,1,5,0,0
49858,-100,4,2,1,60,0,0
50958,-100,4,2,1,5,0,0
51058,-100,4,2,1,60,0,0
51758,-100,4,2,1,5,0,0
51858,-100,4,2,1,60,0,0
52958,-100,4,2,1,5,0,0
53058,-100,4,2,1,60,0,0
54158,-100,4,2,1,5,0,0
54258,-100,4,2,1,60,0,0
54958,-100,4,2,1,5,0,0
55058,-100,4,2,1,60,0,0
56158,-100,4,2,1,5,0,0
56258,-100,4,2,1,60,0,0
58158,-100,4,2,1,5,0,0
58258,-100,4,2,1,60,0,0
59358,-100,4,2,1,5,0,0
59458,-100,4,2,1,60,0,0
60558,-100,4,2,1,5,0,0
60658,-100,4,2,1,60,0,0
61358,-100,4,2,1,5,0,0
61458,-100,4,2,1,60,0,0
62558,-100,4,2,1,5,0,0
62658,-100,4,2,1,60,0,0
63758,-100,4,2,1,5,0,0
63858,-100,4,2,1,60,0,0
64558,-100,4,2,1,5,0,0
64658,-100,4,2,1,60,0,0
65758,-100,4,2,1,5,0,0
65858,-100,4,2,1,60,0,0
66958,-100,4,2,1,5,0,0
67058,-100,4,2,1,60,0,0
67758,-100,4,2,1,5,0,0
67858,-100,4,2,1,60,0,0
68958,-100,4,2,1,5,0,0
69058,-100,4,2,1,60,0,0
70158,-100,4,2,1,5,0,0
70258,-100,4,2,1,60,0,0
70958,-100,4,2,1,5,0,0
71058,-100,4,2,1,60,0,0
72158,-100,4,2,1,5,0,0
72258,-100,4,2,1,60,0,0
73358,-100,4,2,1,5,0,0
73458,-100,4,2,1,60,0,0
76558,-100,4,2,1,5,0,0
76658,-100,4,2,1,60,0,0
77358,-100,4,2,1,5,0,0
77458,-100,4,2,1,60,0,0
78558,-100,4,2,1,5,0,0
78658,-100,4,2,1,60,0,0
79758,-100,4,2,1,5,0,0
79858,-100,4,2,1,60,0,0
83758,-100,4,2,1,5,0,0
83858,-100,4,2,1,60,0,0
84958,-100,4,2,1,5,0,0
85058,-100,4,2,1,60,0,0
86158,-100,4,2,1,5,0,0
86258,-100,4,2,1,60,0,0
86558,-100,4,2,1,5,0,0
86658,-87.719298245614,4,2,1,75,0,1
97858,-87.719298245614,4,2,1,40,0,0
99058,-87.719298245614,4,2,1,50,0,0
99458,-113.636363636364,4,2,1,60,0,0
99758,-113.636363636364,4,2,1,5,0,0
99858,-113.636363636364,4,2,1,60,0,0
100558,-113.636363636364,4,2,1,5,0,0
100658,-113.636363636364,4,2,1,60,0,0
102958,-113.636363636364,4,2,1,5,0,0
103058,-113.636363636364,4,2,1,60,0,0
103758,-113.636363636364,4,2,1,5,0,0
103858,-113.636363636364,4,2,1,60,0,0
105458,-113.636363636364,4,2,1,50,0,0
105858,-100,4,2,1,60,0,0
106158,-100,4,2,1,5,0,0
106258,-100,4,2,1,60,0,0
107358,-100,4,2,1,5,0,0
107458,-100,4,2,1,60,0,0
109058,-100,4,2,1,40,0,0
111458,-100,4,2,1,50,0,0
111758,-100,4,2,1,5,0,0
111858,-100,4,2,1,50,0,0
112258,-100,4,2,1,60,0,0
112558,-100,4,2,1,5,0,0
112658,-100,4,2,1,60,0,0
113758,-100,4,2,1,5,0,0
113858,-100,4,2,1,60,0,0
114958,-100,4,2,1,5,0,0
115058,-100,4,2,1,60,0,0
115758,-100,4,2,1,5,0,0
115858,-100,4,2,1,60,0,0
116958,-100,4,2,1,5,0,0
117058,-100,4,2,1,60,0,0
118158,-100,4,2,1,5,0,0
118258,-100,4,2,1,60,0,0
118958,-100,4,2,1,5,0,0
119058,-100,4,2,1,60,0,0
120158,-100,4,2,1,5,0,0
120258,-100,4,2,1,60,0,0
121358,-100,4,2,1,5,0,0
121458,-100,4,2,1,60,0,0
122158,-100,4,2,1,5,0,0
122258,-100,4,2,1,60,0,0
123358,-100,4,2,1,5,0,0
123458,-100,4,2,1,60,0,0
124558,-100,4,2,1,5,0,0
124658,-100,4,2,1,60,0,0
125058,-87.719298245614,4,2,1,60,0,1
127758,-87.719298245614,4,2,1,5,0,1
127858,-87.719298245614,4,2,1,60,0,1
128558,-87.719298245614,4,2,1,5,0,1
128658,-87.719298245614,4,2,1,60,0,1
129758,-87.719298245614,4,2,1,5,0,1
129858,-87.719298245614,4,2,1,60,0,1
130958,-87.719298245614,4,2,1,5,0,1
131058,-87.719298245614,4,2,1,60,0,1
134958,-87.719298245614,4,2,1,5,0,1
135058,-87.719298245614,4,2,1,60,0,1
136158,-87.719298245614,4,2,1,5,0,1
136258,-87.719298245614,4,2,1,60,0,1
137358,-87.719298245614,4,2,1,5,0,1
137458,-87.719298245614,4,2,1,60,0,1
137858,-114.942528735632,4,2,1,60,0,0
143058,-114.942528735632,4,2,1,40,0,0
143358,-114.942528735632,4,2,1,5,0,0
143458,-114.942528735632,4,2,1,50,0,0
143858,-114.942528735632,4,2,1,60,0,0
144258,-114.942528735632,4,2,1,70,0,0

[Colours]
Combo1 : 255,98,98
Combo2 : 182,182,182
Combo3 : 228,228,228

[HitObjects]
56,56,258,6,0,B|96:24|96:24|200:36,1,150,2|0,3:2|0:0,0:0:0:0:
364,56,1058,5,0,0:0:0:0:
440,16,1258,1,2,0:0:0:0:
504,76,1458,2,0,B|488:144|488:144|484:148|484:148|464:224,1,150,2|0,3:2|0:0,0:0:0:0:
256,320,2258,5,2,3:2:0:0:
332,360,2458,1,2,0:2:0:0:
396,300,2658,1,0,0:0:0:0:
256,192,6658,12,2,8458,0:0:0:0:
40,32,9458,5,2,0:0:0:0:
104,88,9658,1,0,0:0:0:0:
168,144,9858,6,0,B|256:136|224:184|312:184,1,150,2|2,3:2|0:0,0:0:0:0:
392,164,10458,1,2,0:0:0:0:
460,216,10658,2,0,B|468:252|468:252|456:296,2,75,8|2|2,0:0|0:2|3:2,0:0:0:0:
460,216,11458,2,0,B|476:140|476:140|448:64,1,150,2|0,0:0|3:2,0:0:0:0:
388,16,12058,1,2,0:0:0:0:
312,52,12258,2,0,L|228:44,1,75,8|0,0:0|3:0,0:0:0:0:
132,8,12658,1,2,0:0:0:0:
76,72,12858,1,2,3:2:0:0:
16,136,13058,6,0,B|0:180|0:180|24:288,1,150,2|2,3:2|0:0,0:0:0:0:
44,364,13658,1,2,3:0:0:0:
120,320,13858,2,0,B|152:300|152:300|196:308,2,75,8|2|2,0:0|3:2|3:2,0:0:0:0:
284,332,14658,2,0,B|316:352|316:352|360:344,1,75,2|0,0:0|0:0,0:0:0:0:
432,312,15058,2,0,L|416:228,1,75,0|2,3:0|0:0,0:0:0:0:
404,120,15458,2,0,B|368:96|330:124|319:164|341:148|319:196|272:192,1,150,8|2,0:0|0:0,0:0:0:0:
205,147,16058,1,2,3:0:0:0:
260,64,16258,6,0,B|224:44|224:44|100:76,1,150,2|2,3:2|0:0,0:0:0:0:
40,104,16858,1,2,3:0:0:0:
20,188,17058,2,0,L|32:264,2,75,8|2|2,0:0|3:2|3:2,0:0:0:0:
20,188,17858,2,0,B|96:180|68:252|152:240,1,150,2|0,0:0|3:0,0:0:0:0:
232,212,18458,1,2,0:0:0:0:
308,172,18658,2,0,L|316:92,1,75,8|0,0:0|3:0,0:0:0:0:
376,36,19058,1,2,0:0:0:0:
456,64,19258,1,2,3:0:0:0:
488,152,19458,6,0,P|484:228|472:300,1,150,2|2,3:2|0:0,0:0:0:0:
412,364,20058,1,2,3:0:0:0:
332,332,20258,2,0,L|256:324,1,75,8|2,0:0|3:2,0:0:0:0:
176,352,20658,2,0,L|100:344,1,75,2|0,3:2|0:0,0:0:0:0:
24,296,21058,2,0,B|52:268|52:268|60:232,1,75,2|0,0:0|0:0,0:0:0:0:
112,164,21458,2,0,B|140:192|140:192|148:228,1,75,0|2,3:0|0:0,0:0:0:0:
24,158,21858,2,0,B|-2:125|-2:125|28:13,1,150,8|2,0:0|0:0,0:0:0:0:
120,24,22458,1,2,3:0:0:0:
200,72,22658,6,0,B|236:92|236:92|352:80,1,150,2|2,0:0|0:0,0:0:0:0:
432,64,23258,1,0,3:0:0:0:
496,124,23458,2,0,L|484:208,1,75,2|2,0:0|3:2,0:0:0:0:
464,284,23858,2,0,B|428:272|428:272|388:288,1,75,2|0,3:2|0:0,0:0:0:0:
316,344,24258,5,2,0:0:0:0:
288,260,24458,1,0,0:0:0:0:
204,288,24658,1,2,3:2:0:0:
232,372,24858,1,0,0:0:0:0:
232,372,25058,2,0,B|156:360|156:360|148:360|148:360|76:348,1,150,10|0,0:0|0:0,0:0:0:0:
24,284,25658,1,2,3:0:0:0:
88,224,25858,6,0,B|68:128|68:128|100:88,1,150,2|2,3:2|0:0,0:0:0:0:
100,87,26658,1,10,0:0:0:0:
180,48,26858,1,2,3:2:0:0:
260,88,27058,2,0,B|296:100|296:100|332:88,1,75,2|0,3:2|0:0,0:0:0:0:
412,56,27458,2,0,B|436:84|436:84|476:92,1,75,2|0,0:0|0:0,0:0:0:0:
464,180,27858,2,0,B|428:172|428:172|396:192,1,75,2|0,3:0|0:0,0:0:0:0:
354,282,28258,2,0,B|282:278|310:342|218:334,1,150,10|2,0:0|0:0,0:0:0:0:
152,280,28858,1,2,3:0:0:0:
76,328,29058,6,0,B|56:284|56:284|92:184,1,150,2|2,3:2|0:0,0:0:0:0:
164,140,29658,1,0,3:0:0:0:
140,56,29858,2,0,L|220:48,1,75,10|2,0:0|3:2,0:0:0:0:
292,8,30258,2,0,L|380:16,1,75,2|0,3:2|0:0,0:0:0:0:
456,72,30658,5,2,0:0:0:0:
476,160,30858,1,2,0:0:0:0:
392,184,31058,1,0,3:0:0:0:
368,100,31258,1,2,0:0:0:0:
368,100,31458,2,0,P|332:116|316:224,1,150,10|0,0:0|0:0,0:0:0:0:
328,300,32058,1,2,3:2:0:0:
264,364,32258,6,0,B|192:356|192:356|184:352|184:352|116:344,1,150,2|2,3:2|0:0,0:0:0:0:
60,276,32858,1,0,3:0:0:0:
124,216,33058,2,0,B|132:176|132:176|124:140,1,75,10|2,0:0|3:2,0:0:0:0:
96,60,33458,2,0,B|128:40|128:40|152:0,1,75,2|0,3:2|0:0,0:0:0:0:
236,20,33858,2,0,B|216:56|216:56|216:104,1,75,2|0,0:0|0:0,0:0:0:0:
292,136,34258,2,0,L|380:128,1,75,0|2,3:0|0:0,0:0:0:0:
444,80,34658,2,0,B|416:124|416:124|444:228,1,150,10|2,0:0|0:0,0:0:0:0:
384,364,35458,6,0,B|296:364|336:304|228:304,1,170.999997912598,2|0,3:2|0:0,0:0:0:0:
156,360,36058,2,0,P|168:304|168:184,1,170.999997912598,2|0,3:2|0:0,0:0:0:0:
132,104,36658,1,2,3:2:0:0:
132,104,36858,1,0,0:0:0:0:
220,92,37058,1,0,0:0:0:0:
224,96,37258,1,0,0:0:0:0:
160,24,37458,2,0,B|120:20|120:20|116:24|116:24|68:20,1,85.4999989562988,2|0,3:2|0:0,0:0:0:0:
4,96,37858,1,8,0:2:0:0:
6,181,38058,2,0,B|51:207|51:207|174:189,1,170.999997912598,2|0,3:2|0:0,0:0:0:0:
224,96,38658,6,0,B|269:70|269:70|392:88,1,170.999997912598,2|0,3:2|0:0,0:0:0:0:
464,24,39258,2,0,B|432:80|432:80|464:200,1,170.999997912598,2|0,3:2|0:0,0:0:0:0:
492,272,39858,1,2,3:2:0:0:
488,280,40058,1,0,0:0:0:0:
400,248,40258,1,0,0:0:0:0:
396,256,40458,1,0,0:0:0:0:
312,216,40658,2,0,L|268:304,1,85.4999989562988,2|0,3:2|0:0,0:0:0:0:
188,352,41058,1,8,0:0:0:0:
149,267,41258,2,0,L|325:211,1,170.999997912598,2|0,3:2|0:0,0:0:0:0:
363,117,41858,6,0,L|187:173,1,170.999997912598,2|0,3:2|0:0,0:0:0:0:
120,120,42458,2,0,B|32:108|32:108|0:200,1,170.999997912598,2|0,3:2|0:0,0:0:0:0:
32,276,43058,1,2,3:2:0:0:
36,272,43258,1,0,0:0:0:0:
116,224,43458,1,0,0:0:0:0:
120,228,43658,1,0,0:0:0:0:
192,292,43858,2,0,L|244:368,1,85.4999989562988,2|0,3:2|0:0,0:0:0:0:
344,376,44258,1,8,0:0:0:0:
358,285,44458,2,0,B|274:269|274:269|186:293,1,170.999997912598,2|0,3:2|0:0,0:0:0:0:
200,188,45058,6,0,L|244:8,1,170.999997912598,2|0,3:2|0:0,0:0:0:0:
332,0,45658,2,0,B|416:16|380:80|460:104,1,170.999997912598,2|0,3:2|0:0,0:0:0:0:
512,184,46258,1,2,3:2:0:0:
508,192,46458,1,0,0:0:0:0:
432,248,46658,1,0,0:0:0:0:
436,256,46858,1,0,0:0:0:0:
488,336,47058,2,0,L|400:356,1,85.4999989562988,0|0,0:0|0:0,0:0:0:0:
322,312,47458,2,0,P|334:260|450:280,1,170.999997912598,0|0,0:0|0:0,0:0:0:0:
136,296,48258,6,0,P|148:348|240:356,1,150,2|0,3:2|0:0,0:0:0:0:
172,212,49058,1,10,0:2:0:0:
88,224,49258,1,0,3:0:0:0:
136,296,49458,6,0,P|148:348|240:356,1,150,2|0,3:2|0:0,0:0:0:0:
172,212,50258,1,2,3:2:0:0:
88,224,50458,1,0,0:0:0:0:
4,240,50658,6,0,B|-8:160|-8:160|12:88,1,150,10|0,0:2|0:0,0:0:0:0:
48,16,51258,1,0,3:0:0:0:
136,52,51458,6,0,B|216:32|196:88|280:72,1,150,2|0,3:2|0:0,0:0:0:0:
128,152,52258,1,10,0:2:0:0:
64,96,52458,1,0,3:0:0:0:
136,52,52658,6,0,B|216:32|196:88|280:72,1,150,2|0,3:2|0:2,0:0:0:0:
128,152,53458,1,2,3:2:0:0:
64,96,53658,1,0,0:0:0:0:
136,52,53858,5,10,0:2:0:0:
40,184,54258,1,0,0:0:0:0:
152,308,54658,6,0,B|228:296|228:296|264:316,1,112.5,2|0,3:2|0:0,0:0:0:0:
288,304,55058,2,0,B|364:316|364:316|400:296,1,112.5,0|0,0:0|0:0,0:0:0:0:
420,280,55458,1,10,0:2:0:0:
372,204,55658,1,0,3:0:0:0:
432,132,55858,6,0,B|440:96|440:96|400:16,1,112.5,2|0,3:2|0:0,0:0:0:0:
372,37,56258,2,0,P|312:25|256:21,1,112.5,0|0,0:0|0:0,0:0:0:0:
228,40,56658,1,2,3:2:0:0:
140,16,56858,1,0,0:0:0:0:
60,60,57058,6,0,B|52:96|52:96|64:136,1,75,8|2,0:0|3:2,0:0:0:0:
128,200,57458,1,0,0:0:0:0:
128,200,57658,1,2,3:2:0:0:
88,288,57858,6,0,B|168:260|152:332|228:320,1,150,2|0,3:2|0:0,0:0:0:0:
288,256,58458,1,0,0:0:0:0:
364,308,58658,2,0,P|404:304|440:300,1,75,10|0,0:2|3:0,0:0:0:0:
492,228,59058,6,0,B|472:168|472:168|452:152|452:152|432:84,1,150,2|0,3:2|0:0,0:0:0:0:
434,93,59858,1,2,3:2:0:0:
384,20,60058,1,0,0:0:0:0:
316,76,60258,6,0,B|264:72|264:72|244:76|244:76|216:64|216:64|152:60,1,150,0|0,0:0|0:2,0:0:0:0:
32,76,61058,6,0,P|40:132|56:232,1,150,2|2,3:2|0:0,0:0:0:0:
72,312,61658,1,2,3:2:0:0:
152,352,61858,2,0,P|196:344|232:336,2,75,8|2|2,0:0|3:2|3:2,0:0:0:0:
152,352,62658,2,0,P|160:288|232:252,1,150,2|0,0:2|3:2,0:0:0:0:
316,276,63258,1,2,0:2:0:0:
400,300,63458,2,0,P|412:256|420:216,1,75,10|0,0:2|3:0,0:0:0:0:
384,136,63858,1,2,0:2:0:0:
300,112,64058,1,0,3:0:0:0:
216,92,64258,6,0,B|140:92|156:144|80:144,1,150,2|2,3:2|0:2,0:0:0:0:
12,200,64858,1,2,3:2:0:0:
56,276,65058,2,0,P|88:284|128:296,2,75,8|2|2,0:0|3:2|3:2,0:0:0:0:
204,352,65858,2,0,P|236:344|276:332,1,75,2|0,0:2|0:0,0:0:0:0:
356,296,66258,2,0,P|352:268|336:224,1,75,0|2,3:0|0:2,0:0:0:0:
284,152,66658,2,0,P|348:140|428:104,1,150,10|2,0:2|0:2,0:0:0:0:
492,32,67258,1,0,3:0:0:0:
412,0,67458,6,0,P|320:4|260:24,1,150,2|2,3:2|0:2,0:0:0:0:
196,76,68058,1,2,3:2:0:0:
120,28,68258,2,0,P|108:76|96:116,2,75,8|2|2,0:0|3:2|3:2,0:0:0:0:
120,28,69058,6,0,P|68:32|28:120,1,150,2|0,0:2|3:0,0:0:0:0:
48,196,69658,1,2,0:2:0:0:
76,280,69858,2,0,P|120:288|160:296,1,75,10|0,0:2|3:0,0:0:0:0:
232,344,70258,1,2,0:2:0:0:
304,296,70458,1,0,3:0:0:0:
376,248,70658,6,0,B|400:200|400:200|368:96,1,150,2|2,3:2|0:2,0:0:0:0:
328,32,71258,1,2,3:2:0:0:
264,92,71458,2,0,P|228:84|184:80,1,75,8|2,0:0|3:2,0:0:0:0:
120,28,71858,2,0,P|88:48|56:76,1,75,2|0,3:2|0:0,0:0:0:0:
72,160,72258,2,0,P|92:192|104:236,1,75,2|0,0:2|0:0,0:0:0:0:
180,268,72658,2,0,P|192:232|216:200,1,75,0|2,3:0|0:2,0:0:0:0:
296,172,73058,2,0,L|312:336,1,150,10|2,0:2|0:2,0:0:0:0:
392,364,73658,1,0,3:0:0:0:
456,300,73858,6,0,B|480:256|480:256|456:152,1,150,2|2,3:2|0:2,0:0:0:0:
424,76,74458,1,0,3:0:0:0:
356,20,74658,2,0,L|272:28,1,75,10|2,0:2|3:2,0:0:0:0:
208,76,75058,2,0,L|124:84,1,75,2|0,3:2|0:0,0:0:0:0:
52,136,75458,5,2,0:2:0:0:
24,220,75658,1,0,0:0:0:0:
108,248,75858,1,2,3:2:0:0:
144,168,76058,1,0,0:0:0:0:
144,168,76258,2,0,B|184:204|184:204|196:308,1,150,10|0,0:2|0:0,0:0:0:0:
268,352,76858,1,0,3:0:0:0:
344,304,77058,6,0,B|355:208|355:208|395:172,1,150,2|2,3:2|0:0,0:0:0:0:
395,172,77858,1,10,0:2:0:0:
452,104,78058,1,2,3:2:0:0:
404,28,78258,2,0,B|368:40|368:40|328:24,1,75,2|0,3:2|0:0,0:0:0:0:
256,68,78658,2,0,B|220:56|220:56|184:72,1,75,2|0,0:2|0:0,0:0:0:0:
112,24,79058,2,0,B|76:40|76:40|36:28,1,75,0|2,3:0|2:0,0:0:0:0:
0,112,79458,2,0,L|16:268,1,150,10|2,0:2|0:2,0:0:0:0:
76,328,80058,1,0,3:0:0:0:
144,272,80258,6,0,B|232:268|196:324|296:308,1,150,2|2,3:2|0:2,0:0:0:0:
360,264,80858,1,0,3:0:0:0:
436,220,81058,2,0,B|440:180|440:180|432:144,1,75,10|2,0:2|3:2,0:0:0:0:
412,60,81458,2,0,B|376:48|376:48|340:44,1,75,2|0,3:2|0:0,0:0:0:0:
267,99,81858,5,2,0:2:0:0:
227,19,82058,1,0,0:0:0:0:
147,59,82258,1,0,3:2:0:0:
187,139,82458,1,2,0:2:0:0:
187,139,82658,2,0,B|147:175|147:175|143:283,1,150,10|0,0:2|0:0,0:0:0:0:
64,316,83258,1,0,3:0:0:0:
8,248,83458,6,0,L|24:92,1,150,2|2,3:2|0:2,0:0:0:0:
68,24,84058,1,0,3:0:0:0:
147,59,84258,2,0,L|227:55,1,75,10|2,0:2|3:2,0:0:0:0:
300,16,84658,2,0,L|380:12,1,75,2|0,3:2|0:0,0:0:0:0:
456,48,85058,2,0,B|468:84|468:84|452:128,1,75,2|0,0:2|0:0,0:0:0:0:
400,188,85458,2,0,B|392:224|392:224|412:264,1,75,0|2,3:0|0:2,0:0:0:0:
444,340,85858,2,0,L|288:328,1,150,10|0,0:2|0:0,0:0:0:0:
140,264,86658,6,0,B|112:236|112:208|136:160|172:184|168:108,1,170.999997912598,2|0,3:2|0:0,0:0:0:0:
124,28,87258,2,0,P|184:56|288:76,1,170.999997912598,2|0,3:2|0:0,0:0:0:0:
376,48,87858,5,2,3:2:0:0:
384,44,88058,1,0,0:0:0:0:
424,128,88258,1,0,0:0:0:0:
432,124,88458,1,0,0:0:0:0:
484,208,88658,2,0,P|472:248|452:292,1,85.4999989562988,2|0,3:2|0:0,0:0:0:0:
416,372,89058,1,8,0:0:0:0:
424,376,89258,2,0,P|408:324|284:312,1,170.999997912598,2|0,3:2|0:0,0:0:0:0:
228,364,89858,6,0,B|252:316|252:316|224:196,1,170.999997912598,2|0,3:2|0:0,0:0:0:0:
192,116,90458,1,2,3:2:0:0:
260,56,90658,2,0,B|300:40|300:40|348:48,1,85.4999989562988,8|0,0:0|0:0,0:0:0:0:
432,32,91058,6,0,B|472:48|472:48|496:92,1,85.4999989562988,2|0,3:2|0:0,0:0:0:0:
456,172,91458,1,0,0:0:0:0:
452,180,91658,1,0,0:0:0:0:
384,248,91858,1,2,3:2:0:0:
388,256,92058,1,0,0:0:0:0:
420,348,92258,1,8,0:0:0:0:
416,356,92458,2,0,B|388:368|388:368|324:360,2,85.4999989562988,2|2|0,3:2|3:2|0:0,0:0:0:0:
388,256,93058,2,0,L|292:248,1,85.4999989562988,2|0,3:2|0:0,0:0:0:0:
224,196,93458,6,0,L|216:152,1,42.7499994781494,0|0,0:0|0:0,0:0:0:0:
208,120,93658,2,0,B|172:96|156:36|156:36|72:92|108:180,1,256.499996868897,2|2,3:2|3:2,0:0:0:0:
144,248,94458,1,0,0:0:0:0:
96,328,94658,6,0,B|132:348|132:348|180:340,1,85.4999989562988,0|0,0:0|0:0,0:0:0:0:
144,248,95058,2,0,B|108:228|108:228|60:236,1,85.4999989562988,2|0,3:2|0:0,0:0:0:0:
4,312,95458,1,8,0:0:0:0:
12,316,95658,2,0,P|24:224|24:128,1,170.999997912598,2|0,3:2|0:0,0:0:0:0:
8,52,96258,2,0,B|48:32|48:32|104:40,1,85.4999989562988,2|0,3:2|0:0,0:0:0:0:
176,68,96658,6,0,L|220:60,1,42.7499994781494,0|0,0:0|0:0,0:0:0:0:
256,52,96858,2,0,B|296:64|344:44|344:44|320:104|340:156|244:156,1,256.499996868897,2|2,3:2|3:2,0:0:0:0:
160,160,97658,1,0,0:0:0:0:
212,236,97858,6,0,L|228:324,1,85.4999989562988,0|0,0:0|0:0,0:0:0:0:
308,360,98258,2,0,L|320:268,1,85.4999989562988,0|0,0:0|0:0,0:0:0:0:
396,224,98658,1,0,0:0:0:0:
396,224,99458,6,0,L|404:88,1,132.00000402832,2|0,3:2|0:0,0:0:0:0:
340,36,100058,1,0,3:0:0:0:
272,88,100258,2,0,L|200:96,1,66.0000020141602,10|0,0:2|0:0,0:0:0:0:
120,104,100658,1,2,3:2:0:0:
120,104,100858,1,0,0:0:0:0:
36,68,101058,6,0,L|32:144,1,66.0000020141602,2|2,0:2|0:2,0:0:0:0:
24,220,101458,2,0,L|20:296,1,66.0000020141602,2|0,3:2|0:0,0:0:0:0:
16,372,101858,2,0,P|76:360|108:300,1,132.00000402832,10|2,0:2|0:2,0:0:0:0:
184,264,102458,1,2,3:2:0:0:
260,228,102658,2,0,P|320:240|352:300,2,132.00000402832,2|0|10,3:2|0:0|0:2,0:0:0:0:
260,228,103858,1,2,3:2:0:0:
244,144,104058,1,0,0:0:0:0:
224,60,104258,6,0,L|148:56,1,66.0000020141602,2|2,0:2|0:2,0:0:0:0:
80,96,104658,2,0,L|4:92,1,66.0000020141602,2|0,3:2|0:0,0:0:0:0:
44,180,105058,5,10,0:2:0:0:
44,180,105858,6,0,B|24:224|24:224|56:352,1,150,2|0,3:2|0:0,0:0:0:0:
164,208,106658,1,8,0:0:0:0:
120,136,106858,1,0,3:0:0:0:
44,180,107058,6,0,B|24:224|24:224|56:352,1,150,2|0,3:2|0:0,0:0:0:0:
164,208,107858,1,2,3:2:0:0:
120,136,108058,1,0,0:0:0:0:
44,180,108258,6,0,B|24:224|24:224|32:264,1,75,8|2,0:0|3:2,0:0:0:0:
104,300,108658,1,0,0:0:0:0:
104,300,108858,1,2,3:2:0:0:
164,208,109058,6,0,B|252:208|216:272|304:272,1,150,0|0,0:0|0:0,0:0:0:0:
236,120,109858,1,0,0:0:0:0:
152,120,110058,1,0,0:0:0:0:
164,208,110258,6,0,B|252:208|216:272|304:272,1,150,0|0,0:0|0:0,0:0:0:0:
236,120,111058,1,0,0:0:0:0:
152,120,111258,1,0,0:0:0:0:
164,208,111458,6,0,B|252:208|216:272|304:272,1,150,0|0,0:0|0:0,0:0:0:0:
376,244,112058,1,0,0:0:0:0:
456,276,112258,5,2,3:2:0:0:
436,40,118658,6,0,B|352:40|376:104|288:104,1,150,2|2,3:2|0:2,0:0:0:0:
232,56,119258,1,2,3:2:0:0:
160,8,119458,2,0,P|148:44|128:92,1,75,8|2,0:0|3:2,0:0:0:0:
64,132,119858,2,0,P|84:168|96:208,1,75,2|0,3:2|0:0,0:0:0:0:
96,288,120258,2,0,B|136:268|136:268|200:288|200:288|236:268,1,150,2|0,0:2|3:2,0:0:0:0:
304,220,120858,1,2,0:2:0:0:
376,268,121058,2,0,P|416:256|448:248,1,75,10|0,0:2|0:0,0:0:0:0:
492,172,121458,2,0,P|456:160|420:144,1,75,2|0,0:2|3:0,0:0:0:0:
373,54,121858,6,0,B|277:78|277:78|229:54,1,150,2|2,3:2|0:2,0:0:0:0:
156,8,122458,1,2,3:2:0:0:
88,64,122658,2,0,L|80:148,1,75,8|2,0:0|3:2,0:0:0:0:
124,216,123058,2,0,L|116:300,1,75,2|0,3:2|0:0,0:0:0:0:
180,352,123458,2,0,P|216:360|252:352,1,75,2|0,0:2|0:0,0:0:0:0:
328,308,123858,2,0,P|364:296|404:304,1,75,0|2,3:0|0:2,0:0:0:0:
480,344,124258,1,10,0:2:0:0:
504,260,124458,1,0,0:0:0:0:
460,180,124658,2,0,P|452:144|432:104,1,75,2|0,2:0|3:0,0:0:0:0:
488,32,125058,6,0,B|392:76|416:8|320:48,1,170.999997912598,2|2,2:0|0:2,0:0:0:0:
256,112,125658,1,0,3:0:0:0:
168,84,125858,2,0,B|124:88|124:88|76:112,1,85.4999989562988,10|2,0:2|3:2,0:0:0:0:
108,196,126258,2,0,B|152:192|152:192|200:168,1,85.4999989562988,2|0,3:2|0:0,0:0:0:0:
256,112,126658,5,2,0:2:0:0:
308,188,126858,1,0,0:0:0:0:
240,244,127058,1,2,3:2:0:0:
188,173,127258,1,0,0:0:0:0:
256,112,127458,2,0,P|332:104|400:168,1,170.999997912598,10|0,0:2|0:0,0:0:0:0:
420,256,128058,1,0,3:2:0:0:
504,292,128258,6,0,B|436:312|436:312|424:324|424:324|340:352,1,170.999997912598,2|2,3:2|0:2,0:0:0:0:
345,350,129058,1,10,0:2:0:0:
260,316,129258,1,2,3:2:0:0:
176,280,129458,2,0,L|164:196,1,85.4999989562988,2|0,3:2|0:0,0:0:0:0:
84,152,129858,2,0,P|108:116|152:100,1,85.4999989562988,2|0,0:2|0:0,0:0:0:0:
225,143,130258,2,0,P|201:179|157:195,1,85.4999989562988,0|2,3:2|0:2,0:0:0:0:
84,152,130658,2,0,B|44:200|44:200|68:328,1,170.999997912598,10|0,0:2|0:2,0:0:0:0:
136,368,131258,1,0,3:0:0:0:
224,324,131458,6,0,P|292:316|392:280,1,170.999997912598,2|2,3:2|0:2,0:0:0:0:
472,240,132058,1,0,3:0:0:0:
496,148,132258,2,0,B|472:112|472:112|432:88,1,85.4999989562988,10|2,0:2|3:2,0:0:0:0:
344,88,132658,2,0,B|307:109|307:109|283:145,1,85.4999989562988,2|0,3:2|0:0,0:0:0:0:
244,232,133058,5,2,0:2:0:0:
160,192,133258,1,0,0:0:0:0:
196,104,133458,1,0,3:0:0:0:
283,145,133658,1,2,0:0:0:0:
244,232,133858,2,0,P|196:276|96:260,1,170.999997912598,10|0,0:2|0:2,0:0:0:0:
24,204,134458,1,0,3:2:0:0:
48,112,134658,6,0,B|88:40|88:40|192:16,1,170.999997912598,2|2,3:2|0:2,0:0:0:0:
264,0,135258,1,0,3:0:0:0:
352,24,135458,2,0,B|392:40|392:40|424:72,1,85.4999989562988,10|2,0:2|3:2,0:0:0:0:
512,40,135858,2,0,L|488:152,1,85.4999989562988,2|0,3:2|0:0,0:0:0:0:
400,160,136258,2,0,L|416:256,1,85.4999989562988,2|0,0:2|0:0,0:0:0:0:
488,304,136658,2,0,B|458:333|458:333|418:349,1,85.4999989562988,0|2,3:0|0:2,0:0:0:0:
340,300,137058,1,10,0:2:0:0:
333,303,137258,2,0,B|261:291|261:291|241:299|241:299|161:287,1,170.999997912598,0|0,3:0|3:0,0:0:0:0:
104,220,137858,6,0,B|96:188|96:188|84:176|84:176|84:152|84:152|64:88,1,130.5000010952
140,64,138458,2,0,B|148:96|148:96|160:108|160:108|160:132|160:132|180:196,1,130.5000010952
256,208,139058,2,0,P|304:220|368:104,1,195.750001642799,0|0,0:0|0:0,0:0:0:0:
340,40,139858,2,0,P|368:68|456:76,1,130.5000010952,0|0,0:0|0:0,0:0:0:0:
496,148,140458,1,0,0:0:0:0:
492,152,140658,1,0,0:0:0:0:
316,344,141058,6,0,B|348:324|348:324|444:344,1,130.5000010952
512,312,141658,2,0,B|480:328|480:328|384:308,1,130.5000010952,0|0,0:0|0:0,0:0:0:0:
328,248,142258,2,0,B|244:208|180:264|216:324|112:332,1,228.375001916599,0|0,0:0|0:0,0:0:0:0:
135,328,143058,5,2,0:2:0:0:
32,264,143458,1,0,0:0:0:0:
44,124,143858,1,2,0:2:0:0:
172,16,144258,5,0,3:0:0:0:
