osu file format v14

[General]
AudioFilename: audio.mp3
AudioLeadIn: 0
PreviewTime: 61058
Countdown: 0
SampleSet: Soft
StackLeniency: 0.7
Mode: 0
LetterboxInBreaks: 0
WidescreenStoryboard: 1

[Editor]
Bookmarks: 258,9858,22658,35458,48258,61058,73858,86658,99458,109058,112258,125058,137858
DistanceSpacing: 1
BeatDivisor: 4
GridSize: 32
TimelineZoom: 1.500005

[Metadata]
Title:Throw A Fit
TitleUnicode:Throw A Fit
Artist:Tinashe
ArtistUnicode:Tinashe
Creator:C00L
Version:Mk's Normal
Source:
Tags:hip hop pop english trap cool hannody mkguh mk cd
BeatmapID:2885206
BeatmapSetID:1398260

[Difficulty]
HPDrainRate:3
CircleSize:3
OverallDifficulty:4
ApproachRate:5
SliderMultiplier:1.26
SliderTickRate:1

[Events]
//Background and Video events
0,0,"Throw_A_Fit.jpg",0,0
//Break Periods
2,2858,5258
2,138057,141058
//Storyboard Layer 0 (Background)
//Storyboard Layer 1 (Fail)
//Storyboard Layer 2 (Pass)
//Storyboard Layer 3 (Foreground)
//Storyboard Layer 4 (Overlay)
//Storyboard Sound Samples

[TimingPoints]
258,400,4,2,1,60,1,0
2658,-100,4,2,1,30,0,0
2958,-100,4,2,1,5,0,0
3058,-100,4,2,1,25,0,0
3358,-100,4,2,1,5,0,0
3458,-100,4,2,1,20,0,0
7658,-100,4,2,1,40,0,0
8458,-100,4,2,1,30,0,0
9458,-100,4,2,1,40,0,0
9858,-100,4,2,1,60,0,0
10158,-100,4,2,1,5,0,0
10258,-100,4,2,1,60,0,0
11358,-100,4,2,1,5,0,0
11458,-100,4,2,1,60,0,0
12558,-100,4,2,1,5,0,0
12658,-100,4,2,1,60,0,0
13358,-100,4,2,1,5,0,0
13458,-100,4,2,1,60,0,0
14558,-100,4,2,1,5,0,0
14658,-100,4,2,1,60,0,0
15758,-100,4,2,1,5,0,0
15858,-100,4,2,1,60,0,0
16558,-100,4,2,1,5,0,0
16658,-100,4,2,1,60,0,0
17758,-100,4,2,1,5,0,0
17858,-100,4,2,1,60,0,0
18958,-100,4,2,1,5,0,0
19058,-100,4,2,1,60,0,0
19758,-100,4,2,1,5,0,0
19858,-100,4,2,1,60,0,0
20958,-100,4,2,1,5,0,0
21058,-100,4,2,1,60,0,0
22158,-100,4,2,1,5,0,0
22258,-100,4,2,1,60,0,0
25358,-100,4,2,1,5,0,0
25458,-100,4,2,1,60,0,0
26158,-100,4,2,1,5,0,0
26258,-100,4,2,1,60,0,0
27358,-100,4,2,1,5,0,0
27458,-100,4,2,1,60,0,0
28558,-100,4,2,1,5,0,0
28658,-100,4,2,1,60,0,0
30558,-100,4,2,1,5,0,0
30658,-100,4,2,1,60,0,0
32558,-100,4,2,1,5,0,0
32658,-100,4,2,1,60,0,0
33758,-100,4,2,1,5,0,0
33858,-100,4,2,1,60,0,0
34958,-100,4,2,1,5,0,0
35058,-100,4,2,1,50,0,0
35458,-100,4,2,1,75,0,1
38058,-100,4,2,1,75,0,1
38658,-100,4,2,1,75,0,1
41258,-100,4,2,1,75,0,1
41858,-100,4,2,1,75,0,1
44458,-100,4,2,1,75,0,1
45058,-100,4,2,1,75,0,1
46658,-100,4,2,1,40,0,0
47858,-100,4,2,1,50,0,0
48258,-100,4,2,1,60,0,0
48558,-100,4,2,1,5,0,0
48658,-100,4,2,1,60,0,0
49758,-100,4,2,1,5,0,0
49858,-100,4,2,1,60,0,0
50958,-100,4,2,1,5,0,0
51058,-100,4,2,1,60,0,0
51758,-100,4,2,1,5,0,0
51858,-100,4,2,1,60,0,0
52958,-100,4,2,1,5,0,0
53058,-100,4,2,1,60,0,0
54158,-100,4,2,1,5,0,0
54258,-100,4,2,1,60,0,0
54958,-100,4,2,1,5,0,0
55058,-100,4,2,1,60,0,0
56158,-100,4,2,1,5,0,0
56258,-100,4,2,1,60,0,0
58158,-100,4,2,1,5,0,0
58258,-100,4,2,1,60,0,0
59358,-100,4,2,1,5,0,0
59458,-100,4,2,1,60,0,0
60558,-100,4,2,1,5,0,0
60658,-100,4,2,1,60,0,0
61358,-100,4,2,1,5,0,0
61458,-100,4,2,1,60,0,0
62558,-100,4,2,1,5,0,0
62658,-100,4,2,1,60,0,0
63758,-100,4,2,1,5,0,0
63858,-100,4,2,1,60,0,0
64558,-100,4,2,1,5,0,0
64658,-100,4,2,1,60,0,0
65758,-100,4,2,1,5,0,0
65858,-100,4,2,1,60,0,0
66958,-100,4,2,1,5,0,0
67058,-100,4,2,1,60,0,0
67758,-100,4,2,1,5,0,0
67858,-100,4,2,1,60,0,0
68958,-100,4,2,1,5,0,0
69058,-100,4,2,1,60,0,0
70158,-100,4,2,1,5,0,0
70258,-100,4,2,1,60,0,0
70958,-100,4,2,1,5,0,0
71058,-100,4,2,1,60,0,0
72158,-100,4,2,1,5,0,0
72258,-100,4,2,1,60,0,0
73358,-100,4,2,1,5,0,0
73458,-100,4,2,1,60,0,0
76558,-100,4,2,1,5,0,0
76658,-100,4,2,1,60,0,0
77358,-100,4,2,1,5,0,0
77458,-100,4,2,1,60,0,0
78558,-100,4,2,1,5,0,0
78658,-100,4,2,1,60,0,0
79758,-100,4,2,1,5,0,0
79858,-100,4,2,1,60,0,0
83758,-100,4,2,1,5,0,0
83858,-100,4,2,1,60,0,0
84958,-100,4,2,1,5,0,0
85058,-100,4,2,1,60,0,0
86158,-100,4,2,1,5,0,0
86258,-100,4,2,1,60,0,0
86558,-100,4,2,1,5,0,0
86658,-100,4,2,1,75,0,1
89258,-100,4,2,1,75,0,1
89858,-100,4,2,1,75,0,1
92458,-100,4,2,1,75,0,1
93058,-100,4,2,1,75,0,1
95658,-100,4,2,1,75,0,1
96258,-100,4,2,1,75,0,1
97858,-100,4,2,1,40,0,1
99058,-100,4,2,1,50,0,1
99458,-100,4,2,1,60,0,0
99758,-100,4,2,1,5,0,0
99858,-100,4,2,1,60,0,0
100558,-100,4,2,1,5,0,0
100658,-100,4,2,1,60,0,0
102958,-100,4,2,1,5,0,0
103058,-100,4,2,1,60,0,0
103758,-100,4,2,1,5,0,0
103858,-100,4,2,1,60,0,0
105458,-100,4,2,1,50,0,0
105858,-100,4,2,1,60,0,0
106158,-100,4,2,1,5,0,0
106258,-100,4,2,1,60,0,0
107358,-100,4,2,1,5,0,0
107458,-100,4,2,1,60,0,0
109058,-100,4,2,1,40,0,0
111458,-100,4,2,1,50,0,0
111758,-100,4,2,1,5,0,0
111858,-100,4,2,1,50,0,0
112258,-100,4,2,1,60,0,0
112558,-100,4,2,1,5,0,0
112658,-100,4,2,1,60,0,0
113758,-100,4,2,1,5,0,0
113858,-100,4,2,1,60,0,0
114958,-100,4,2,1,5,0,0
115058,-100,4,2,1,60,0,0
115758,-100,4,2,1,5,0,0
115858,-100,4,2,1,60,0,0
116958,-100,4,2,1,5,0,0
117058,-100,4,2,1,60,0,0
118158,-100,4,2,1,5,0,0
118258,-100,4,2,1,60,0,0
118958,-100,4,2,1,5,0,0
119058,-100,4,2,1,60,0,0
120158,-100,4,2,1,5,0,0
120258,-100,4,2,1,60,0,0
121358,-100,4,2,1,5,0,0
121458,-100,4,2,1,60,0,0
122158,-100,4,2,1,5,0,0
122258,-100,4,2,1,60,0,0
123358,-100,4,2,1,5,0,0
123458,-100,4,2,1,60,0,0
124558,-100,4,2,1,5,0,0
124658,-100,4,2,1,60,0,0
127758,-100,4,2,1,5,0,0
127858,-100,4,2,1,60,0,0
128558,-100,4,2,1,5,0,0
128658,-100,4,2,1,60,0,0
129758,-100,4,2,1,5,0,0
129858,-100,4,2,1,60,0,0
130958,-100,4,2,1,5,0,0
131058,-100,4,2,1,60,0,0
134958,-100,4,2,1,5,0,0
135058,-100,4,2,1,60,0,0
136158,-100,4,2,1,5,0,0
136258,-100,4,2,1,60,0,0
137358,-100,4,2,1,5,0,0
137458,-100,4,2,1,60,0,0
143058,-100,4,2,1,40,0,0
143358,-100,4,2,1,5,0,0
143458,-100,4,2,1,50,0,0
143858,-100,4,2,1,60,0,0
144258,-100,4,2,1,70,0,0

[Colours]
Combo1 : 255,98,98
Combo2 : 133,133,133
Combo3 : 191,191,191

[HitObjects]
448,291,258,6,0,B|485:280|485:280|484:187,1,126,2|2,3:2|0:0,0:0:0:0:
373,134,1058,2,0,P|365:107|378:66,2,63,8|0|0,0:0|0:0|3:0,0:0:0:0:
485,192,1858,2,0,B|485:279|485:279|448:290,1,126,2|0,0:0|3:0,0:0:0:0:
403,332,2458,1,2,0:0:0:0:
403,332,2658,1,0,0:0:0:0:
256,192,6458,12,0,8058,0:0:0:0:
22,16,9858,6,0,B|59:27|59:27|58:120,1,126,2|2,3:2|0:0,0:0:0:0:
102,159,10458,1,2,0:0:0:0:
102,159,10658,2,0,P|94:186|109:228,1,63,8|2,0:0|0:2,0:0:0:0:
144,266,11058,1,2,3:2:0:0:
50,349,11458,6,0,B|80:328|105:346|128:363|187:346,1,126,2|0,0:0|3:2,0:0:0:0:
227,318,12058,1,2,0:0:0:0:
227,318,12258,1,8,0:0:0:0:
344,362,12658,2,0,P|379:354|411:368,1,63,2|2,0:0|3:2,0:0:0:0:
444,314,13058,6,0,P|416:264|456:202,1,126,2|2,3:2|0:0,0:0:0:0:
489,162,13658,1,2,0:0:0:0:
489,162,13858,2,0,P|476:133|495:102,1,63,8|2,0:0|0:2,0:0:0:0:
447,58,14258,1,2,3:2:0:0:
342,128,14658,2,0,L|281:114,1,63,2|0,0:0|0:0,0:0:0:0:
244,165,15058,2,0,L|183:179,1,63,0|2,3:0|0:0,0:0:0:0:
123,156,15458,1,8,0:0:0:0:
105,31,15858,2,0,P|75:39|38:26,1,63,2|2,0:0|3:0,0:0:0:0:
9,73,16258,6,0,B|24:111|8:136|-1:158|19:203,1,126,2|2,3:2|0:0,0:0:0:0:
54,246,16858,1,2,0:0:0:0:
54,246,17058,2,0,P|37:286|8:299,1,63,8|2,0:0|0:2,0:0:0:0:
23,358,17458,1,2,3:2:0:0:
142,317,17858,6,0,B|214:277|214:277|267:310,1,126,2|0,0:0|3:0,0:0:0:0:
297,342,18458,1,2,0:0:0:0:
297,342,18658,2,0,B|330:363|330:363|416:317,1,126,8|2,0:0|0:0,0:0:0:0:
485,223,19458,6,0,P|457:166|494:112,1,126,2|2,3:2|0:0,0:0:0:0:
439,73,20058,1,2,0:0:0:0:
439,73,20258,2,0,P|398:80|376:71,1,63,8|2,0:0|0:2,0:0:0:0:
337,25,20658,1,2,3:2:0:0:
254,120,21058,2,0,L|272:185,1,63,2|0,0:0|0:0,0:0:0:0:
213,206,21458,2,0,L|195:271,1,63,0|2,3:0|0:0,0:0:0:0:
238,313,21858,2,0,B|166:302|190:350|123:351,1,126,8|2,0:0|0:0,0:0:0:0:
18,300,22658,6,0,P|9:221|-2:167,1,126,2|2,0:0|0:0,0:0:0:0:
43,129,23258,1,0,3:0:0:0:
43,129,23458,2,0,P|46:93|52:62,2,63,10|2|2,0:0|3:2|3:2,0:0:0:0:
147,199,24258,2,0,P|184:188|219:183,1,63,2|0,0:0|0:0,0:0:0:0:
256,144,24658,2,0,P|283:153|317:158,1,63,2|0,3:2|0:0,0:0:0:0:
377,139,25058,1,10,0:0:0:0:
457,235,25458,2,0,P|435:269|442:306,1,63,0|2,0:0|3:0,0:0:0:0:
460,348,25858,6,0,B|390:319|397:375|328:350,1,126,2|2,3:2|0:0,0:0:0:0:
251,262,26658,2,0,P|232:306|219:338,1,63,10|2,0:0|3:2,0:0:0:0:
171,351,27058,2,0,P|165:313|143:202,1,126,2|2,3:2|0:0,0:0:0:0:
118,171,27658,1,0,0:0:0:0:
118,171,27858,2,0,P|78:191|41:184,1,63,2|0,3:0|0:0,0:0:0:0:
3,163,28258,1,10,0:0:0:0:
47,45,28658,2,0,P|78:47|104:64,1,63,2|0,0:0|3:0,0:0:0:0:
160,74,29058,6,0,B|220:89|219:46|286:74,1,126,2|2,3:2|0:0,0:0:0:0:
350,72,29658,1,0,3:0:0:0:
350,72,29858,2,0,P|369:42|366:5,2,63,10|2|2,0:0|3:2|3:2,0:0:0:0:
453,142,30658,2,0,P|463:176|465:214,1,63,2|2,0:0|0:0,0:0:0:0:
432,257,31058,2,0,P|417:290|412:320,1,63,0|2,3:0|0:0,0:0:0:0:
456,361,31458,1,10,0:0:0:0:
330,348,31858,2,0,P|290:342|257:354,1,63,0|2,0:0|3:2,0:0:0:0:
212,315,32258,6,0,P|141:328|81:338,1,126,2|2,3:2|0:0,0:0:0:0:
32,307,32858,1,0,3:0:0:0:
32,307,33058,2,0,P|29:260|41:228,1,63,10|2,0:0|3:2,0:0:0:0:
65,190,33458,1,2,3:2:0:0:
21,71,33858,2,0,P|57:63|108:53,1,63,2|0,0:0|0:0,0:0:0:0:
139,85,34258,2,0,P|169:91|200:98,1,63,0|2,3:0|0:0,0:0:0:0:
257,69,34658,1,10,0:0:0:0:
363,130,35058,1,2,0:0:0:0:
467,24,35458,6,0,P|483:113|503:220,1,189,2|2,3:2|3:2,0:0:0:0:
504,272,36258,2,0,P|485:298|445:304,1,63,8|0,0:0|0:0,0:0:0:0:
396,283,36658,1,2,3:2:0:0:
281,336,37058,2,0,L|213:354,1,63
179,303,37458,2,0,L|118:286,1,63,2|0,3:2|0:0,0:0:0:0:
61,314,37858,2,0,P|73:352|71:385,2,63,8|2|2,0:2|3:2|3:2,0:0:0:0:
6,200,38658,6,0,B|61:228|104:171|72:169|115:117|172:147,1,189,2|2,3:2|3:2,0:0:0:0:
230,148,39458,2,0,P|197:90|215:31,1,126,8|2,0:0|3:2,0:0:0:0:
334,8,40258,2,0,L|399:16,1,63,0|0,0:0|0:0,0:0:0:0:
433,66,40658,2,0,L|496:54,1,63,2|0,3:2|0:0,0:0:0:0:
503,116,41058,2,0,P|492:160|485:191,1,63,8|2,0:0|3:2,0:0:0:0:
478,239,41458,1,2,3:2:0:0:
393,334,41858,6,0,B|317:220|317:220|247:228,1,189,2|2,3:2|3:2,0:0:0:0:
221,270,42658,2,0,P|188:293|153:277,1,63,8|0,0:0|0:0,0:0:0:0:
108,267,43058,1,2,3:2:0:0:
17,179,43458,2,0,P|26:135|32:101,1,63,0|0,0:0|0:0,0:0:0:0:
66,66,43858,2,0,P|39:49|8:24,2,63,2|0|8,3:2|0:0|0:0,0:0:0:0:
181,117,44658,1,2,3:2:0:0:
238,92,44858,1,0,0:0:0:0:
296,69,45058,6,0,B|334:44|374:56|415:95|366:126|411:163|461:161,1,189,2|2,3:2|3:2,0:0:0:0:
496,155,45858,2,0,P|485:186|484:231,1,63,8|0,0:0|0:0,0:0:0:0:
482,278,46258,1,2,3:2:0:0:
372,340,46658,1,0,0:0:0:0:
18,177,47858,1,0,0:0:0:0:
3,60,48258,6,0,P|39:35|116:49,1,126,2|0,3:2|0:0,0:0:0:0:
220,120,49058,2,0,P|231:74|239:43,1,63,10|0,0:2|3:0,0:0:0:0:
285,21,49458,2,0,P|346:28|416:37,1,126,2|0,3:2|0:0,0:0:0:0:
501,139,50258,1,2,3:2:0:0:
501,139,50458,1,0,0:0:0:0:
501,139,50658,1,10,0:2:0:0:
396,209,51058,1,0,0:0:0:0:
424,331,51458,6,0,P|363:306|286:335,1,126,2|0,3:2|0:0,0:0:0:0:
188,363,52258,2,0,P|183:311|178:287,1,63,10|0,0:2|3:0,0:0:0:0:
142,250,52658,1,2,3:2:0:0:
33,313,53058,1,0,0:2:0:0:
9,189,53458,2,0,P|14:137|19:113,1,63,2|0,3:2|0:0,0:0:0:0:
55,76,53858,1,10,0:2:0:0:
302,29,54658,6,0,P|354:33|400:97,1,126,2|0,3:2|0:0,0:0:0:0:
500,160,55458,2,0,P|500:220|508:251,1,63,10|0,0:2|3:0,0:0:0:0:
446,245,55858,2,0,P|423:285|402:366,1,126,2|0,3:2|0:0,0:0:0:0:
294,296,56658,2,0,P|234:302|211:309,1,63,2|0,3:2|0:0,0:0:0:0:
202,358,57058,2,0,P|171:352|139:351,1,63,8|2,0:0|3:2,0:0:0:0:
76,357,57458,1,0,0:0:0:0:
7,251,57858,6,0,P|-3:208|56:143,1,126,2|0,3:2|0:0,0:0:0:0:
132,57,58658,2,0,P|187:67|221:74,1,63,10|0,0:2|3:0,0:0:0:0:
254,88,59058,2,0,P|324:74|386:63,1,126,2|0,3:2|0:0,0:0:0:0:
491,141,59858,1,2,3:2:0:0:
491,141,60058,1,0,0:0:0:0:
491,141,60258,1,0,0:0:0:0:
378,366,61058,6,0,B|341:355|341:355|342:262,1,126,2|2,3:2|0:0,0:0:0:0:
388,225,61658,1,2,3:2:0:0:
388,225,61858,2,0,P|396:198|381:156,1,63,8|2,0:0|3:2,0:0:0:0:
348,115,62258,1,2,3:2:0:0:
440,29,62658,6,0,B|410:50|385:32|362:15|303:32,1,126,2|0,0:2|3:2,0:0:0:0:
267,64,63258,1,2,0:2:0:0:
267,64,63458,1,10,0:2:0:0:
148,20,63858,2,0,P|113:28|81:14,1,63,2|0,0:2|3:0,0:0:0:0:
50,70,64258,6,0,P|78:120|38:182,1,126,2|2,3:2|0:2,0:0:0:0:
13,230,64858,1,2,3:2:0:0:
13,230,65058,2,0,P|26:259|7:290,1,63,8|2,0:0|3:2,0:0:0:0:
60,327,65458,1,2,3:2:0:0:
168,262,65858,2,0,L|229:276,1,63,2|0,0:2|0:0,0:0:0:0:
266,224,66258,2,0,L|327:210,1,63,0|2,3:0|0:2,0:0:0:0:
380,243,66658,1,10,0:2:0:0:
409,365,67058,2,0,P|439:357|476:370,1,63,2|0,0:2|3:0,0:0:0:0:
506,314,67458,6,0,B|491:276|507:251|516:229|496:184,1,126,2|2,3:2|0:2,0:0:0:0:
465,143,68058,1,2,3:2:0:0:
465,143,68258,2,0,P|482:103|511:90,1,63,8|2,0:0|3:2,0:0:0:0:
502,30,68658,1,2,3:2:0:0:
370,67,69058,6,0,B|298:107|298:107|245:74,1,126,2|0,0:2|3:0,0:0:0:0:
215,42,69658,1,2,0:2:0:0:
215,42,69858,2,0,B|182:21|182:21|96:67,1,126,10|2,0:2|0:2,0:0:0:0:
55,100,70458,1,0,3:0:0:0:
27,161,70658,6,0,P|55:218|18:272,1,126,2|2,3:2|0:2,0:0:0:0:
73,311,71258,1,2,3:2:0:0:
73,311,71458,2,0,P|114:304|136:313,1,63,8|2,0:0|3:2,0:0:0:0:
175,359,71858,1,2,3:2:0:0:
258,264,72258,2,0,L|240:199,1,63,2|0,0:2|0:0,0:0:0:0:
299,178,72658,2,0,L|317:113,1,63,0|2,3:0|0:2,0:0:0:0:
274,71,73058,2,0,B|349:90|322:40|389:33,1,126,10|2,0:2|0:2,0:0:0:0:
444,59,73658,1,0,3:0:0:0:
494,84,73858,6,0,P|503:163|514:217,1,126,2|2,3:2|0:2,0:0:0:0:
469,255,74458,1,0,3:0:0:0:
469,255,74658,2,0,P|468:290|456:330,2,63,10|2|2,0:2|3:2|3:2,0:0:0:0:
365,185,75458,2,0,P|328:196|293:201,1,63,2|0,0:2|0:0,0:0:0:0:
256,240,75858,2,0,P|229:231|195:226,1,63,2|0,3:2|0:0,0:0:0:0:
135,245,76258,1,10,0:2:0:0:
55,149,76658,2,0,P|77:115|70:78,1,63,0|0,0:0|3:0,0:0:0:0:
52,36,77058,6,0,B|122:65|115:9|184:34,1,126,2|2,3:2|0:0,0:0:0:0:
261,122,77858,2,0,P|280:78|293:46,1,63,10|2,0:2|3:2,0:0:0:0:
341,33,78258,2,0,P|347:71|369:182,1,126,2|2,3:2|0:2,0:0:0:0:
394,213,78858,1,0,0:0:0:0:
394,213,79058,2,0,P|438:195|471:200,1,63,0|2,3:0|2:0,0:0:0:0:
511,220,79458,1,10,0:2:0:0:
452,331,79858,2,0,P|411:329|380:309,1,63,2|0,0:2|3:0,0:0:0:0:
339,283,80258,6,0,B|276:279|290:331|223:319,1,126,2|2,3:2|0:2,0:0:0:0:
164,316,80858,1,0,3:0:0:0:
164,316,81058,2,0,P|146:345|148:383,2,63,10|2|2,0:2|3:2|3:2,0:0:0:0:
59,242,81858,2,0,P|49:208|47:170,1,63,2|0,0:2|0:0,0:0:0:0:
80,127,82258,2,0,P|95:94|100:64,1,63,0|2,3:2|0:2,0:0:0:0:
56,23,82658,1,10,0:2:0:0:
182,36,83058,2,0,P|222:42|255:30,1,63,0|0,0:0|3:0,0:0:0:0:
297,67,83458,6,0,P|368:54|428:44,1,126,2|2,3:2|0:2,0:0:0:0:
480,77,84058,1,0,3:0:0:0:
480,77,84258,2,0,P|483:124|471:156,1,63,10|2,0:2|3:2,0:0:0:0:
447,194,84658,1,2,3:2:0:0:
491,313,85058,2,0,P|455:321|404:331,1,63,2|0,0:2|0:0,0:0:0:0:
373,299,85458,2,0,P|343:293|312:286,1,63,0|2,3:0|0:2,0:0:0:0:
255,315,85858,1,10,0:2:0:0:
154,241,86258,1,0,0:0:0:0:
104,279,86458,1,0,0:0:0:0:
53,317,86658,6,0,P|2:248|162:41,1,378,2|2,3:2|3:2,0:0:0:0:
262,73,88258,2,0,P|320:63|416:49,1,126,0|2,0:0|3:2,0:0:0:0:
445,75,88858,1,0,0:0:0:0:
445,75,89058,2,0,P|457:132|383:157,1,126,8|2,0:0|3:2,0:0:0:0:
302,236,89858,6,0,P|235:208|177:226,1,126,2|0,3:2|0:0,0:0:0:0:
128,247,90458,1,2,3:2:0:0:
77,209,90658,2,0,P|72:164|68:139,2,63,8|0|2,0:0|0:0|3:2,0:0:0:0:
34,327,91458,2,0,P|69:337|108:348,1,63,0|0,0:0|0:0,0:0:0:0:
156,330,91858,2,0,P|186:321|216:312,1,63,2|0,3:2|0:0,0:0:0:0:
272,342,92258,1,8,0:0:0:0:
389,297,92658,2,0,P|407:327|425:361,1,63,2|0,3:2|0:0,0:0:0:0:
480,330,93058,6,0,P|487:245|493:186,1,126,2|0,3:2|0:0,0:0:0:0:
454,152,93658,1,2,3:2:0:0:
502,111,93858,1,8,0:0:0:0:
424,11,94258,2,0,P|386:24|365:56,1,63,2|0,3:2|0:0,0:0:0:0:
348,99,94658,2,0,P|285:91|219:86,1,126,0|2,0:0|3:2,0:0:0:0:
164,111,95258,1,0,0:0:0:0:
164,111,95458,1,8,0:0:0:0:
54,48,95858,1,2,3:2:0:0:
0,162,96258,6,0,P|18:224|36:312,1,126,2|0,3:2|0:0,0:0:0:0:
24,346,96858,1,2,3:2:0:0:
82,370,97058,1,8,0:0:0:0:
180,291,97458,2,0,P|223:279|262:289,1,63,2|0,3:2|0:0,0:0:0:0:
298,306,97858,1,0,0:0:0:0:
478,60,99058,6,0,P|464:109|457:137,1,63,0|0,0:0|0:0,0:0:0:0:
417,166,99458,2,0,P|394:100|362:28,1,126,2|0,3:2|0:0,0:0:0:0:
317,27,100058,1,0,3:0:0:0:
317,27,100258,1,10,0:2:0:0:
242,128,100658,2,0,P|204:122|171:108,1,63,2|0,3:2|0:0,0:0:0:0:
137,68,101058,2,0,P|76:81|38:138,1,126,2|2,0:2|3:2,0:0:0:0:
20,190,101658,1,0,0:0:0:0:
20,190,101858,2,0,P|37:256|45:320,1,126,10|2,0:2|0:2,0:0:0:0:
166,346,102658,5,2,3:2:0:0:
246,248,103058,1,0,0:0:0:0:
307,357,103458,1,10,0:2:0:0:
387,259,103858,2,0,P|423:255|472:251,1,63,2|0,3:2|0:0,0:0:0:0:
505,283,104258,2,0,P|475:226|495:163,1,126,2|2,0:2|3:2,0:0:0:0:
510,109,104858,1,0,0:0:0:0:
510,109,105058,1,10,0:2:0:0:
388,141,105458,2,0,P|354:149|319:135,1,63,0|0,0:0|0:0,0:0:0:0:
286,93,105858,6,0,P|203:102|142:110,1,126,2|0,3:2|0:0,0:0:0:0:
36,85,106658,2,0,P|44:30|47:15,2,63,8|0|2,0:0|3:0|3:2,0:0:0:0:
14,209,107458,2,0,P|49:207|75:290,1,126,0|2,0:0|3:2,0:0:0:0:
50,334,108058,1,0,0:0:0:0:
50,334,108258,1,8,0:0:0:0:
175,348,108658,2,0,P|216:340|241:333,1,63,0|2,0:0|3:2,0:0:0:0:
284,293,109058,5,0,0:0:0:0:
385,367,109458,1,0,0:0:0:0:
465,270,109858,2,0,P|474:220|479:196,1,63,0|0,0:0|0:0,0:0:0:0:
437,158,110258,1,0,0:0:0:0:
493,45,110658,1,0,0:0:0:0:
368,63,111058,2,0,P|314:56|279:49,1,63,0|0,0:0|0:0,0:0:0:0:
244,36,111458,1,0,0:0:0:0:
147,117,111858,2,0,P|105:111|73:106,1,63,0|0,0:0|0:0,0:0:0:0:
33,144,112258,6,0,B|43:190|43:190|83:207|90:258,1,126,2|2,3:2|0:2,0:0:0:0:
71,306,112858,1,2,3:2:0:0:
71,306,113058,2,0,P|123:319|203:345,1,126,8|2,0:0|3:2,0:0:0:0:
320,340,113858,2,0,P|379:321|441:306,1,126,2|0,0:2|3:0,0:0:0:0:
421,246,114458,1,2,0:2:0:0:
421,246,114658,2,0,B|427:204|469:190|469:190|479:144,1,126,8|2,0:0|0:2,0:0:0:0:
443,92,115258,1,0,3:0:0:0:
443,92,115458,5,2,3:2:0:0:
325,138,115858,2,0,P|288:134|254:134,1,63,2|2,0:2|3:2,0:0:0:0:
213,94,116258,2,0,P|181:94|150:98,1,63,8|2,0:0|3:2,0:0:0:0:
119,153,116658,1,2,3:2:0:0:
11,86,117058,2,0,P|-1:49|12:22,2,63,2|0|0,0:2|0:0|3:0,0:0:0:0:
119,153,117858,1,10,0:2:0:0:
37,249,118258,2,0,P|54:284|42:315,1,63,0|0,0:0|3:0,0:0:0:0:
96,346,118658,6,0,B|128:314|128:314|154:344|203:345,1,126,2|2,3:2|0:2,0:0:0:0:
256,323,119258,1,2,3:2:0:0:
314,345,119458,2,0,B|352:348|383:313|383:313|416:345,1,126,8|2,0:0|3:2,0:0:0:0:
476,235,120258,1,2,0:2:0:0:
370,166,120658,2,0,P|382:103|391:77,1,63,0|2,3:2|0:2,0:0:0:0:
399,43,121058,2,0,P|311:60|256:73,1,126,10|2,0:2|0:2,0:0:0:0:
216,90,121658,1,0,3:0:0:0:
216,90,121858,5,2,3:2:0:0:
97,46,122258,2,0,P|91:96|89:114,1,63,2|2,0:2|3:2,0:0:0:0:
32,134,122658,2,0,P|38:184|40:202,1,63,8|2,0:0|3:2,0:0:0:0:
82,242,123058,1,2,3:2:0:0:
11,346,123458,2,0,P|57:356|95:363,1,63,2|0,0:2|0:0,0:0:0:0:
131,336,123858,2,0,P|192:324|265:313,1,126,0|10,3:0|0:2,0:0:0:0:
373,358,124658,1,2,2:0:0:0:
424,321,124858,1,0,3:0:0:0:
469,277,125058,6,0,P|438:231|472:173,1,126,2|2,2:0|0:2,0:0:0:0:
424,130,125658,1,0,3:0:0:0:
424,130,125858,2,0,P|434:87|412:51,2,63,10|2|2,0:2|3:2|3:2,0:0:0:0:
305,172,126658,2,0,L|237:161,1,63,2|0,0:2|0:0,0:0:0:0:
186,132,127058,2,0,L|123:142,1,63,2|0,3:2|0:0,0:0:0:0:
61,152,127458,1,10,0:2:0:0:
27,273,127858,2,0,P|35:310|12:350,1,63,0|0,0:0|3:2,0:0:0:0:
79,368,128258,5,2,3:2:0:0:
186,288,128658,2,0,P|239:282|321:270,1,126,2|10,0:2|0:2,0:0:0:0:
366,301,129258,2,0,P|357:348|353:368,1,63,2|2,3:2|3:2,0:0:0:0:
472,319,129858,2,0,L|486:249,1,63,2|0,0:2|0:0,0:0:0:0:
447,206,130258,2,0,P|438:132|434:72,1,126,0|10,3:2|0:2,0:0:0:0:
320,25,131058,2,0,P|282:46|256:40,1,63,0|0,0:2|3:0,0:0:0:0:
203,26,131458,6,0,B|139:29|154:73|86:64,1,126,2|2,3:2|0:2,0:0:0:0:
24,55,132058,1,0,3:0:0:0:
24,55,132258,2,0,P|29:92|13:123,1,63,10|2,0:2|3:2,0:0:0:0:
63,159,132658,1,2,3:2:0:0:
15,275,133058,2,0,P|45:266|78:279,1,63,2|0,0:2|0:0,0:0:0:0:
129,306,133458,2,0,P|158:315|188:306,1,63,0|2,3:0|0:0,0:0:0:0:
228,258,133858,1,10,0:2:0:0:
327,334,134258,2,0,P|375:325|397:320,1,63,0|0,0:2|3:2,0:0:0:0:
444,351,134658,6,0,P|464:286|481:222,1,126,2|2,3:2|0:2,0:0:0:0:
430,190,135258,2,0,P|421:138|418:115,1,63,0|10,3:0|0:2,0:0:0:0:
467,87,135658,2,0,P|476:35|479:12,1,63,2|2,3:2|3:2,0:0:0:0:
351,37,136258,2,0,P|295:42|279:43,1,63
225,46,136658,1,0,3:0:0:0:
132,135,137058,1,10,0:2:0:0:
29,48,137458,2,0,P|-5:93|1:167,1,126
256,192,142258,12,0,144258,3:0:0:0:
