osu file format v14

[General]
AudioFilename: audio.mp3
AudioLeadIn: 0
PreviewTime: 61058
Countdown: 0
SampleSet: Soft
StackLeniency: 0.2
Mode: 0
LetterboxInBreaks: 0
WidescreenStoryboard: 0

[Editor]
Bookmarks: 258,9858,22658,35458,48258,61058,73858,86658,99458,108958,112258,125058,137858
DistanceSpacing: 1
BeatDivisor: 8
GridSize: 32
TimelineZoom: 2.100005

[Metadata]
Title:Throw A Fit
TitleUnicode:Throw A Fit
Artist:Tinashe
ArtistUnicode:Tinashe
Creator:C00L
Version:Hitting the Roof
Source:
Tags:hip hop pop english trap cool hannody mkguh mk cd
BeatmapID:2885207
BeatmapSetID:1398260

[Difficulty]
HPDrainRate:4.5
CircleSize:4
OverallDifficulty:8.2
ApproachRate:8.2
SliderMultiplier:2.6
SliderTickRate:1

[Events]
//Background and Video events
0,0,"Throw_A_Fit.jpg",0,0
//Break Periods
2,138058,142338
//Storyboard Layer 0 (Background)
//Storyboard Layer 1 (Fail)
//Storyboard Layer 2 (Pass)
//Storyboard Layer 3 (Foreground)
//Storyboard Layer 4 (Overlay)
//Storyboard Sound Samples

[TimingPoints]
258,400,4,2,1,60,1,0
258,-100,4,2,1,60,0,0
2658,-200,4,2,1,30,0,0
2958,-200,4,2,1,5,0,0
3058,-200,4,2,1,25,0,0
3358,-200,4,2,1,5,0,0
3458,-200,4,2,1,20,0,0
7658,-125,4,2,1,40,0,0
8458,-250,4,2,1,30,0,0
9508,-142.857142857143,4,2,1,40,0,0
9858,-66.6666666666667,4,2,1,60,0,0
10158,-66.6666666666667,4,2,1,5,0,0
10258,-100,4,2,1,60,0,0
11058,-66.6666666666667,4,2,1,60,0,0
11358,-66.6666666666667,4,2,1,5,0,0
11458,-100,4,2,1,60,0,0
12258,-66.6666666666667,4,2,1,60,0,0
12558,-66.6666666666667,4,2,1,5,0,0
12658,-66.6666666666667,4,2,1,60,0,0
13058,-500,4,2,1,60,0,0
13358,-500,4,2,1,5,0,0
13458,-100,4,2,1,60,0,0
14258,-66.6666666666667,4,2,1,60,0,0
14558,-66.6666666666667,4,2,1,5,0,0
14658,-100,4,2,1,60,0,0
15458,-66.6666666666667,4,2,1,60,0,0
15758,-66.6666666666667,4,2,1,5,0,0
15858,-125,4,2,1,60,0,0
16258,-66.6666666666667,4,2,1,60,0,0
16558,-66.6666666666667,4,2,1,5,0,0
16658,-100,4,2,1,60,0,0
17458,-66.6666666666667,4,2,1,60,0,0
17758,-66.6666666666667,4,2,1,5,0,0
17858,-100,4,2,1,60,0,0
18658,-66.6666666666667,4,2,1,60,0,0
18958,-66.6666666666667,4,2,1,5,0,0
19058,-66.6666666666667,4,2,1,60,0,0
19458,-500,4,2,1,60,0,0
19758,-500,4,2,1,5,0,0
19858,-100,4,2,1,60,0,0
20658,-66.6666666666667,4,2,1,60,0,0
20958,-66.6666666666667,4,2,1,5,0,0
21058,-100,4,2,1,60,0,0
21858,-66.6666666666667,4,2,1,60,0,0
22158,-66.6666666666667,4,2,1,5,0,0
22258,-100,4,2,1,60,0,0
22658,-100,4,2,1,60,0,0
24258,-83.3333333333333,4,2,1,60,0,0
25358,-83.3333333333333,4,2,1,5,0,0
25458,-83.3333333333333,4,2,1,60,0,0
25858,-500,4,2,1,60,0,0
26158,-500,4,2,1,5,0,0
26258,-100,4,2,1,60,0,0
27058,-62.5,4,2,1,60,0,0
27358,-62.5,4,2,1,5,0,0
27458,-100,4,2,1,60,0,0
28258,-62.5,4,2,1,60,0,0
28558,-62.5,4,2,1,5,0,0
28658,-100,4,2,1,60,0,0
29458,-83.3333333333333,4,2,1,60,0,0
30558,-83.3333333333333,4,2,1,5,0,0
30658,-100,4,2,1,60,0,0
32258,-500,4,2,1,60,0,0
32558,-500,4,2,1,5,0,0
32658,-100,4,2,1,60,0,0
33458,-76.9230769230769,4,2,1,60,0,0
33758,-76.9230769230769,4,2,1,5,0,0
33858,-100,4,2,1,60,0,0
34658,-76.9230769230769,4,2,1,60,0,0
34958,-76.9230769230769,4,2,1,5,0,0
35058,-100,4,2,1,50,0,0
35458,-166.666666666667,4,2,1,75,0,1
38058,-83.3333333333333,4,2,1,75,0,1
38658,-166.666666666667,4,2,1,75,0,1
41258,-83.3333333333334,4,2,1,75,0,1
41858,-166.666666666667,4,2,1,75,0,1
44458,-83.3333333333334,4,2,1,75,0,1
45058,-166.666666666667,4,2,1,75,0,1
46658,-166.666666666667,4,2,1,40,0,0
47858,-166.666666666667,4,2,1,50,0,0
48258,-83.3333333333333,4,2,1,60,0,0
48558,-83.3333333333333,4,2,1,5,0,0
48658,-83.3333333333333,4,2,1,60,0,0
49758,-83.3333333333333,4,2,1,5,0,0
49858,-83.3333333333333,4,2,1,60,0,0
50958,-83.3333333333333,4,2,1,5,0,0
51058,-83.3333333333333,4,2,1,60,0,0
51758,-83.3333333333333,4,2,1,5,0,0
51858,-83.3333333333333,4,2,1,60,0,0
52958,-83.3333333333333,4,2,1,5,0,0
53058,-83.3333333333333,4,2,1,60,0,0
54158,-83.3333333333333,4,2,1,5,0,0
54258,-83.3333333333333,4,2,1,60,0,0
54958,-83.3333333333333,4,2,1,5,0,0
55058,-83.3333333333333,4,2,1,60,0,0
56158,-83.3333333333333,4,2,1,5,0,0
56258,-83.3333333333333,4,2,1,60,0,0
58158,-83.3333333333333,4,2,1,5,0,0
58258,-83.3333333333333,4,2,1,60,0,0
59358,-83.3333333333333,4,2,1,5,0,0
59458,-83.3333333333333,4,2,1,60,0,0
60258,-142.857142857143,4,2,1,60,0,0
60558,-142.857142857143,4,2,1,5,0,0
60658,-142.857142857143,4,2,1,60,0,0
61058,-66.6666666666667,4,2,1,60,0,0
61358,-66.6666666666667,4,2,1,5,0,0
61458,-100,4,2,1,60,0,0
62258,-66.6666666666667,4,2,1,60,0,0
62558,-66.6666666666667,4,2,1,5,0,0
62658,-100,4,2,1,60,0,0
63458,-66.6666666666667,4,2,1,60,0,0
63758,-66.6666666666667,4,2,1,5,0,0
63858,-100,4,2,1,60,0,0
64258,-500,4,2,1,60,0,0
64558,-500,4,2,1,5,0,0
64658,-100,4,2,1,60,0,0
65458,-66.6666666666667,4,2,1,60,0,0
65758,-66.6666666666667,4,2,1,5,0,0
65858,-100,4,2,1,60,0,0
66658,-66.6666666666667,4,2,1,60,0,0
66958,-66.6666666666667,4,2,1,5,0,0
67058,-100,4,2,1,60,0,0
67458,-66.6666666666667,4,2,1,60,0,0
67758,-66.6666666666667,4,2,1,5,0,0
67858,-100,4,2,1,60,0,0
68658,-66.6666666666667,4,2,1,60,0,0
68958,-66.6666666666667,4,2,1,5,0,0
69058,-100,4,2,1,60,0,0
69858,-66.6666666666667,4,2,1,60,0,0
70158,-66.6666666666667,4,2,1,5,0,0
70258,-66.6666666666667,4,2,1,60,0,0
70658,-500,4,2,1,60,0,0
70958,-500,4,2,1,5,0,0
71058,-100,4,2,1,60,0,0
71858,-66.6666666666667,4,2,1,60,0,0
72158,-66.6666666666667,4,2,1,5,0,0
72258,-100,4,2,1,60,0,0
73058,-66.6666666666667,4,2,1,60,0,0
73358,-66.6666666666667,4,2,1,5,0,0
73458,-100,4,2,1,60,0,0
73858,-100,4,2,1,60,0,0
75458,-83.3333333333333,4,2,1,60,0,0
76558,-83.3333333333333,4,2,1,5,0,0
76658,-100,4,2,1,60,0,0
77058,-500,4,2,1,60,0,0
77358,-500,4,2,1,5,0,0
77458,-100,4,2,1,60,0,0
78258,-62.5,4,2,1,60,0,0
78558,-62.5,4,2,1,5,0,0
78658,-100,4,2,1,60,0,0
79458,-62.5,4,2,1,60,0,0
79758,-62.5,4,2,1,5,0,0
79858,-100,4,2,1,60,0,0
80658,-83.3333333333333,4,2,1,60,0,0
81858,-100,4,2,1,60,0,0
83458,-500,4,2,1,60,0,0
83758,-500,4,2,1,5,0,0
83858,-100,4,2,1,60,0,0
84658,-76.9230769230769,4,2,1,60,0,0
84958,-76.9230769230769,4,2,1,5,0,0
85058,-100,4,2,1,60,0,0
85858,-76.9230769230769,4,2,1,60,0,0
86158,-76.9230769230769,4,2,1,5,0,0
86258,-166.666666666667,4,2,1,60,0,0
86558,-166.666666666667,4,2,1,5,0,0
86658,-166.666666666667,4,2,1,75,0,1
89258,-83.3333333333334,4,2,1,75,0,1
89858,-166.666666666667,4,2,1,75,0,1
92458,-83.3333333333334,4,2,1,75,0,1
93058,-166.666666666667,4,2,1,75,0,1
95658,-83.3333333333334,4,2,1,75,0,1
96258,-166.666666666667,4,2,1,75,0,1
97858,-166.666666666667,4,2,1,40,0,0
99058,-166.666666666667,4,2,1,50,0,0
99458,-83.3333333333333,4,2,1,60,0,0
99758,-83.3333333333333,4,2,1,5,0,0
99858,-83.3333333333333,4,2,1,60,0,0
100558,-83.3333333333333,4,2,1,5,0,0
100658,-83.3333333333333,4,2,1,60,0,0
101858,-250,4,2,1,60,0,0
102658,-83.3333333333333,4,2,1,60,0,0
102958,-83.3333333333333,4,2,1,5,0,0
103058,-83.3333333333333,4,2,1,60,0,0
103758,-83.3333333333333,4,2,1,5,0,0
103858,-83.3333333333333,4,2,1,60,0,0
105458,-83.3333333333333,4,2,1,50,0,0
105858,-83.3333333333333,4,2,1,60,0,0
106158,-83.3333333333333,4,2,1,5,0,0
106258,-83.3333333333333,4,2,1,60,0,0
107358,-83.3333333333333,4,2,1,5,0,0
107458,-83.3333333333333,4,2,1,60,0,0
109058,-125,4,2,1,40,0,0
111458,-142.857142857143,4,2,1,50,0,0
111758,-142.857142857143,4,2,1,5,0,0
111858,-142.857142857143,4,2,1,50,0,0
112258,-66.6666666666667,4,2,1,60,0,0
112558,-66.6666666666667,4,2,1,5,0,0
112658,-100,4,2,1,60,0,0
113458,-66.6666666666667,4,2,1,60,0,0
113758,-66.6666666666667,4,2,1,5,0,0
113858,-100,4,2,1,60,0,0
114658,-66.6666666666667,4,2,1,60,0,0
114958,-66.6666666666667,4,2,1,5,0,0
115058,-100,4,2,1,60,0,0
115458,-500,4,2,1,60,0,0
115758,-500,4,2,1,5,0,0
115858,-100,4,2,1,60,0,0
116658,-66.6666666666667,4,2,1,60,0,0
116958,-66.6666666666667,4,2,1,5,0,0
117058,-100,4,2,1,60,0,0
117858,-66.6666666666667,4,2,1,60,0,0
118158,-66.6666666666667,4,2,1,5,0,0
118258,-100,4,2,1,60,0,0
118658,-66.6666666666667,4,2,1,60,0,0
118958,-66.6666666666667,4,2,1,5,0,0
119058,-100,4,2,1,60,0,0
119858,-66.6666666666667,4,2,1,60,0,0
120158,-66.6666666666667,4,2,1,5,0,0
120258,-100,4,2,1,60,0,0
121058,-66.6666666666667,4,2,1,60,0,0
121358,-66.6666666666667,4,2,1,5,0,0
121458,-66.6666666666667,4,2,1,60,0,0
121858,-500,4,2,1,60,0,0
122158,-500,4,2,1,5,0,0
122258,-100,4,2,1,60,0,0
123058,-66.6666666666667,4,2,1,60,0,0
123358,-66.6666666666667,4,2,1,5,0,0
123458,-100,4,2,1,60,0,0
124258,-66.6666666666667,4,2,1,60,0,0
124558,-66.6666666666667,4,2,1,5,0,0
124658,-100,4,2,1,60,0,0
125058,-100,4,2,1,60,0,0
126658,-83.3333333333333,4,2,1,60,0,0
127758,-83.3333333333333,4,2,1,5,0,0
127858,-100,4,2,1,60,0,0
128258,-500,4,2,1,60,0,0
128558,-500,4,2,1,5,0,0
128658,-100,4,2,1,60,0,0
129458,-62.5,4,2,1,60,0,0
129758,-62.5,4,2,1,5,0,0
129858,-100,4,2,1,60,0,0
130658,-62.5,4,2,1,60,0,0
130958,-62.5,4,2,1,5,0,0
131058,-100,4,2,1,60,0,0
131858,-83.3333333333333,4,2,1,60,0,0
133058,-100,4,2,1,60,0,0
134658,-500,4,2,1,60,0,0
134958,-500,4,2,1,5,0,0
135058,-100,4,2,1,60,0,0
135858,-76.9230769230769,4,2,1,60,0,0
136158,-76.9230769230769,4,2,1,5,0,0
136258,-100,4,2,1,60,0,0
137058,-76.9230769230769,4,2,1,60,0,0
137358,-76.9230769230769,4,2,1,5,0,0
137458,-166.666666666667,4,2,1,60,0,0
143058,-250,4,2,1,40,0,0
143358,-250,4,2,1,5,0,0
143458,-83.3333333333333,4,2,1,50,0,0
143858,-83.3333333333333,4,2,1,60,0,0
144258,-83.3333333333333,4,2,1,70,0,0

[Colours]
Combo1 : 255,98,98
Combo2 : 182,182,182
Combo3 : 228,228,228

[HitObjects]
27,286,258,6,0,P|154:312|283:308,1,260,2|0,3:2|0:0,0:0:0:0:
41,194,1058,1,0,0:0:0:0:
126,151,1258,1,2,0:0:0:0:
27,286,1458,6,0,P|154:312|283:308,1,260,2|0,3:2|0:0,0:0:0:0:
41,194,2258,1,2,3:2:0:0:
46,172,2458,1,2,0:2:0:0:
26,285,2658,6,0,P|79:300|134:309,1,97.5,0|0,0:0|0:0,0:0:0:0:
283,308,3058,6,0,P|229:312|173:312,1,97.5,0|0,0:0|0:0,0:0:0:0:
154,312,3458,1,0,0:0:0:0:
256,192,3558,12,0,7458,0:0:0:0:
69,296,7658,5,0,0:0:0:0:
67,315,7758,1,0,0:0:0:0:
65,335,7858,1,0,0:0:0:0:
65,335,8058,1,0,0:0:0:0:
103,218,8458,6,0,P|78:209|52:211,2,52,0|0|0,0:0|0:0|0:0,0:0:0:0:
157,286,9058,1,2,0:0:0:0:
308,242,9508,6,0,P|276:229|242:232,1,68.2499979171754,2|0,0:0|0:0,0:0:0:0:
384,310,9858,6,0,B|426:264|416:207|382:172|382:172|336:126|338:80|363:46,1,292.50001115799,2|0,3:2|0:0,0:0:0:0:
442,98,10258,5,2,0:0:0:0:
512,113,10458,1,2,0:0:0:0:
442,98,10658,5,8,0:0:0:0:
512,113,10858,1,2,0:2:0:0:
384,310,11058,6,0,B|426:264|416:207|382:172|382:172|336:126|338:80|363:46,1,292.50001115799,2|0,3:2|0:0,0:0:0:0:
289,4,11458,6,0,P|276:33|252:54,1,65,2|0,0:0|0:0,0:0:0:0:
272,132,11658,1,0,0:0:0:0:
171,43,11858,5,0,3:2:0:0:
101,58,12058,1,2,0:0:0:0:
363,46,12258,6,0,B|338:80|336:126|382:172|382:172|416:207|426:264|384:310,1,292.50001115799,8|0,0:0|0:0,0:0:0:0:
492,40,12658,5,2,0:0:0:0:
492,40,12858,1,2,3:2:0:0:
316,243,13058,6,0,L|277:239,1,39,2|0,3:2|0:0,0:0:0:0:
263,161,13458,5,2,0:0:0:0:
193,156,13658,1,2,0:0:0:0:
270,83,13858,5,8,0:0:0:0:
200,78,14058,1,2,0:2:0:0:
316,243,14258,6,0,B|242:236|242:236|213:255|213:255|158:250|158:250|133:230|133:230|22:220,1,292.50001115799,2|0,3:2|0:0,0:0:0:0:
91,146,14658,5,2,0:0:0:0:
91,146,14858,1,0,0:0:0:0:
193,156,15058,5,0,3:0:0:0:
200,78,15258,1,2,0:0:0:0:
37,221,15458,6,0,B|133:230|133:230|158:250|158:250|213:255|213:255|242:236|242:236|316:243,1,292.50001115799,8|0,0:0|0:0,0:0:0:0:
397,228,15858,2,0,P|400:253|393:278,1,52,2|0,0:0|0:0,0:0:0:0:
483,261,16058,1,2,3:0:0:0:
299,161,16258,6,0,B|308:47|308:47|387:13|387:13|378:108,1,292.50001115799,2|0,3:2|0:0,0:0:0:0:
466,179,16658,5,2,0:0:0:0:
472,107,16858,1,2,0:0:0:0:
466,179,17058,5,8,0:0:0:0:
472,107,17258,1,2,0:2:0:0:
299,161,17458,6,0,B|308:47|308:47|387:13|387:13|378:108,1,292.50001115799,2|0,3:2|0:0,0:0:0:0:
371,184,17858,6,0,L|364:262,1,65,2|0,0:0|0:0,0:0:0:0:
357,328,18058,1,0,0:0:0:0:
286,243,18258,5,0,3:0:0:0:
280,315,18458,1,2,0:0:0:0:
379,105,18658,6,0,B|387:13|387:13|308:47|308:47|299:161,1,292.50001115799,8|0,0:0|0:0,0:0:0:0:
434,299,19058,5,2,0:0:0:0:
434,299,19258,1,2,3:0:0:0:
220,182,19458,6,0,P|200:182|180:187,1,39,2|0,3:2|0:0,0:0:0:0:
206,283,19858,5,2,0:0:0:0:
212,354,20058,1,2,0:0:0:0:
281,241,20258,5,8,0:0:0:0:
293,311,20458,1,2,0:2:0:0:
220,182,20658,6,0,B|166:181|124:209|107:257|107:257|98:198|50:166|8:164,1,292.50001115799,2|0,3:2|0:0,0:0:0:0:
120,119,21058,5,2,0:0:0:0:
120,119,21258,1,0,0:0:0:0:
210,86,21458,5,0,3:0:0:0:
205,14,21658,1,2,0:0:0:0:
10,167,21858,6,0,B|52:169|100:201|109:260|109:260|126:212|168:184|222:185,1,292.50001115799,8|0,0:0|0:0,0:0:0:0:
263,308,22258,6,0,P|232:301|206:283,1,65,2|0,0:0|0:0,0:0:0:0:
326,221,22458,1,2,3:0:0:0:
107,257,22658,5,2,0:0:0:0:
107,257,22858,1,0,0:0:0:0:
120,119,23058,5,2,0:0:0:0:
125,47,23258,1,0,3:0:0:0:
36,148,23458,6,0,P|25:178|1:199,1,65,10|0,0:0|0:0,0:0:0:0:
194,162,23658,2,0,P|201:193|223:216,1,65,2|0,3:2|0:0,0:0:0:0:
100,328,23858,5,2,3:2:0:0:
107,257,24058,1,0,0:0:0:0:
287,376,24258,6,0,L|365:382,2,77.999997619629,2|0|0,0:0|0:0|0:0,0:0:0:0:
249,295,24658,2,0,L|404:308,1,155.999995239258,2|0,3:2|0:0,0:0:0:0:
457,236,25058,2,0,L|223:215,1,233.999992858887,10|0,0:0|0:0,0:0:0:0:
1,199,25458,5,0,0:0:0:0:
1,199,25658,1,2,3:0:0:0:
344,149,25858,6,0,L|347:110,1,39,2|0,3:2|0:0,0:0:0:0:
281,23,26258,5,2,0:0:0:0:
274,93,26458,1,0,3:0:0:0:
434,43,26658,5,10,0:0:0:0:
427,113,26858,1,2,3:2:0:0:
74,139,27058,6,0,P|20:91|121:118,1,312,2|0,3:2|0:0,0:0:0:0:
58,224,27458,6,0,P|91:221|121:232,1,65,2|0,0:0|0:0,0:0:0:0:
0,293,27658,1,0,0:0:0:0:
157,312,27858,1,2,3:0:0:0:
75,336,28058,1,0,0:0:0:0:
121,119,28258,6,0,P|55:27|74:139,1,312,10|0,0:0|0:0,0:0:0:0:
209,87,28658,2,0,L|286:93,1,65,2|0,0:0|0:0,0:0:0:0:
196,8,28858,1,2,3:0:0:0:
338,229,29058,5,2,3:2:0:0:
338,229,29258,1,0,0:0:0:0:
426,269,29458,6,0,L|432:191,2,77.999997619629,2|0|0,0:0|0:0|3:0,0:0:0:0:
246,255,29858,2,0,L|239:177,2,77.999997619629,10|0|2,0:0|0:0|3:2,0:0:0:0:
436,368,30258,6,0,P|328:329|214:348,1,233.999992858887,2|0,3:2|0:0,0:0:0:0:
119,333,30658,6,0,P|141:309|152:279,1,65,2|0,0:0|0:0,0:0:0:0:
59,260,30858,1,2,0:0:0:0:
180,201,31058,1,0,3:0:0:0:
90,170,31258,1,2,0:0:0:0:
338,229,31458,6,0,L|326:357,1,130,10|0,0:0|3:0,0:0:0:0:
162,106,31858,5,0,0:0:0:0:
162,106,32058,1,2,3:2:0:0:
468,17,32258,6,0,L|506:20,1,39,2|0,3:2|0:0,0:0:0:0:
478,94,32658,5,2,0:0:0:0:
484,164,32858,1,0,3:0:0:0:
398,64,33058,5,10,0:0:0:0:
385,133,33258,1,2,3:2:0:0:
69,57,33458,6,0,B|127:22|184:66|184:66|241:110|306:83,1,253.499988395691,2|0,3:2|0:0,0:0:0:0:
306,169,33858,6,0,P|273:168|243:180,1,65,2|0,0:0|0:0,0:0:0:0:
292,259,34058,1,0,0:0:0:0:
413,209,34258,1,0,3:0:0:0:
379,297,34458,1,2,0:0:0:0:
306,83,34658,6,0,B|241:110|184:66|184:66|127:22|69:57,1,253.499988395691,10|0,0:0|0:0,0:0:0:0:
21,126,35058,2,0,L|18:215,2,65,2|0|0,0:0|0:0|3:0,0:0:0:0:
115,321,35458,6,0,L|107:238,1,77.999997619629,2|0,3:2|0:0,0:0:0:0:
108,243,35858,1,0,0:0:0:0:
213,328,36058,2,0,L|205:245,2,77.999997619629,2|8|0,3:2|0:0|0:0,0:0:0:0:
311,335,36658,5,2,3:2:0:0:
304,257,36858,1,0,0:0:0:0:
297,179,37058,1,0,0:0:0:0:
289,100,37258,1,0,0:0:0:0:
213,328,37458,6,0,L|205:245,1,77.999997619629,2|0,3:2|0:0,0:0:0:0:
190,92,37858,1,8,0:2:0:0:
115,321,38058,6,0,L|108:243,1,77.999997619629,2|0,3:2|0:0,0:0:0:0:
100,164,38258,1,2,3:2:0:0:
100,164,38458,1,0,0:0:0:0:
311,335,38658,6,0,P|349:341|386:330,1,77.999997619629,2|0,3:2|0:0,0:0:0:0:
386,330,39058,1,0,0:0:0:0:
304,257,39258,6,0,P|340:243|366:215,2,77.999997619629,2|8|0,3:2|0:0|0:0,0:0:0:0:
291,124,39858,5,2,3:2:0:0:
258,192,40058,1,0,0:0:0:0:
285,50,40258,1,0,0:0:0:0:
226,2,40458,1,0,0:0:0:0:
304,257,40658,6,0,P|340:243|366:215,1,77.999997619629,2|0,3:2|0:0,0:0:0:0:
386,79,41058,1,8,0:0:0:0:
311,335,41258,6,0,P|349:341|386:330,1,77.999997619629,2|0,3:2|0:0,0:0:0:0:
452,285,41458,1,2,3:2:0:0:
452,285,41658,1,0,0:0:0:0:
230,303,41858,6,0,L|153:309,1,77.999997619629,2|0,3:2|0:0,0:0:0:0:
152,309,42258,1,0,0:0:0:0:
44,207,42458,6,0,L|121:200,2,77.999997619629,2|8|0,3:2|0:0|0:0,0:0:0:0:
210,80,43058,6,0,L|132:86,1,77.999997619629,2|0,3:2|0:0,0:0:0:0:
291,110,43458,1,0,0:0:0:0:
282,29,43658,1,0,0:0:0:0:
44,207,43858,6,0,L|121:200,1,77.999997619629,2|0,3:2|0:0,0:0:0:0:
327,181,44258,1,8,0:0:0:0:
230,303,44458,6,0,L|153:309,1,77.999997619629,2|0,3:2|0:0,0:0:0:0:
75,320,44658,1,2,3:2:0:0:
75,320,44858,1,0,0:0:0:0:
360,357,45058,6,0,P|357:319|336:287,1,77.999997619629,2|0,3:2|0:0,0:0:0:0:
336,287,45458,1,0,0:0:0:0:
376,124,45658,6,0,P|343:145|326:180,2,77.999997619629,2|8|0,3:2|0:0|0:0,0:0:0:0:
165,226,46258,5,2,3:2:0:0:
238,240,46458,1,0,0:0:0:0:
83,210,46658,5,0,0:0:0:0:
83,210,46858,1,0,0:0:0:0:
75,293,47058,5,0,0:0:0:0:
72,331,47258,1,0,0:0:0:0:
90,123,47458,1,0,0:0:0:0:
2,193,47858,5,0,0:0:0:0:
421,368,48258,6,0,P|436:252|421:136,1,233.999992858887,2|0,3:2|0:0,0:0:0:0:
509,320,48658,1,0,0:0:0:0:
421,136,49058,5,10,0:2:0:0:
336,130,49258,1,0,3:0:0:0:
421,368,49458,6,0,P|436:252|421:136,1,233.999992858887,2|0,3:2|0:0,0:0:0:0:
509,320,49858,1,0,0:0:0:0:
421,136,50258,5,2,3:2:0:0:
250,123,50458,1,0,0:0:0:0:
421,368,50658,6,0,P|436:252|421:136,1,233.999992858887,10|0,0:2|0:0,0:0:0:0:
509,320,51058,1,0,0:0:0:0:
421,368,51258,1,0,3:0:0:0:
162,130,51458,6,0,P|146:245|161:361,1,233.999992858887,2|0,3:2|0:0,0:0:0:0:
74,178,51858,1,0,0:0:0:0:
161,361,52258,5,10,0:2:0:0:
247,368,52458,1,0,3:0:0:0:
162,130,52658,6,0,P|146:245|161:361,1,233.999992858887,2|0,3:2|0:0,0:0:0:0:
74,178,53058,1,0,0:2:0:0:
161,361,53458,5,2,3:2:0:0:
333,375,53658,1,0,0:0:0:0:
162,130,53858,6,0,P|146:245|161:361,1,233.999992858887,10|0,0:2|0:0,0:0:0:0:
72,318,54258,1,0,0:0:0:0:
371,49,54658,6,0,B|431:24|485:62|509:98|509:98|462:112|436:76,1,233.999992858887,2|0,3:2|0:0,0:0:0:0:
236,48,55058,1,0,0:0:0:0:
378,133,55458,5,10,0:2:0:0:
385,217,55658,1,0,3:0:0:0:
371,49,55858,6,0,B|431:24|485:62|509:98|509:98|462:112|436:76,1,233.999992858887,2|0,3:2|0:0,0:0:0:0:
236,48,56258,1,0,0:0:0:0:
378,133,56658,5,2,3:2:0:0:
392,301,56858,1,0,0:0:0:0:
371,49,57058,5,8,0:0:0:0:
378,133,57258,5,2,3:2:0:0:
236,48,57458,1,0,0:0:0:0:
385,217,57658,5,2,3:2:0:0:
150,81,57858,6,0,B|90:56|36:94|12:131|12:131|59:145|80:116,1,233.999992858887,2|0,3:2|0:0,0:0:0:0:
304,101,58258,1,0,0:0:0:0:
142,165,58658,5,10,0:2:0:0:
134,249,58858,1,0,3:0:0:0:
150,81,59058,6,0,B|90:56|36:94|12:131|12:131|59:145|80:116,1,233.999992858887,2|0,3:2|0:0,0:0:0:0:
304,101,59458,1,0,0:0:0:0:
142,165,59858,5,2,3:2:0:0:
126,333,60058,1,0,0:0:0:0:
150,81,60258,6,0,B|79:58|23:117,1,136.499995834351,0|0,0:0|0:0,0:0:0:0:
217,125,60658,2,0,P|230:82|218:38,1,90.9999972229005,0|0,0:2|0:0,0:0:0:0:
220,207,61058,6,0,B|286:254|361:207|361:207|428:163|495:201,1,292.50001115799,2|0,3:2|0:0,0:0:0:0:
435,287,61458,5,2,0:0:0:0:
441,357,61658,1,2,3:2:0:0:
435,287,61858,5,8,0:0:0:0:
441,357,62058,1,2,3:2:0:0:
220,207,62258,6,0,B|286:254|361:207|361:207|428:163|495:201,1,292.50001115799,2|0,3:2|0:0,0:0:0:0:
512,117,62658,6,0,P|476:111|439:93,1,65,2|0,0:2|0:0,0:0:0:0:
369,116,62858,1,0,0:0:0:0:
503,31,63058,5,0,3:2:0:0:
433,14,63258,1,2,0:2:0:0:
495,201,63458,6,0,B|428:163|361:207|361:207|286:254|220:207,1,292.50001115799,10|0,0:2|0:0,0:0:0:0:
435,287,63858,5,2,0:2:0:0:
435,287,64058,1,0,3:0:0:0:
149,334,64258,6,0,L|152:291,1,39,2|0,3:2|0:0,0:0:0:0:
221,207,64658,5,2,0:2:0:0:
293,213,64858,1,2,3:2:0:0:
263,133,65058,5,8,0:0:0:0:
335,139,65258,1,2,3:2:0:0:
149,334,65458,6,0,B|154:270|154:270|130:227|130:227|137:146|137:146|111:109|111:109|117:38,1,292.50001115799,2|0,3:2|0:0,0:0:0:0:
198,87,65858,5,2,0:2:0:0:
198,87,66058,1,0,0:0:0:0:
53,174,66258,5,0,3:0:0:0:
47,246,66458,1,2,0:2:0:0:
115,57,66658,6,0,B|110:109|110:109|136:146|136:146|129:227|129:227|153:270|153:270|147:333,1,292.50001115799,10|0,0:2|0:0,0:0:0:0:
224,384,67058,2,0,L|229:319,1,65,2|0,0:2|0:0,0:0:0:0:
75,376,67258,1,0,3:0:0:0:
396,243,67458,6,0,B|438:203|432:115|358:89|358:89|303:126|328:177,1,292.50001115799,2|0,3:2|0:0,0:0:0:0:
304,302,67858,5,2,0:2:0:0:
232,295,68058,1,2,3:2:0:0:
304,302,68258,5,8,0:0:0:0:
232,295,68458,1,2,3:2:0:0:
396,243,68658,6,0,B|438:203|432:115|358:89|358:89|303:126|328:177,1,292.50001115799,2|0,3:2|0:0,0:0:0:0:
385,335,69058,6,0,L|449:329,1,65,2|0,0:2|0:0,0:0:0:0:
494,257,69258,1,0,0:0:0:0:
304,302,69458,5,0,3:0:0:0:
311,374,69658,1,2,0:2:0:0:
328,177,69858,6,0,B|303:125|358:88|358:88|431:114|438:202|395:242,1,292.50001115799,10|0,0:2|0:0,0:0:0:0:
224,384,70258,5,2,0:2:0:0:
224,384,70458,1,0,3:0:0:0:
20,166,70658,6,0,L|61:162,1,39,2|0,3:2|0:0,0:0:0:0:
116,79,71058,5,2,0:2:0:0:
44,85,71258,1,2,3:2:0:0:
74,7,71458,5,8,0:0:0:0:
2,13,71658,1,2,3:2:0:0:
20,166,71858,6,0,B|91:159|91:159|127:171|127:171|157:152|157:152|189:150|189:150|220:132|220:132|253:144|253:144|298:140,1,292.50001115799,2|0,3:2|0:0,0:0:0:0:
228,219,72258,5,2,0:2:0:0:
228,219,72458,1,0,0:0:0:0:
80,241,72658,5,0,3:0:0:0:
86,311,72858,1,2,0:2:0:0:
299,141,73058,6,0,B|254:145|254:145|221:133|221:133|190:151|190:151|158:153|158:153|128:172|128:172|92:160|92:160|21:167,1,292.50001115799,10|0,0:2|0:0,0:0:0:0:
12,88,73458,2,0,L|76:82,1,65,2|0,0:2|0:0,0:0:0:0:
35,8,73658,1,0,3:0:0:0:
265,61,73858,5,2,3:2:0:0:
265,61,74058,1,0,0:0:0:0:
376,130,74258,5,2,0:2:0:0:
447,123,74458,1,0,3:0:0:0:
454,255,74658,6,0,P|430:232|421:201,1,65,10|0,0:2|0:0,0:0:0:0:
297,139,74858,2,0,P|275:163|268:195,1,65,2|0,3:2|0:0,0:0:0:0:
348,326,75058,5,2,3:2:0:0:
341,255,75258,1,0,0:0:0:0:
186,376,75458,6,0,L|103:383,2,77.999997619629,2|0|0,0:2|0:0|0:0,0:0:0:0:
214,293,75858,2,0,L|58:306,1,155.999995239258,2|0,3:2|0:0,0:0:0:0:
6,229,76258,2,0,L|239:208,1,233.999992858887,10|0,0:2|0:0,0:0:0:0:
507,188,76658,5,0,0:0:0:0:
507,188,76858,1,0,3:0:0:0:
113,138,77058,6,0,L|109:99,1,39,2|0,3:2|0:0,0:0:0:0:
184,39,77458,5,2,0:0:0:0:
191,110,77658,1,0,3:0:0:0:
314,88,77858,5,10,0:2:0:0:
307,158,78058,1,2,3:2:0:0:
480,160,78258,6,0,B|536:89|460:17|460:17|379:62|409:142,1,312,2|0,3:2|0:0,0:0:0:0:
455,239,78658,6,0,P|425:225|393:226,1,65,2|0,0:2|0:0,0:0:0:0:
314,251,78858,1,0,0:0:0:0:
491,318,79058,1,0,3:0:0:0:
441,384,79258,1,2,2:0:0:0:
409,142,79458,6,0,B|379:62|460:17|460:17|536:89|480:160,1,312,10|0,0:2|0:0,0:0:0:0:
307,158,79858,6,0,L|242:152,1,65,2|0,0:2|0:0,0:0:0:0:
314,251,80058,1,0,3:0:0:0:
57,132,80258,5,2,3:2:0:0:
57,132,80458,1,0,0:0:0:0:
103,45,80658,6,0,P|65:33|27:37,2,77.999997619629,2|0|0,0:2|0:0|3:0,0:0:0:0:
103,224,81058,2,0,P|65:235|27:231,2,77.999997619629,10|0|2,0:2|0:0|3:2,0:0:0:0:
195,61,81458,6,0,P|170:134|190:208,1,155.999995239258,2|0,3:2|0:0,0:0:0:0:
251,290,81858,6,0,P|218:287|187:295,1,65,2|0,0:2|0:0,0:0:0:0:
132,370,82058,1,0,0:0:0:0:
319,344,82258,1,0,3:2:0:0:
230,384,82458,1,2,0:2:0:0:
440,249,82658,6,0,L|451:378,1,130,10|0,0:2|3:0,0:0:0:0:
294,138,83058,1,0,0:0:0:0:
294,138,83258,1,0,3:0:0:0:
55,346,83458,6,0,L|51:384,1,39,2|0,3:2|0:0,0:0:0:0:
19,269,83858,5,2,0:2:0:0:
11,187,84058,1,0,3:0:0:0:
105,281,84258,5,10,0:2:0:0:
131,203,84458,1,2,3:2:0:0:
411,363,84658,6,0,B|458:382|493:334|493:334|463:267|398:266|362:291,1,253.499988395691,2|0,3:2|0:0,0:0:0:0:
274,255,85058,2,0,P|276:287|268:319,1,65,2|0,0:2|0:0,0:0:0:0:
170,371,85258,1,0,0:0:0:0:
105,281,85458,1,0,3:0:0:0:
77,369,85658,1,2,0:2:0:0:
362,291,85858,6,0,B|398:266|463:267|493:334|493:334|458:382|411:363,1,253.499988395691,10|0,0:2|0:0,0:0:0:0:
346,212,86258,6,0,B|339:183|351:154|351:154|362:128|356:96,1,116.999996429443
328,10,86658,6,0,L|250:16,1,77.999997619629,2|0,3:2|0:0,0:0:0:0:
250,16,87058,1,0,0:0:0:0:
178,121,87258,6,0,L|256:115,2,77.999997619629,2|8|0,3:2|0:0|0:0,0:0:0:0:
268,218,87858,1,2,3:2:0:0:
346,212,88058,1,0,0:0:0:0:
190,224,88258,1,0,0:0:0:0:
424,206,88458,1,0,0:0:0:0:
256,115,88658,6,0,L|178:121,1,77.999997619629,2|0,3:2|0:0,0:0:0:0:
54,130,89058,1,8,0:0:0:0:
250,16,89258,6,0,L|327:9,1,77.999997619629,2|0,3:2|0:0,0:0:0:0:
423,2,89458,1,2,3:2:0:0:
340,111,89658,1,0,0:0:0:0:
499,241,89858,6,0,P|510:278|506:316,1,77.999997619629,2|0,3:2|0:0,0:0:0:0:
506,316,90258,1,0,0:0:0:0:
395,286,90458,6,0,P|386:323|363:355,2,77.999997619629,2|8|0,3:2|0:0|0:0,0:0:0:0:
282,272,91058,1,2,3:2:0:0:
220,316,91258,1,0,0:0:0:0:
306,199,91458,1,0,0:0:0:0:
143,318,91658,1,0,0:0:0:0:
363,355,91858,6,0,P|386:323|395:286,1,77.999997619629,2|0,3:2|0:0,0:0:0:0:
353,128,92258,1,8,0:0:0:0:
506,316,92458,6,0,P|509:277|498:240,1,77.999997619629,2|0,3:2|0:0,0:0:0:0:
433,137,92658,1,2,3:2:0:0:
395,286,92858,1,0,0:0:0:0:
260,117,93058,6,0,L|182:123,1,77.999997619629,2|0,3:2|0:0,0:0:0:0:
112,231,93458,1,0,0:0:0:0:
149,228,93558,1,0,0:0:0:0:
190,225,93658,6,0,L|267:218,2,77.999997619629,2|8|0,3:2|0:0|0:0,0:0:0:0:
274,319,94258,1,2,3:2:0:0:
197,326,94458,1,0,0:0:0:0:
352,313,94658,1,0,0:0:0:0:
119,332,94858,1,0,0:0:0:0:
267,218,95058,6,0,L|190:225,1,77.999997619629,2|0,3:2|0:0,0:0:0:0:
25,238,95458,1,8,0:0:0:0:
182,123,95658,6,0,L|260:117,1,77.999997619629,2|0,3:2|0:0,0:0:0:0:
380,108,95858,1,2,3:2:0:0:
214,31,96058,1,0,0:0:0:0:
485,80,96258,6,0,P|489:118|479:155,1,77.999997619629,2|0,3:2|0:0,0:0:0:0:
478,155,96658,1,0,0:0:0:0:
431,269,96858,6,0,P|468:259|500:237,2,77.999997619629,2|8|0,3:2|0:0|0:0,0:0:0:0:
308,284,97458,1,2,3:2:0:0:
371,328,97658,1,0,0:0:0:0:
287,207,97858,5,0,0:0:0:0:
287,207,98058,1,0,0:0:0:0:
231,265,98258,1,0,0:0:0:0:
363,227,98458,1,0,0:0:0:0:
225,135,98658,2,0,P|259:117|298:114,1,77.999997619629,0|0,0:0|0:0,0:0:0:0:
431,114,99058,5,0,0:0:0:0:
362,227,99258,1,0,0:0:0:0:
149,15,99458,6,0,B|124:49|142:98|142:98|124:124|124:124|154:175|123:235,1,233.999992858887,2|0,3:2|0:0,0:0:0:0:
34,177,99858,1,0,0:0:0:0:
233,58,100058,1,0,3:0:0:0:
123,235,100258,6,0,B|154:175|124:124|124:124|142:98|142:98|124:49|149:15,1,233.999992858887,10|0,0:2|0:0,0:0:0:0:
233,58,100658,1,2,3:2:0:0:
233,58,100858,1,0,0:0:0:0:
213,198,101058,6,0,P|252:200|289:189,1,77.999997619629,2|0,0:2|0:0,0:0:0:0:
351,42,101258,2,0,P|329:74|321:112,1,77.999997619629,2|0,0:2|0:0,0:0:0:0:
374,181,101458,1,2,3:2:0:0:
233,58,101658,1,0,0:0:0:0:
419,110,101858,6,0,L|470:105,1,52,10|0,0:2|3:0,0:0:0:0:
351,42,102258,1,2,0:2:0:0:
351,42,102458,1,2,3:2:0:0:
438,263,102658,6,0,B|385:298|326:272|326:272|264:248|214:278,1,233.999992858887,2|0,3:2|0:0,0:0:0:0:
274,370,103058,1,0,0:0:0:0:
374,181,103258,1,0,3:0:0:0:
214,278,103458,6,0,B|264:248|326:272|326:272|385:298|438:263,1,233.999992858887,10|0,0:2|0:0,0:0:0:0:
374,181,103858,1,2,3:2:0:0:
374,181,104058,1,0,0:0:0:0:
395,47,104258,6,0,P|358:60|319:55,1,77.999997619629,2|0,0:2|0:0,0:0:0:0:
258,147,104458,2,0,P|229:121|213:85,1,77.999997619629,2|0,0:2|0:0,0:0:0:0:
246,0,104658,1,2,3:2:0:0:
374,181,104858,1,0,0:0:0:0:
457,118,105058,5,10,0:2:0:0:
472,224,105458,5,0,0:0:0:0:
472,224,105658,1,0,0:0:0:0:
205,359,105858,6,0,B|145:384|91:346|67:310|67:310|114:296|140:332,1,233.999992858887,2|0,3:2|0:0,0:0:0:0:
334,384,106258,1,0,0:0:0:0:
212,275,106658,5,8,0:0:0:0:
219,191,106858,1,0,3:0:0:0:
205,359,107058,6,0,B|145:384|91:346|67:310|67:310|114:296|140:332,1,233.999992858887,2|0,3:2|0:0,0:0:0:0:
334,384,107458,1,0,0:0:0:0:
212,275,107858,5,2,3:2:0:0:
226,107,108058,1,0,0:0:0:0:
205,359,108258,5,8,0:0:0:0:
212,275,108458,5,2,3:2:0:0:
334,384,108658,1,0,0:0:0:0:
219,191,108858,5,2,3:2:0:0:
466,210,109058,6,0,B|450:266|403:292|403:292|447:327|449:378,1,208
322,281,109858,5,0,0:0:0:0:
322,281,110058,1,0,0:0:0:0:
466,210,110258,6,0,B|450:266|403:292|403:292|447:327|449:378,1,208,0|0,0:0|0:0,0:0:0:0:
322,281,111058,5,0,0:0:0:0:
512,301,111258,1,0,0:0:0:0:
371,194,111458,6,0,P|383:128|427:76,1,136.499995834351,0|0,0:0|0:0,0:0:0:0:
309,90,111858,6,0,P|317:45|308:1,1,90.9999972229005,0|0,0:0|0:0,0:0:0:0:
292,177,112258,6,0,B|226:130|151:177|151:177|84:221|17:183,1,292.50001115799,2|0,3:2|0:0,0:0:0:0:
77,97,112658,5,2,0:2:0:0:
71,27,112858,1,2,3:2:0:0:
77,97,113058,5,8,0:0:0:0:
71,27,113258,1,2,3:2:0:0:
292,177,113458,6,0,B|226:130|151:177|151:177|84:221|17:183,1,292.50001115799,2|0,3:2|0:0,0:0:0:0:
0,267,113858,6,0,P|36:273|73:291,1,65,2|0,0:2|0:0,0:0:0:0:
143,268,114058,1,0,0:0:0:0:
9,353,114258,5,0,3:0:0:0:
79,370,114458,1,2,0:2:0:0:
17,183,114658,6,0,B|84:221|151:177|151:177|226:130|292:177,1,292.50001115799,8|0,0:0|0:0,0:0:0:0:
77,97,115058,5,2,0:2:0:0:
77,97,115258,1,0,3:0:0:0:
363,50,115458,6,0,L|360:93,1,39,2|0,3:2|0:0,0:0:0:0:
291,177,115858,5,2,0:2:0:0:
219,171,116058,1,2,3:2:0:0:
249,251,116258,5,8,0:0:0:0:
177,245,116458,1,2,3:2:0:0:
363,50,116658,6,0,B|358:114|358:114|382:157|382:157|375:238|375:238|401:275|401:275|395:346,1,292.50001115799,2|0,3:2|0:0,0:0:0:0:
314,297,117058,5,2,0:2:0:0:
314,297,117258,1,0,0:0:0:0:
459,210,117458,5,0,3:0:0:0:
465,138,117658,1,2,0:2:0:0:
397,327,117858,6,0,B|402:275|402:275|376:238|376:238|383:157|383:157|359:114|359:114|365:51,1,292.50001115799,10|0,0:2|0:0,0:2:0:0:
288,0,118258,2,0,L|283:65,1,65
437,8,118458,1,0,3:0:0:0:
116,141,118658,6,0,B|74:181|80:269|154:295|154:295|209:258|184:207,1,292.50001115799,2|0,3:2|0:0,0:0:0:0:
208,82,119058,5,2,0:2:0:0:
280,89,119258,1,2,3:2:0:0:
208,82,119458,5,8,0:0:0:0:
280,89,119658,1,2,3:2:0:0:
116,141,119858,6,0,B|74:181|80:269|154:295|154:295|209:258|184:207,1,292.50001115799,2|0,3:2|0:0,0:0:0:0:
127,49,120258,6,0,L|63:55,1,65,2|0,0:2|0:0,0:0:0:0:
18,127,120458,1,0,0:0:0:0:
208,82,120658,5,0,3:2:0:0:
201,10,120858,1,2,0:2:0:0:
184,207,121058,6,0,B|209:259|154:296|154:296|81:270|74:182|117:142,1,292.50001115799,10|0,0:2|0:0,0:0:0:0:
288,0,121458,5,2,0:2:0:0:
288,0,121658,1,0,3:0:0:0:
492,218,121858,6,0,L|451:222,1,39,2|0,3:2|0:0,0:0:0:0:
396,305,122258,5,2,0:2:0:0:
468,299,122458,1,2,3:2:0:0:
438,377,122658,5,8,0:0:0:0:
510,371,122858,1,2,3:2:0:0:
492,218,123058,6,0,B|421:225|421:225|385:213|385:213|355:232|355:232|323:234|323:234|292:252|292:252|259:240|259:240|214:244,1,292.50001115799,2|0,3:2|0:0,0:0:0:0:
284,165,123458,5,2,0:2:0:0:
284,165,123658,1,0,0:0:0:0:
432,143,123858,5,0,3:0:0:0:
426,73,124058,1,2,0:2:0:0:
214,244,124258,6,0,B|259:240|259:240|292:252|292:252|323:234|323:234|355:232|355:232|385:213|385:213|421:225|421:225|492:218,1,292.50001115799,10|0,0:2|0:0,0:0:0:0:
500,296,124658,2,0,L|436:302,1,65,2|0,2:0|0:0,0:0:0:0:
477,376,124858,1,0,3:0:0:0:
247,323,125058,5,2,3:2:0:0:
247,323,125258,1,0,0:0:0:0:
136,254,125458,5,2,0:2:0:0:
65,261,125658,1,0,3:0:0:0:
58,129,125858,6,0,P|82:152|91:183,1,65,10|0,0:2|0:0,0:0:0:0:
215,245,126058,2,0,P|237:221|244:189,1,65,2|0,3:2|0:0,0:0:0:0:
164,58,126258,5,2,3:2:0:0:
171,129,126458,1,0,0:0:0:0:
326,8,126658,6,0,L|409:1,2,77.999997619629,2|0|0,0:2|0:0|0:0,0:0:0:0:
298,91,127058,2,0,L|454:78,1,155.999995239258,2|0,3:2|0:0,0:0:0:0:
506,155,127458,2,0,L|273:176,1,233.999992858887,10|0,0:2|0:0,0:0:0:0:
5,196,127858,5,0,0:0:0:0:
5,196,128058,1,0,3:2:0:0:
401,247,128258,6,0,L|405:286,1,39,2|0,3:2|0:0,0:0:0:0:
328,345,128658,5,2,0:2:0:0:
321,274,128858,1,0,3:0:0:0:
198,296,129058,5,10,0:2:0:0:
205,226,129258,1,2,3:2:0:0:
32,224,129458,6,0,B|-24:295|52:367|52:367|133:322|103:242,1,312,2|0,3:2|0:0,0:0:0:0:
57,145,129858,6,0,P|87:159|119:158,1,65,2|0,0:2|0:0,0:0:0:0:
198,133,130058,1,0,0:0:0:0:
21,66,130258,1,0,3:2:0:0:
71,0,130458,1,2,0:2:0:0:
103,242,130658,6,0,B|133:322|52:367|52:367|-24:295|32:224,1,312,10|0,0:2|0:0,0:0:0:0:
205,226,131058,6,0,L|270:232,1,65,0|0,0:2|0:0,0:0:0:0:
198,133,131258,1,0,3:0:0:0:
455,252,131458,5,2,3:2:0:0:
455,252,131658,1,0,0:0:0:0:
409,339,131858,6,0,P|447:351|485:347,2,77.999997619629,2|0|0,0:2|0:0|3:0,0:0:0:0:
409,160,132258,2,0,P|447:149|485:153,2,77.999997619629,10|0|2,0:2|0:0|3:2,0:0:0:0:
317,323,132658,6,0,P|342:250|322:176,1,155.999995239258,2|0,3:2|0:0,0:0:0:0:
261,94,133058,6,0,P|294:97|325:89,1,65,2|0,0:2|0:0,0:0:0:0:
380,14,133258,1,0,0:0:0:0:
193,40,133458,1,0,3:0:0:0:
282,0,133658,1,2,0:0:0:0:
72,135,133858,6,0,L|61:6,1,130,10|0,0:2|3:0,0:0:0:0:
218,246,134258,1,0,0:2:0:0:
218,246,134458,1,0,3:2:0:0:
457,38,134658,6,0,L|461:0,1,39,2|0,3:2|0:0,0:0:0:0:
493,115,135058,5,2,0:2:0:0:
501,197,135258,1,0,3:0:0:0:
407,103,135458,5,10,0:2:0:0:
381,181,135658,1,2,3:2:0:0:
101,21,135858,6,0,B|54:2|19:50|19:50|49:117|114:118|150:93,1,253.499988395691,2|0,3:2|0:0,0:0:0:0:
238,129,136258,2,0,P|236:97|244:65,1,65,2|0,0:2|0:0,0:0:0:0:
342,13,136458,1,0,0:0:0:0:
407,103,136658,1,0,3:0:0:0:
435,15,136858,1,2,0:2:0:0:
150,93,137058,6,0,B|114:118|49:117|19:50|19:50|54:2|101:21,1,253.499988395691,10|0,0:2|0:0,0:0:0:0:
166,188,137458,6,0,P|127:191|92:207,1,77.999997619629,0|0,0:0|3:0,0:0:0:0:
29,285,137858,1,0,0:0:0:0:
83,202,143058,6,0,P|121:194|159:201,1,78,2|0,0:2|0:0,0:0:0:0:
276,162,143458,6,0,P|199:174|122:162,1,155.999995239258,0|0,0:0|0:0,0:0:0:0:
47,256,143858,2,0,P|123:243|200:255,1,155.999995239258,2|0,0:2|0:0,0:0:0:0:
435,382,144258,1,0,3:0:0:0:
