osu file format v14

[General]
AudioFilename: audio.mp3
AudioLeadIn: 0
PreviewTime: 52050
Countdown: 1
SampleSet: Soft
StackLeniency: 0.7
Mode: 0
LetterboxInBreaks: 0
WidescreenStoryboard: 1

[Editor]
DistanceSpacing: 0.9
BeatDivisor: 4
GridSize: 4
TimelineZoom: 1.8

[Metadata]
Title:Sailor Moon (Sag das Zauberwort) Piano Soft Mix - Ending
TitleUnicode:Sailor Moon (Sag das Zauberwort) Piano Soft Mix - Ending
Artist:Tina Hierstetter
ArtistUnicode:Tina Hierstetter
Creator:gtfo
Version:Hard
Source:Bishoujo Senshi Sailor Moon
Tags:Bishoujo Senshi Sailor Moon Zauberwort Mondstein Flieg und Sieg Pilesos
BeatmapID:1418825
BeatmapSetID:670945

[Difficulty]
HPDrainRate:4
CircleSize:6.4
OverallDifficulty:6
ApproachRate:7.4
SliderMultiplier:1.4
SliderTickRate:1

[Events]
//Background and Video events
0,0,"BG.jpg",0,0
//Break Periods
//Storyboard Layer 0 (Background)
//Storyboard Layer 1 (Fail)
//Storyboard Layer 2 (Pass)
//Storyboard Layer 3 (Foreground)
//Storyboard Sound Samples

[TimingPoints]
1111.4434811271,882.352941176471,4,2,1,20,1,0
16993,895.522388059701,4,2,1,20,1,0
17888,882.352941176471,4,2,1,25,1,0
18770,882.352941176471,4,2,1,20,1,0
34652,895.522388059701,4,2,1,20,1,0
35547,882.352941176471,4,2,1,25,1,0
36429,882.352941176471,4,2,1,20,1,0
43487,882.352941176471,4,2,1,20,1,0
47016,839.160839160839,4,2,1,20,1,0
51631,-100,4,2,1,5,0,0
52050,833.333333333333,4,2,1,25,1,1
52050,-83.3333333333333,4,2,1,25,0,1
63716,-83.3333333333333,4,2,1,15,0,0
65383,-83.3333333333333,4,2,1,25,0,1
77050,-83.3333333333333,4,2,1,15,0,0
78716,-83.3333333333333,4,2,1,25,0,1
82049,967.741935483871,4,2,1,25,1,0
82049,-83.3333333333333,4,2,1,25,0,0
82532,1061.94690265487,4,2,1,15,1,0
83593,1016.94915254237,4,2,1,15,1,0
84101,-100,4,2,1,10,0,0
84609,1090.90909090909,4,2,1,5,1,0
84609,-83.3333333333333,4,2,1,5,0,0

[Colours]
Combo1 : 0,128,255
Combo2 : 0,6,251

[HitObjects]
72,120,1111,5,2,0:0:0:0:
140,104,1552,1,0,0:0:0:0:
199,140,1993,2,0,P|188:212|281:248,1,140,0|0,0:0|0:0,0:0:0:0:
255,185,3317,1,0,0:0:0:0:
199,140,3758,1,2,0:0:0:0:
209,99,3979,1,0,0:0:0:0:
220,58,4199,2,0,P|241:60|265:59,1,35,2|0,0:0|0:0,0:0:0:0:
323,46,4640,6,0,P|319:86|338:140,2,70,2|0|0,0:0|0:0|0:0,0:0:0:0:
334,40,6405,1,0,0:0:0:0:
402,53,6846,1,0,0:0:0:0:
410,121,7287,1,2,0:0:0:0:
347,149,7729,2,0,P|350:173|364:204,1,35,2|0,0:0|0:0,0:0:0:0:
371,250,8170,6,0,P|332:251|288:269,2,70,2|0|0,0:0|0:0|0:0,0:0:0:0:
382,257,9934,1,0,0:0:0:0:
423,191,10817,1,0,0:0:0:0:
461,341,11699,6,0,B|365:301|353:372|255:333,1,210,2|0,0:0|0:0,0:0:0:0:
256,333,13464,1,0,0:0:0:0:
260,263,13905,1,0,0:0:0:0:
198,295,14346,1,2,0:0:0:0:
156,287,14567,1,0,0:0:0:0:
115,277,14787,1,2,0:0:0:0:
52,308,15229,6,0,P|33:273|26:226,1,70,2|0,0:0|0:0,0:0:0:0:
50,178,16111,1,2,0:0:0:0:
25,112,16552,1,0,0:0:0:0:
139,104,16993,1,2,0:0:0:0:
122,173,17440,1,0,0:0:0:0:
80,67,17888,1,2,0:0:0:0:
110,38,18108,1,0,0:0:0:0:
150,28,18329,1,2,0:0:0:0:
191,32,18549,1,0,0:0:0:0:
225,56,18770,6,0,L|308:64,1,70,2|0,0:0|0:0,0:0:0:0:
364,72,19652,1,0,0:0:0:0:
321,127,20093,1,0,0:0:0:0:
251,121,20534,2,0,L|320:127,1,70,2|0,0:0|0:0,0:0:0:0:
276,184,21417,2,0,L|345:190,1,70,2|0,0:0|0:0,0:0:0:0:
249,243,22299,6,0,P|219:218|210:180,1,70,2|0,0:0|0:0,0:0:0:0:
234,124,23181,1,2,0:0:0:0:
276,179,23622,1,0,0:0:0:0:
249,243,24064,1,2,0:0:0:0:
179,237,24505,1,0,0:0:0:0:
163,168,24946,1,2,0:0:0:0:
170,156,25828,6,0,P|167:111|154:73,2,70,2|0|0,0:0|0:0|0:0,0:0:0:0:
163,168,27593,1,0,0:0:0:0:
179,237,28034,1,0,0:0:0:0:
64,226,28475,1,2,0:0:0:0:
92,161,28917,1,0,0:0:0:0:
117,272,29358,6,0,B|108:291|80:300|80:300|148:284|148:327|213:322|236:284,1,210,2|0,0:0|0:0,0:0:0:0:
232,288,31122,1,0,0:0:0:0:
207,230,31564,1,0,0:0:0:0:
254,188,32005,1,0,0:0:0:0:
307,218,32446,2,0,P|314:235|313:268,1,35,0|0,0:0|0:0,0:0:0:0:
293,318,32887,6,0,P|344:313|424:364,1,140,2|0,0:0|0:0,0:0:0:0:
425,368,34652,1,0,0:0:0:0:
487,335,35099,1,0,0:0:0:0:
455,225,35547,1,2,0:0:0:0:
413,217,35767,1,0,0:0:0:0:
371,223,35988,1,2,0:0:0:0:
337,248,36208,1,0,0:0:0:0:
321,287,36429,6,0,P|326:323|316:372,2,70,2|0|0,0:0|0:0|0:0,0:0:0:0:
314,274,38193,1,2,0:0:0:0:
249,300,38634,1,0,0:0:0:0:
241,186,39076,1,2,0:0:0:0:
309,203,39517,1,0,0:0:0:0:
204,246,39958,6,0,P|168:238|125:212,2,70,2|0|0,0:0|0:0|0:0,0:0:0:0:
217,247,41723,1,0,0:0:0:0:
270,189,42605,1,2,0:0:0:0:
284,257,43046,1,0,0:0:0:0:
205,179,43487,6,0,B|141:157|134:203|68:185,2,140,2|0|0,0:0|0:0|0:0,0:0:0:0:
217,247,46134,5,2,0:0:0:0:
200,314,47016,5,2,0:0:0:0:
217,247,47435,1,0,0:0:0:0:
151,259,47855,1,0,0:0:0:0:
130,326,48274,1,0,0:0:0:0:
177,378,48694,1,2,0:0:0:0:
245,363,49113,1,0,0:0:0:0:
266,296,49533,1,2,0:0:0:0:
256,226,49953,1,0,0:0:0:0:
219,166,50372,1,2,0:0:0:0:
256,192,50582,12,0,51631,0:0:0:0:
224,153,52050,5,2,0:0:0:0:
228,52,52466,1,0,0:0:0:0:
228,52,52883,1,8,0:0:0:0:
313,113,53300,5,2,0:0:0:0:
313,113,53508,1,0,0:0:0:0:
298,169,53716,1,2,0:0:0:0:
302,227,53925,1,0,0:0:0:0:
341,319,54341,5,0,0:0:0:0:
284,302,54550,1,8,0:0:0:0:
225,310,54758,1,0,0:0:0:0:
174,342,54966,1,0,0:0:0:0:
134,249,55383,5,2,0:0:0:0:
171,155,55800,1,0,0:0:0:0:
171,155,56216,1,8,0:0:0:0:
146,57,56633,5,2,0:0:0:0:
203,69,56841,1,0,0:0:0:0:
242,25,57050,1,2,0:0:0:0:
185,12,57258,1,0,0:0:0:0:
171,155,57675,5,2,0:0:0:0:
217,289,58300,5,2,0:0:0:0:
303,339,58716,1,2,0:0:0:0:
295,280,58925,1,0,0:0:0:0:
310,223,59133,1,2,0:0:0:0:
403,185,59550,5,8,0:0:0:0:
312,140,59966,1,0,0:0:0:0:
253,132,60175,1,0,0:0:0:0:
196,148,60383,1,0,0:0:0:0:
196,148,61216,5,8,0:0:0:0:
200,47,61633,1,0,0:0:0:0:
253,132,62050,1,2,0:0:0:0:
196,148,62258,1,0,0:0:0:0:
160,194,62466,2,0,P|82:221|92:165,1,167.999994873047,2|0,0:0|0:0,0:0:0:0:
86,170,63716,5,0,0:0:0:0:
107,122,64133,1,0,0:0:0:0:
25,115,64550,1,0,0:0:0:0:
37,166,64966,1,0,0:0:0:0:
68,86,65383,5,2,0:0:0:0:
154,33,65800,1,0,0:0:0:0:
154,33,66216,1,8,0:0:0:0:
170,132,66633,5,2,0:0:0:0:
170,132,66841,1,0,0:0:0:0:
227,134,67050,1,2,0:0:0:0:
283,117,67258,1,0,0:0:0:0:
335,31,67675,5,0,0:0:0:0:
346,89,67883,1,8,0:0:0:0:
381,138,68091,1,0,0:0:0:0:
433,168,68300,1,0,0:0:0:0:
460,71,68716,5,2,0:0:0:0:
495,165,69133,1,0,0:0:0:0:
495,165,69550,1,8,0:0:0:0:
412,107,69966,5,2,0:0:0:0:
400,50,70175,1,0,0:0:0:0:
444,15,70383,1,2,0:0:0:0:
457,68,70591,1,0,0:0:0:0:
412,203,71008,5,2,0:0:0:0:
304,297,71633,5,2,0:0:0:0:
205,318,72050,1,2,0:0:0:0:
212,259,72258,1,0,0:0:0:0:
202,201,72466,1,2,0:0:0:0:
112,247,72883,5,8,0:0:0:0:
212,259,73300,1,0,0:0:0:0:
202,201,73508,1,0,0:0:0:0:
167,153,73716,1,0,0:0:0:0:
167,153,74550,5,8,0:0:0:0:
66,147,74966,1,2,0:0:0:0:
117,61,75383,5,2,0:0:0:0:
165,94,75591,1,0,0:0:0:0:
167,153,75800,2,0,P|218:192|208:119,1,167.999994873047,2|0,0:0|0:0,0:0:0:0:
217,121,77050,5,0,0:0:0:0:
201,172,77466,1,0,0:0:0:0:
284,178,77883,1,0,0:0:0:0:
271,127,78299,1,0,0:0:0:0:
241,207,78716,5,2,0:0:0:0:
300,288,79133,1,0,0:0:0:0:
300,288,79549,1,8,0:0:0:0:
346,198,79966,5,2,0:0:0:0:
346,198,80174,1,0,0:0:0:0:
403,200,80383,1,2,0:0:0:0:
459,183,80591,1,0,0:0:0:0:
476,83,81008,5,0,0:0:0:0:
420,64,81216,1,8,0:0:0:0:
360,70,81424,1,0,0:0:0:0:
308,100,81633,1,0,0:0:0:0:
282,183,82050,5,2,0:0:0:0:
311,281,82532,6,0,P|289:281|265:284,1,35
229,312,83062,2,0,P|207:317|185:326,1,35
154,360,83593,5,0,0:0:0:0:
83,332,84101,1,0,0:0:0:0:
53,253,84609,6,0,B|57:222|57:185|57:185|40:181|27:172|27:172|49:182|78:178|99:150|94:122|85:104|69:93|46:89|31:94,1,251.999992309571,2|0,0:0|0:0,0:0:0:0:
