osu file format v14

[General]
AudioFilename: audio_1.4.mp3
AudioLeadIn: 0
PreviewTime: 0
Countdown: 1
SampleSet: Normal
StackLeniency: 0.7
Mode: 3
LetterboxInBreaks: 0
SpecialStyle: 0
WidescreenStoryboard: 0

[Editor]
DistanceSpacing: 1
BeatDivisor: 4
GridSize: 16
TimelineZoom: 1

[Metadata]
Title:Hymn (Gammer & G-Spencer Remix)
TitleUnicode:Hymn (Gammer & G-Spencer Remix)
Artist:Tina Cousins
ArtistUnicode:Tina Cousins
Creator:Insp1r3
Version:Challenge x1.4
Source:Yolomania Vol. 3
Tags:
BeatmapID:1786123
BeatmapSetID:854757

[Difficulty]
HPDrainRate:8
CircleSize:4
OverallDifficulty:5.5
ApproachRate:5
SliderMultiplier:1.4
SliderTickRate:1

[Events]
//Background and Video events
0,0,"hymn.png",0,0
//Break Periods
//Storyboard Layer 0 (Background)
//Storyboard Layer 1 (Fail)
//Storyboard Layer 2 (Pass)
//Storyboard Layer 3 (Foreground)
//Storyboard Sound Samples

[TimingPoints]
72,199.295689034951,4,1,0,15,1,0

[HitObjects]
192,192,22,5,0,0:0:0:0:
64,0,72,1,0,0:0:0:0:
448,0,72,128,0,370:0:0:0:0:
320,0,72,1,0,0:0:0:0:
448,0,470,1,0,0:0:0:0:
320,0,869,128,0,1167:0:0:0:0:
320,0,1267,1,0,0:0:0:0:
192,0,1666,128,0,1965:0:0:0:0:
192,0,2065,1,0,0:0:0:0:
192,0,2264,1,0,0:0:0:0:
448,0,2463,128,0,2762:0:0:0:0:
448,0,2862,1,0,0:0:0:0:
320,0,3160,1,0,0:0:0:0:
320,0,3260,128,0,3559:0:0:0:0:
320,0,3659,1,0,0:0:0:0:
320,0,3858,1,0,0:0:0:0:
320,0,4057,128,0,4356:0:0:0:0:
448,0,4755,128,0,4954:0:0:0:0:
448,0,5054,128,0,5253:0:0:0:0:
64,0,5253,1,0,0:0:0:0:
64,0,5452,128,0,5652:0:0:0:0:
64,0,5751,128,0,5950:0:0:0:0:
64,0,6050,1,0,0:0:0:0:
320,0,6250,1,0,0:0:0:0:
192,0,6349,1,0,0:0:0:0:
64,0,6449,1,0,0:0:0:0:
448,0,6449,128,0,6747:0:0:0:0:
320,0,6847,1,0,0:0:0:0:
448,0,6847,1,0,0:0:0:0:
192,0,7246,1,0,0:0:0:0:
320,0,7246,128,0,7545:0:0:0:0:
64,0,7645,1,0,0:0:0:0:
320,0,7645,1,0,0:0:0:0:
320,0,7844,1,0,0:0:0:0:
192,0,7944,1,0,0:0:0:0:
64,0,8043,128,0,8342:0:0:0:0:
320,0,8043,1,0,0:0:0:0:
64,0,8442,1,0,0:0:0:0:
192,0,8442,1,0,0:0:0:0:
64,0,8641,1,0,0:0:0:0:
192,0,8641,1,0,0:0:0:0:
64,0,8840,1,0,0:0:0:0:
192,0,8840,128,0,9140:0:0:0:0:
64,0,9239,1,0,0:0:0:0:
192,0,9239,1,0,0:0:0:0:
192,0,9438,1,0,0:0:0:0:
64,0,9538,1,0,0:0:0:0:
448,0,9538,1,0,0:0:0:0:
192,0,9637,1,0,0:0:0:0:
448,0,9637,1,0,0:0:0:0:
320,0,9687,1,0,0:0:0:0:
192,0,9737,1,0,0:0:0:0:
64,0,9787,1,0,0:0:0:0:
448,0,9837,1,0,0:0:0:0:
192,0,9887,1,0,0:0:0:0:
320,0,9937,1,0,0:0:0:0:
448,0,9986,1,0,0:0:0:0:
64,0,10036,1,0,0:0:0:0:
192,0,10036,1,0,0:0:0:0:
448,0,10086,1,0,0:0:0:0:
320,0,10136,1,0,0:0:0:0:
192,0,10185,1,0,0:0:0:0:
64,0,10235,1,0,0:0:0:0:
448,0,10235,1,0,0:0:0:0:
192,0,10285,1,0,0:0:0:0:
320,0,10335,1,0,0:0:0:0:
448,0,10385,1,0,0:0:0:0:
64,0,10435,1,0,0:0:0:0:
192,0,10435,1,0,0:0:0:0:
320,0,10485,1,0,0:0:0:0:
192,0,10535,1,0,0:0:0:0:
320,0,10584,1,0,0:0:0:0:
192,0,10634,1,0,0:0:0:0:
320,0,10684,1,0,0:0:0:0:
192,0,10734,1,0,0:0:0:0:
320,0,10784,1,0,0:0:0:0:
192,0,10833,1,0,0:0:0:0:
320,0,10883,1,0,0:0:0:0:
448,0,10933,1,0,0:0:0:0:
64,0,10983,1,0,0:0:0:0:
192,0,11032,1,0,0:0:0:0:
320,0,11082,1,0,0:0:0:0:
64,0,11132,1,0,0:0:0:0:
448,0,11132,1,0,0:0:0:0:
192,0,11182,1,0,0:0:0:0:
320,0,11232,1,0,0:0:0:0:
448,0,11282,1,0,0:0:0:0:
320,0,11332,1,0,0:0:0:0:
192,0,11382,1,0,0:0:0:0:
64,0,11431,1,0,0:0:0:0:
448,0,11431,1,0,0:0:0:0:
192,0,11481,1,0,0:0:0:0:
320,0,11531,1,0,0:0:0:0:
192,0,11581,1,0,0:0:0:0:
64,0,11630,1,0,0:0:0:0:
448,0,11630,1,0,0:0:0:0:
320,0,11680,1,0,0:0:0:0:
192,0,11730,1,0,0:0:0:0:
320,0,11780,1,0,0:0:0:0:
64,0,11830,1,0,0:0:0:0:
448,0,11830,1,0,0:0:0:0:
192,0,11880,1,0,0:0:0:0:
320,0,11930,1,0,0:0:0:0:
448,0,11980,1,0,0:0:0:0:
64,0,12029,1,0,0:0:0:0:
192,0,12029,1,0,0:0:0:0:
64,0,12129,1,0,0:0:0:0:
448,0,12129,128,0,12727:0:0:0:0:
64,0,12826,1,0,0:0:0:0:
320,0,12826,1,0,0:0:0:0:
448,0,12826,1,0,0:0:0:0:
192,0,12926,1,0,0:0:0:0:
64,0,13025,1,0,0:0:0:0:
448,0,13025,1,0,0:0:0:0:
192,0,13125,1,0,0:0:0:0:
320,0,13125,1,0,0:0:0:0:
64,0,13225,1,0,0:0:0:0:
192,0,13225,1,0,0:0:0:0:
320,0,13325,1,0,0:0:0:0:
448,0,13325,1,0,0:0:0:0:
64,0,13424,1,0,0:0:0:0:
320,0,13424,1,0,0:0:0:0:
192,0,13524,1,0,0:0:0:0:
448,0,13524,1,0,0:0:0:0:
64,0,13623,1,0,0:0:0:0:
320,0,13723,1,0,0:0:0:0:
448,0,13723,1,0,0:0:0:0:
320,0,13822,1,0,0:0:0:0:
448,0,13822,1,0,0:0:0:0:
64,0,13922,1,0,0:0:0:0:
192,0,14022,1,0,0:0:0:0:
448,0,14022,1,0,0:0:0:0:
192,0,14122,1,0,0:0:0:0:
448,0,14122,1,0,0:0:0:0:
320,0,14221,1,0,0:0:0:0:
448,0,14221,1,0,0:0:0:0:
192,0,14321,1,0,0:0:0:0:
320,0,14321,1,0,0:0:0:0:
64,0,14421,1,0,0:0:0:0:
320,0,14520,1,0,0:0:0:0:
448,0,14520,1,0,0:0:0:0:
192,0,14620,1,0,0:0:0:0:
320,0,14620,1,0,0:0:0:0:
64,0,14720,1,0,0:0:0:0:
192,0,14820,1,0,0:0:0:0:
320,0,14820,1,0,0:0:0:0:
320,0,14919,1,0,0:0:0:0:
448,0,14919,1,0,0:0:0:0:
64,0,15019,1,0,0:0:0:0:
448,0,15019,1,0,0:0:0:0:
64,0,15118,1,0,0:0:0:0:
192,0,15118,1,0,0:0:0:0:
320,0,15218,1,0,0:0:0:0:
64,0,15317,1,0,0:0:0:0:
448,0,15317,1,0,0:0:0:0:
64,0,15417,1,0,0:0:0:0:
192,0,15417,1,0,0:0:0:0:
320,0,15517,1,0,0:0:0:0:
64,0,15617,1,0,0:0:0:0:
448,0,15617,1,0,0:0:0:0:
320,0,15716,1,0,0:0:0:0:
64,0,15816,1,0,0:0:0:0:
448,0,15816,1,0,0:0:0:0:
64,0,15915,1,0,0:0:0:0:
448,0,15915,1,0,0:0:0:0:
64,0,16015,1,0,0:0:0:0:
192,0,16015,1,0,0:0:0:0:
448,0,16015,1,0,0:0:0:0:
192,0,16115,1,0,0:0:0:0:
320,0,16215,1,0,0:0:0:0:
448,0,16215,1,0,0:0:0:0:
64,0,16314,1,0,0:0:0:0:
192,0,16314,1,0,0:0:0:0:
192,0,16414,1,0,0:0:0:0:
320,0,16414,1,0,0:0:0:0:
64,0,16513,1,0,0:0:0:0:
448,0,16513,1,0,0:0:0:0:
64,0,16613,1,0,0:0:0:0:
192,0,16613,1,0,0:0:0:0:
192,0,16712,1,0,0:0:0:0:
320,0,16712,1,0,0:0:0:0:
64,0,16812,1,0,0:0:0:0:
320,0,16912,1,0,0:0:0:0:
448,0,16912,1,0,0:0:0:0:
192,0,17012,1,0,0:0:0:0:
320,0,17012,1,0,0:0:0:0:
64,0,17111,1,0,0:0:0:0:
192,0,17211,1,0,0:0:0:0:
320,0,17211,1,0,0:0:0:0:
320,0,17310,1,0,0:0:0:0:
448,0,17310,1,0,0:0:0:0:
64,0,17410,1,0,0:0:0:0:
448,0,17410,1,0,0:0:0:0:
64,0,17510,1,0,0:0:0:0:
192,0,17510,1,0,0:0:0:0:
320,0,17610,1,0,0:0:0:0:
64,0,17709,1,0,0:0:0:0:
448,0,17709,1,0,0:0:0:0:
64,0,17809,1,0,0:0:0:0:
448,0,17809,1,0,0:0:0:0:
192,0,17908,1,0,0:0:0:0:
64,0,18008,1,0,0:0:0:0:
448,0,18008,1,0,0:0:0:0:
64,0,18107,1,0,0:0:0:0:
192,0,18107,1,0,0:0:0:0:
192,0,18207,1,0,0:0:0:0:
448,0,18207,1,0,0:0:0:0:
320,0,18307,1,0,0:0:0:0:
448,0,18307,1,0,0:0:0:0:
192,0,18407,1,0,0:0:0:0:
320,0,18506,1,0,0:0:0:0:
448,0,18506,1,0,0:0:0:0:
320,0,18606,1,0,0:0:0:0:
448,0,18606,1,0,0:0:0:0:
192,0,18705,1,0,0:0:0:0:
64,0,18805,1,0,0:0:0:0:
448,0,18805,1,0,0:0:0:0:
64,0,18905,1,0,0:0:0:0:
192,0,18905,1,0,0:0:0:0:
320,0,19005,1,0,0:0:0:0:
64,0,19104,1,0,0:0:0:0:
192,0,19104,1,0,0:0:0:0:
64,0,19204,1,0,0:0:0:0:
192,0,19204,1,0,0:0:0:0:
448,0,19204,1,0,0:0:0:0:
320,0,19254,1,0,0:0:0:0:
192,0,19303,1,0,0:0:0:0:
320,0,19353,1,0,0:0:0:0:
64,0,19403,1,0,0:0:0:0:
448,0,19403,1,0,0:0:0:0:
192,0,19453,1,0,0:0:0:0:
64,0,19502,1,0,0:0:0:0:
448,0,19502,1,0,0:0:0:0:
192,0,19552,1,0,0:0:0:0:
320,0,19602,1,0,0:0:0:0:
448,0,19602,1,0,0:0:0:0:
64,0,19652,1,0,0:0:0:0:
320,0,19702,1,0,0:0:0:0:
448,0,19702,1,0,0:0:0:0:
64,0,19752,1,0,0:0:0:0:
192,0,19802,1,0,0:0:0:0:
448,0,19802,1,0,0:0:0:0:
320,0,19852,1,0,0:0:0:0:
64,0,19901,1,0,0:0:0:0:
192,0,19901,1,0,0:0:0:0:
320,0,19951,1,0,0:0:0:0:
448,0,20001,1,0,0:0:0:0:
192,0,20051,1,0,0:0:0:0:
320,0,20100,1,0,0:0:0:0:
448,0,20100,1,0,0:0:0:0:
192,0,20150,1,0,0:0:0:0:
64,0,20200,1,0,0:0:0:0:
320,0,20200,1,0,0:0:0:0:
448,0,20250,1,0,0:0:0:0:
192,0,20300,1,0,0:0:0:0:
320,0,20350,1,0,0:0:0:0:
64,0,20400,1,0,0:0:0:0:
448,0,20400,1,0,0:0:0:0:
192,0,20450,1,0,0:0:0:0:
64,0,20499,1,0,0:0:0:0:
448,0,20499,1,0,0:0:0:0:
192,0,20549,1,0,0:0:0:0:
320,0,20599,1,0,0:0:0:0:
448,0,20599,1,0,0:0:0:0:
64,0,20649,1,0,0:0:0:0:
320,0,20698,1,0,0:0:0:0:
448,0,20698,1,0,0:0:0:0:
64,0,20748,1,0,0:0:0:0:
192,0,20798,1,0,0:0:0:0:
320,0,20848,1,0,0:0:0:0:
64,0,20897,1,0,0:0:0:0:
448,0,20897,1,0,0:0:0:0:
320,0,20947,1,0,0:0:0:0:
64,0,20997,1,0,0:0:0:0:
192,0,20997,1,0,0:0:0:0:
448,0,21047,1,0,0:0:0:0:
320,0,21097,1,0,0:0:0:0:
192,0,21147,1,0,0:0:0:0:
64,0,21197,1,0,0:0:0:0:
448,0,21197,1,0,0:0:0:0:
192,0,21247,1,0,0:0:0:0:
64,0,21296,1,0,0:0:0:0:
448,0,21296,1,0,0:0:0:0:
320,0,21346,1,0,0:0:0:0:
64,0,21396,1,0,0:0:0:0:
192,0,21396,1,0,0:0:0:0:
320,0,21446,1,0,0:0:0:0:
64,0,21496,1,0,0:0:0:0:
192,0,21496,1,0,0:0:0:0:
448,0,21545,1,0,0:0:0:0:
320,0,21595,1,0,0:0:0:0:
192,0,21645,1,0,0:0:0:0:
64,0,21695,1,0,0:0:0:0:
448,0,21695,1,0,0:0:0:0:
192,0,21745,1,0,0:0:0:0:
320,0,21795,1,0,0:0:0:0:
448,0,21795,1,0,0:0:0:0:
64,0,21845,1,0,0:0:0:0:
192,0,21895,1,0,0:0:0:0:
320,0,21944,1,0,0:0:0:0:
64,0,21994,1,0,0:0:0:0:
192,0,21994,1,0,0:0:0:0:
320,0,22044,1,0,0:0:0:0:
448,0,22094,1,0,0:0:0:0:
64,0,22143,1,0,0:0:0:0:
320,0,22193,1,0,0:0:0:0:
448,0,22193,1,0,0:0:0:0:
64,0,22243,1,0,0:0:0:0:
320,0,22293,1,0,0:0:0:0:
448,0,22293,1,0,0:0:0:0:
192,0,22342,1,0,0:0:0:0:
64,0,22392,1,0,0:0:0:0:
320,0,22392,1,0,0:0:0:0:
448,0,22392,1,0,0:0:0:0:
192,0,22442,1,0,0:0:0:0:
64,0,22492,1,0,0:0:0:0:
320,0,22492,1,0,0:0:0:0:
448,0,22542,1,0,0:0:0:0:
64,0,22592,1,0,0:0:0:0:
192,0,22592,1,0,0:0:0:0:
320,0,22642,1,0,0:0:0:0:
64,0,22692,1,0,0:0:0:0:
448,0,22692,1,0,0:0:0:0:
192,0,22741,1,0,0:0:0:0:
320,0,22791,1,0,0:0:0:0:
448,0,22791,1,0,0:0:0:0:
64,0,22841,1,0,0:0:0:0:
192,0,22891,1,0,0:0:0:0:
320,0,22891,1,0,0:0:0:0:
448,0,22940,1,0,0:0:0:0:
64,0,22990,1,0,0:0:0:0:
192,0,22990,1,0,0:0:0:0:
320,0,23040,1,0,0:0:0:0:
64,0,23090,1,0,0:0:0:0:
448,0,23090,1,0,0:0:0:0:
192,0,23140,1,0,0:0:0:0:
320,0,23190,1,0,0:0:0:0:
448,0,23190,1,0,0:0:0:0:
64,0,23240,1,0,0:0:0:0:
192,0,23290,1,0,0:0:0:0:
320,0,23290,1,0,0:0:0:0:
448,0,23339,1,0,0:0:0:0:
64,0,23389,1,0,0:0:0:0:
192,0,23389,1,0,0:0:0:0:
320,0,23439,1,0,0:0:0:0:
64,0,23489,1,0,0:0:0:0:
448,0,23489,1,0,0:0:0:0:
192,0,23538,1,0,0:0:0:0:
320,0,23588,1,0,0:0:0:0:
448,0,23588,1,0,0:0:0:0:
64,0,23638,1,0,0:0:0:0:
192,0,23688,1,0,0:0:0:0:
320,0,23688,1,0,0:0:0:0:
448,0,23737,1,0,0:0:0:0:
64,0,23787,1,0,0:0:0:0:
192,0,23787,1,0,0:0:0:0:
320,0,23837,1,0,0:0:0:0:
64,0,23887,1,0,0:0:0:0:
448,0,23887,1,0,0:0:0:0:
192,0,23937,1,0,0:0:0:0:
320,0,23987,1,0,0:0:0:0:
448,0,23987,1,0,0:0:0:0:
64,0,24037,1,0,0:0:0:0:
192,0,24037,1,0,0:0:0:0:
320,0,24087,1,0,0:0:0:0:
448,0,24087,1,0,0:0:0:0:
64,0,24136,1,0,0:0:0:0:
192,0,24136,1,0,0:0:0:0:
320,0,24186,1,0,0:0:0:0:
448,0,24186,1,0,0:0:0:0:
64,0,24236,1,0,0:0:0:0:
192,0,24236,1,0,0:0:0:0:
320,0,24286,1,0,0:0:0:0:
448,0,24286,1,0,0:0:0:0:
64,0,24335,1,0,0:0:0:0:
192,0,24335,1,0,0:0:0:0:
320,0,24385,1,0,0:0:0:0:
448,0,24385,1,0,0:0:0:0:
64,0,24435,1,0,0:0:0:0:
192,0,24435,1,0,0:0:0:0:
320,0,24485,1,0,0:0:0:0:
448,0,24485,1,0,0:0:0:0:
64,0,24535,1,0,0:0:0:0:
192,0,24535,1,0,0:0:0:0:
320,0,24585,1,0,0:0:0:0:
448,0,24585,1,0,0:0:0:0:
64,0,24635,1,0,0:0:0:0:
192,0,24635,1,0,0:0:0:0:
320,0,24685,1,0,0:0:0:0:
448,0,24685,1,0,0:0:0:0:
64,0,24734,1,0,0:0:0:0:
192,0,24734,1,0,0:0:0:0:
448,0,24784,1,0,0:0:0:0:
320,0,24834,1,0,0:0:0:0:
192,0,24834,1,0,0:0:0:0:
64,0,24884,1,0,0:0:0:0:
448,0,24884,1,0,0:0:0:0:
320,0,24933,1,0,0:0:0:0:
192,0,24933,1,0,0:0:0:0:
64,0,24983,1,0,0:0:0:0:
448,0,24983,1,0,0:0:0:0:
320,0,25033,1,0,0:0:0:0:
192,0,25033,1,0,0:0:0:0:
64,0,25083,1,0,0:0:0:0:
448,0,25083,1,0,0:0:0:0:
320,0,25133,1,0,0:0:0:0:
192,0,25133,1,0,0:0:0:0:
64,0,25182,1,0,0:0:0:0:
448,0,25182,1,0,0:0:0:0:
320,0,25232,1,0,0:0:0:0:
192,0,25232,1,0,0:0:0:0:
64,0,25282,1,0,0:0:0:0:
448,0,25282,1,0,0:0:0:0:
320,0,25332,1,0,0:0:0:0:
192,0,25332,1,0,0:0:0:0:
64,0,25382,1,0,0:0:0:0:
320,0,25382,1,0,0:0:0:0:
448,0,25382,1,0,0:0:0:0:
64,0,25432,1,0,0:0:0:0:
192,0,25432,1,0,0:0:0:0:
320,0,25482,1,0,0:0:0:0:
448,0,25482,1,0,0:0:0:0:
192,0,25532,1,0,0:0:0:0:
64,0,25581,1,0,0:0:0:0:
320,0,25581,1,0,0:0:0:0:
448,0,25581,1,0,0:0:0:0:
192,0,25631,1,0,0:0:0:0:
320,0,25681,1,0,0:0:0:0:
448,0,25731,1,0,0:0:0:0:
64,0,25780,1,0,0:0:0:0:
192,0,25780,1,0,0:0:0:0:
320,0,25830,1,0,0:0:0:0:
64,0,25880,1,0,0:0:0:0:
448,0,25880,1,0,0:0:0:0:
192,0,25930,1,0,0:0:0:0:
320,0,25980,1,0,0:0:0:0:
448,0,25980,1,0,0:0:0:0:
64,0,26030,1,0,0:0:0:0:
192,0,26080,1,0,0:0:0:0:
320,0,26080,1,0,0:0:0:0:
448,0,26130,1,0,0:0:0:0:
64,0,26179,1,0,0:0:0:0:
192,0,26179,1,0,0:0:0:0:
448,0,26229,1,0,0:0:0:0:
64,0,26279,1,0,0:0:0:0:
192,0,26279,1,0,0:0:0:0:
320,0,26329,1,0,0:0:0:0:
448,0,26378,1,0,0:0:0:0:
192,0,26428,1,0,0:0:0:0:
64,0,26478,1,0,0:0:0:0:
448,0,26478,1,0,0:0:0:0:
192,0,26528,1,0,0:0:0:0:
64,0,26577,1,0,0:0:0:0:
448,0,26577,1,0,0:0:0:0:
320,0,26627,1,0,0:0:0:0:
192,0,26677,1,0,0:0:0:0:
64,0,26727,1,0,0:0:0:0:
320,0,26777,1,0,0:0:0:0:
448,0,26777,1,0,0:0:0:0:
192,0,26827,1,0,0:0:0:0:
320,0,26877,1,0,0:0:0:0:
448,0,26877,1,0,0:0:0:0:
192,0,26927,1,0,0:0:0:0:
64,0,26976,1,0,0:0:0:0:
448,0,26976,1,0,0:0:0:0:
320,0,27026,1,0,0:0:0:0:
64,0,27076,1,0,0:0:0:0:
448,0,27076,1,0,0:0:0:0:
320,0,27126,1,0,0:0:0:0:
192,0,27175,1,0,0:0:0:0:
64,0,27225,1,0,0:0:0:0:
320,0,27275,1,0,0:0:0:0:
448,0,27275,1,0,0:0:0:0:
192,0,27325,1,0,0:0:0:0:
320,0,27375,1,0,0:0:0:0:
448,0,27375,1,0,0:0:0:0:
192,0,27425,1,0,0:0:0:0:
64,0,27475,1,0,0:0:0:0:
448,0,27525,1,0,0:0:0:0:
64,0,27574,1,0,0:0:0:0:
320,0,27574,1,0,0:0:0:0:
192,0,27624,1,0,0:0:0:0:
64,0,27674,1,0,0:0:0:0:
320,0,27674,1,0,0:0:0:0:
192,0,27724,1,0,0:0:0:0:
320,0,27773,1,0,0:0:0:0:
448,0,27773,1,0,0:0:0:0:
64,0,27823,1,0,0:0:0:0:
320,0,27873,1,0,0:0:0:0:
448,0,27873,1,0,0:0:0:0:
64,0,27923,1,0,0:0:0:0:
192,0,27972,1,0,0:0:0:0:
320,0,28022,1,0,0:0:0:0:
64,0,28072,1,0,0:0:0:0:
448,0,28072,1,0,0:0:0:0:
192,0,28122,1,0,0:0:0:0:
64,0,28172,1,0,0:0:0:0:
448,0,28172,1,0,0:0:0:0:
192,0,28222,1,0,0:0:0:0:
320,0,28272,1,0,0:0:0:0:
448,0,28322,1,0,0:0:0:0:
64,0,28371,1,0,0:0:0:0:
192,0,28371,1,0,0:0:0:0:
320,0,28421,1,0,0:0:0:0:
448,0,28471,1,0,0:0:0:0:
64,0,28521,1,0,0:0:0:0:
192,0,28570,1,0,0:0:0:0:
320,0,28570,1,0,0:0:0:0:
448,0,28620,1,0,0:0:0:0:
192,0,28670,1,0,0:0:0:0:
320,0,28670,1,0,0:0:0:0:
448,0,28720,1,0,0:0:0:0:
64,0,28770,1,0,0:0:0:0:
192,0,28820,1,0,0:0:0:0:
320,0,28870,1,0,0:0:0:0:
64,0,28920,1,0,0:0:0:0:
320,0,28970,1,0,0:0:0:0:
448,0,28970,1,0,0:0:0:0:
192,0,29019,1,0,0:0:0:0:
64,0,29069,1,0,0:0:0:0:
448,0,29069,1,0,0:0:0:0:
320,0,29119,1,0,0:0:0:0:
64,0,29169,1,0,0:0:0:0:
192,0,29169,1,0,0:0:0:0:
448,0,29218,1,0,0:0:0:0:
192,0,29268,1,0,0:0:0:0:
320,0,29268,1,0,0:0:0:0:
64,0,29318,1,0,0:0:0:0:
320,0,29368,1,0,0:0:0:0:
448,0,29368,1,0,0:0:0:0:
192,0,29417,1,0,0:0:0:0:
64,0,29467,1,0,0:0:0:0:
448,0,29467,1,0,0:0:0:0:
320,0,29517,1,0,0:0:0:0:
192,0,29567,1,0,0:0:0:0:
64,0,29617,1,0,0:0:0:0:
320,0,29667,1,0,0:0:0:0:
448,0,29667,1,0,0:0:0:0:
192,0,29717,1,0,0:0:0:0:
320,0,29767,1,0,0:0:0:0:
448,0,29767,1,0,0:0:0:0:
192,0,29816,1,0,0:0:0:0:
64,0,29866,1,0,0:0:0:0:
320,0,29916,1,0,0:0:0:0:
192,0,29966,1,0,0:0:0:0:
448,0,29966,1,0,0:0:0:0:
64,0,30015,1,0,0:0:0:0:
192,0,30065,1,0,0:0:0:0:
448,0,30065,1,0,0:0:0:0:
64,0,30115,1,0,0:0:0:0:
320,0,30165,1,0,0:0:0:0:
448,0,30165,1,0,0:0:0:0:
192,0,30215,1,0,0:0:0:0:
320,0,30265,1,0,0:0:0:0:
448,0,30265,1,0,0:0:0:0:
192,0,30315,1,0,0:0:0:0:
64,0,30365,1,0,0:0:0:0:
320,0,30414,1,0,0:0:0:0:
64,0,30464,1,0,0:0:0:0:
448,0,30464,1,0,0:0:0:0:
192,0,30514,1,0,0:0:0:0:
64,0,30564,1,0,0:0:0:0:
448,0,30564,1,0,0:0:0:0:
192,0,30613,1,0,0:0:0:0:
320,0,30663,1,0,0:0:0:0:
448,0,30713,1,0,0:0:0:0:
64,0,30763,1,0,0:0:0:0:
192,0,30763,1,0,0:0:0:0:
320,0,30812,1,0,0:0:0:0:
64,0,30862,1,0,0:0:0:0:
192,0,30862,1,0,0:0:0:0:
320,0,30912,1,0,0:0:0:0:
192,0,30962,1,0,0:0:0:0:
448,0,30962,1,0,0:0:0:0:
64,0,31012,1,0,0:0:0:0:
192,0,31062,1,0,0:0:0:0:
448,0,31062,1,0,0:0:0:0:
64,0,31112,1,0,0:0:0:0:
320,0,31162,1,0,0:0:0:0:
448,0,31211,1,0,0:0:0:0:
64,0,31261,1,0,0:0:0:0:
192,0,31261,1,0,0:0:0:0:
320,0,31311,1,0,0:0:0:0:
64,0,31361,1,0,0:0:0:0:
448,0,31361,1,0,0:0:0:0:
320,0,31410,1,0,0:0:0:0:
192,0,31460,1,0,0:0:0:0:
64,0,31510,1,0,0:0:0:0:
320,0,31560,1,0,0:0:0:0:
448,0,31560,1,0,0:0:0:0:
192,0,31610,1,0,0:0:0:0:
320,0,31660,1,0,0:0:0:0:
448,0,31660,1,0,0:0:0:0:
192,0,31710,1,0,0:0:0:0:
64,0,31760,1,0,0:0:0:0:
448,0,31809,1,0,0:0:0:0:
64,0,31859,1,0,0:0:0:0:
192,0,31859,1,0,0:0:0:0:
320,0,31909,1,0,0:0:0:0:
64,0,31959,1,0,0:0:0:0:
192,0,31959,1,0,0:0:0:0:
448,0,31959,1,0,0:0:0:0:
320,0,32008,1,0,0:0:0:0:
192,0,32058,1,0,0:0:0:0:
64,0,32108,1,0,0:0:0:0:
320,0,32158,1,0,0:0:0:0:
448,0,32158,1,0,0:0:0:0:
192,0,32208,1,0,0:0:0:0:
64,0,32257,1,0,0:0:0:0:
448,0,32257,1,0,0:0:0:0:
320,0,32307,1,0,0:0:0:0:
64,0,32357,1,0,0:0:0:0:
192,0,32357,1,0,0:0:0:0:
448,0,32407,1,0,0:0:0:0:
192,0,32457,1,0,0:0:0:0:
320,0,32457,1,0,0:0:0:0:
64,0,32507,1,0,0:0:0:0:
320,0,32557,1,0,0:0:0:0:
448,0,32557,1,0,0:0:0:0:
64,0,32607,1,0,0:0:0:0:
320,0,32656,1,0,0:0:0:0:
448,0,32656,1,0,0:0:0:0:
192,0,32706,1,0,0:0:0:0:
64,0,32756,1,0,0:0:0:0:
320,0,32806,1,0,0:0:0:0:
64,0,32855,1,0,0:0:0:0:
448,0,32855,1,0,0:0:0:0:
320,0,32905,1,0,0:0:0:0:
64,0,32955,1,0,0:0:0:0:
448,0,32955,1,0,0:0:0:0:
192,0,33005,1,0,0:0:0:0:
320,0,33055,1,0,0:0:0:0:
448,0,33105,1,0,0:0:0:0:
64,0,33155,1,0,0:0:0:0:
192,0,33155,1,0,0:0:0:0:
320,0,33205,1,0,0:0:0:0:
64,0,33254,1,0,0:0:0:0:
192,0,33254,1,0,0:0:0:0:
320,0,33304,1,0,0:0:0:0:
64,0,33354,1,0,0:0:0:0:
448,0,33354,1,0,0:0:0:0:
192,0,33404,1,0,0:0:0:0:
64,0,33453,1,0,0:0:0:0:
448,0,33453,1,0,0:0:0:0:
192,0,33503,1,0,0:0:0:0:
320,0,33553,1,0,0:0:0:0:
448,0,33603,1,0,0:0:0:0:
64,0,33652,1,0,0:0:0:0:
192,0,33652,1,0,0:0:0:0:
320,0,33702,1,0,0:0:0:0:
64,0,33752,1,0,0:0:0:0:
192,0,33752,1,0,0:0:0:0:
320,0,33802,1,0,0:0:0:0:
448,0,33852,1,0,0:0:0:0:
64,0,33902,1,0,0:0:0:0:
192,0,33952,1,0,0:0:0:0:
448,0,33952,1,0,0:0:0:0:
320,0,34002,1,0,0:0:0:0:
192,0,34051,1,0,0:0:0:0:
448,0,34051,1,0,0:0:0:0:
320,0,34101,1,0,0:0:0:0:
64,0,34151,1,0,0:0:0:0:
192,0,34151,1,0,0:0:0:0:
448,0,34201,1,0,0:0:0:0:
64,0,34250,1,0,0:0:0:0:
192,0,34250,1,0,0:0:0:0:
448,0,34300,1,0,0:0:0:0:
320,0,34350,1,0,0:0:0:0:
192,0,34400,1,0,0:0:0:0:
64,0,34450,1,0,0:0:0:0:
448,0,34450,1,0,0:0:0:0:
320,0,34500,1,0,0:0:0:0:
64,0,34550,1,0,0:0:0:0:
448,0,34550,1,0,0:0:0:0:
320,0,34600,1,0,0:0:0:0:
192,0,34649,1,0,0:0:0:0:
64,0,34699,1,0,0:0:0:0:
320,0,34749,1,0,0:0:0:0:
448,0,34749,1,0,0:0:0:0:
192,0,34799,1,0,0:0:0:0:
64,0,34848,1,0,0:0:0:0:
448,0,34898,1,0,0:0:0:0:
192,0,34948,1,0,0:0:0:0:
320,0,34948,1,0,0:0:0:0:
64,0,34998,1,0,0:0:0:0:
192,0,35047,1,0,0:0:0:0:
320,0,35047,1,0,0:0:0:0:
64,0,35097,1,0,0:0:0:0:
448,0,35147,1,0,0:0:0:0:
320,0,35197,1,0,0:0:0:0:
192,0,35247,1,0,0:0:0:0:
448,0,35297,1,0,0:0:0:0:
64,0,35347,1,0,0:0:0:0:
192,0,35347,1,0,0:0:0:0:
320,0,35397,1,0,0:0:0:0:
64,0,35446,1,0,0:0:0:0:
448,0,35446,1,0,0:0:0:0:
192,0,35496,1,0,0:0:0:0:
320,0,35546,1,0,0:0:0:0:
448,0,35546,1,0,0:0:0:0:
64,0,35596,1,0,0:0:0:0:
192,0,35645,1,0,0:0:0:0:
320,0,35645,1,0,0:0:0:0:
448,0,35695,1,0,0:0:0:0:
64,0,35745,1,0,0:0:0:0:
192,0,35745,1,0,0:0:0:0:
320,0,35795,1,0,0:0:0:0:
64,0,35845,1,0,0:0:0:0:
448,0,35845,1,0,0:0:0:0:
192,0,35895,1,0,0:0:0:0:
320,0,35945,1,0,0:0:0:0:
448,0,35995,1,0,0:0:0:0:
64,0,36045,1,0,0:0:0:0:
192,0,36045,1,0,0:0:0:0:
320,0,36094,1,0,0:0:0:0:
64,0,36144,1,0,0:0:0:0:
192,0,36144,1,0,0:0:0:0:
320,0,36194,1,0,0:0:0:0:
448,0,36244,1,0,0:0:0:0:
192,0,36293,1,0,0:0:0:0:
64,0,36343,1,0,0:0:0:0:
320,0,36343,1,0,0:0:0:0:
448,0,36393,1,0,0:0:0:0:
64,0,36443,1,0,0:0:0:0:
320,0,36443,1,0,0:0:0:0:
448,0,36492,1,0,0:0:0:0:
64,0,36542,1,0,0:0:0:0:
192,0,36542,1,0,0:0:0:0:
320,0,36592,1,0,0:0:0:0:
64,0,36642,1,0,0:0:0:0:
192,0,36642,1,0,0:0:0:0:
320,0,36692,1,0,0:0:0:0:
448,0,36742,1,0,0:0:0:0:
192,0,36792,1,0,0:0:0:0:
64,0,36842,1,0,0:0:0:0:
448,0,36842,1,0,0:0:0:0:
320,0,36891,1,0,0:0:0:0:
64,0,36941,1,0,0:0:0:0:
448,0,36941,1,0,0:0:0:0:
320,0,36991,1,0,0:0:0:0:
192,0,37041,1,0,0:0:0:0:
64,0,37090,1,0,0:0:0:0:
320,0,37140,1,0,0:0:0:0:
448,0,37140,1,0,0:0:0:0:
192,0,37190,1,0,0:0:0:0:
320,0,37240,1,0,0:0:0:0:
448,0,37240,1,0,0:0:0:0:
192,0,37290,1,0,0:0:0:0:
64,0,37340,1,0,0:0:0:0:
320,0,37340,1,0,0:0:0:0:
448,0,37390,1,0,0:0:0:0:
64,0,37440,1,0,0:0:0:0:
320,0,37440,1,0,0:0:0:0:
192,0,37539,1,0,0:0:0:0:
320,0,37639,1,0,0:0:0:0:
448,0,37639,1,0,0:0:0:0:
64,0,37738,1,0,0:0:0:0:
448,0,37738,1,0,0:0:0:0:
192,0,37838,1,0,0:0:0:0:
320,0,37937,1,0,0:0:0:0:
448,0,37937,1,0,0:0:0:0:
320,0,38037,1,0,0:0:0:0:
448,0,38037,1,0,0:0:0:0:
192,0,38137,1,0,0:0:0:0:
64,0,38237,1,0,0:0:0:0:
448,0,38237,1,0,0:0:0:0:
64,0,38336,1,0,0:0:0:0:
192,0,38336,1,0,0:0:0:0:
448,0,38336,1,0,0:0:0:0:
320,0,38386,1,0,0:0:0:0:
64,0,38436,1,0,0:0:0:0:
192,0,38436,1,0,0:0:0:0:
320,0,38485,1,0,0:0:0:0:
64,0,38535,1,0,0:0:0:0:
192,0,38535,1,0,0:0:0:0:
320,0,38585,1,0,0:0:0:0:
64,0,38635,1,0,0:0:0:0:
192,0,38635,1,0,0:0:0:0:
320,0,38685,1,0,0:0:0:0:
64,0,38735,1,0,0:0:0:0:
448,0,38735,1,0,0:0:0:0:
192,0,38785,1,0,0:0:0:0:
320,0,38835,1,0,0:0:0:0:
448,0,38884,1,0,0:0:0:0:
64,0,38934,1,0,0:0:0:0:
192,0,38934,1,0,0:0:0:0:
448,0,38984,1,0,0:0:0:0:
192,0,39034,1,0,0:0:0:0:
64,0,39083,1,0,0:0:0:0:
320,0,39133,1,0,0:0:0:0:
448,0,39133,1,0,0:0:0:0:
192,0,39183,1,0,0:0:0:0:
320,0,39233,1,0,0:0:0:0:
448,0,39233,1,0,0:0:0:0:
192,0,39282,1,0,0:0:0:0:
320,0,39332,1,0,0:0:0:0:
448,0,39332,1,0,0:0:0:0:
192,0,39382,1,0,0:0:0:0:
320,0,39432,1,0,0:0:0:0:
448,0,39432,1,0,0:0:0:0:
192,0,39482,1,0,0:0:0:0:
64,0,39532,1,0,0:0:0:0:
448,0,39532,1,0,0:0:0:0:
320,0,39582,1,0,0:0:0:0:
192,0,39632,1,0,0:0:0:0:
64,0,39682,1,0,0:0:0:0:
320,0,39731,1,0,0:0:0:0:
448,0,39731,1,0,0:0:0:0:
192,0,39781,1,0,0:0:0:0:
64,0,39831,1,0,0:0:0:0:
448,0,39881,1,0,0:0:0:0:
192,0,39930,1,0,0:0:0:0:
320,0,39930,1,0,0:0:0:0:
64,0,39980,1,0,0:0:0:0:
192,0,40030,1,0,0:0:0:0:
320,0,40030,1,0,0:0:0:0:
64,0,40080,1,0,0:0:0:0:
192,0,40130,1,0,0:0:0:0:
320,0,40130,1,0,0:0:0:0:
64,0,40180,1,0,0:0:0:0:
192,0,40230,1,0,0:0:0:0:
320,0,40230,1,0,0:0:0:0:
64,0,40280,1,0,0:0:0:0:
320,0,40329,1,0,0:0:0:0:
448,0,40329,1,0,0:0:0:0:
192,0,40379,1,0,0:0:0:0:
64,0,40429,1,0,0:0:0:0:
320,0,40479,1,0,0:0:0:0:
64,0,40528,1,0,0:0:0:0:
448,0,40528,1,0,0:0:0:0:
192,0,40578,1,0,0:0:0:0:
448,0,40628,1,0,0:0:0:0:
320,0,40678,1,0,0:0:0:0:
64,0,40727,1,0,0:0:0:0:
192,0,40727,1,0,0:0:0:0:
448,0,40777,1,0,0:0:0:0:
64,0,40827,1,0,0:0:0:0:
192,0,40827,1,0,0:0:0:0:
448,0,40877,1,0,0:0:0:0:
64,0,40927,1,0,0:0:0:0:
192,0,40927,1,0,0:0:0:0:
448,0,40977,1,0,0:0:0:0:
64,0,41027,1,0,0:0:0:0:
192,0,41027,1,0,0:0:0:0:
448,0,41077,1,0,0:0:0:0:
192,0,41126,1,0,0:0:0:0:
320,0,41126,1,0,0:0:0:0:
64,0,41176,1,0,0:0:0:0:
320,0,41226,1,0,0:0:0:0:
448,0,41276,1,0,0:0:0:0:
64,0,41325,1,0,0:0:0:0:
192,0,41325,1,0,0:0:0:0:
320,0,41375,1,0,0:0:0:0:
64,0,41425,1,0,0:0:0:0:
448,0,41425,1,0,0:0:0:0:
192,0,41475,1,0,0:0:0:0:
320,0,41525,1,0,0:0:0:0:
448,0,41525,1,0,0:0:0:0:
64,0,41575,1,0,0:0:0:0:
320,0,41625,1,0,0:0:0:0:
448,0,41625,1,0,0:0:0:0:
64,0,41675,1,0,0:0:0:0:
320,0,41724,1,0,0:0:0:0:
448,0,41724,1,0,0:0:0:0:
64,0,41774,1,0,0:0:0:0:
320,0,41824,1,0,0:0:0:0:
448,0,41824,1,0,0:0:0:0:
64,0,41874,1,0,0:0:0:0:
192,0,41923,1,0,0:0:0:0:
448,0,41923,1,0,0:0:0:0:
320,0,41973,1,0,0:0:0:0:
64,0,42023,1,0,0:0:0:0:
192,0,42073,1,0,0:0:0:0:
64,0,42122,1,0,0:0:0:0:
448,0,42122,1,0,0:0:0:0:
320,0,42172,1,0,0:0:0:0:
448,0,42222,1,0,0:0:0:0:
64,0,42272,1,0,0:0:0:0:
192,0,42322,1,0,0:0:0:0:
320,0,42322,1,0,0:0:0:0:
448,0,42372,1,0,0:0:0:0:
192,0,42422,1,0,0:0:0:0:
320,0,42422,1,0,0:0:0:0:
448,0,42472,1,0,0:0:0:0:
192,0,42521,1,0,0:0:0:0:
320,0,42521,1,0,0:0:0:0:
448,0,42571,1,0,0:0:0:0:
192,0,42621,1,0,0:0:0:0:
320,0,42621,1,0,0:0:0:0:
448,0,42671,1,0,0:0:0:0:
64,0,42720,1,0,0:0:0:0:
192,0,42720,1,0,0:0:0:0:
320,0,42770,1,0,0:0:0:0:
448,0,42820,1,0,0:0:0:0:
320,0,42870,1,0,0:0:0:0:
64,0,42920,1,0,0:0:0:0:
192,0,42920,1,0,0:0:0:0:
448,0,42970,1,0,0:0:0:0:
192,0,43020,1,0,0:0:0:0:
320,0,43020,1,0,0:0:0:0:
64,0,43070,1,0,0:0:0:0:
320,0,43120,1,0,0:0:0:0:
448,0,43120,1,0,0:0:0:0:
192,0,43169,1,0,0:0:0:0:
64,0,43219,1,0,0:0:0:0:
192,0,43269,1,0,0:0:0:0:
320,0,43319,1,0,0:0:0:0:
448,0,43319,1,0,0:0:0:0:
64,0,43368,1,0,0:0:0:0:
192,0,43418,1,0,0:0:0:0:
64,0,43468,1,0,0:0:0:0:
320,0,43518,1,0,0:0:0:0:
448,0,43518,1,0,0:0:0:0:
192,0,43567,1,0,0:0:0:0:
64,0,43617,1,0,0:0:0:0:
320,0,43667,1,0,0:0:0:0:
64,0,43717,1,0,0:0:0:0:
192,0,43717,1,0,0:0:0:0:
320,0,43767,1,0,0:0:0:0:
192,0,43817,1,0,0:0:0:0:
320,0,43867,1,0,0:0:0:0:
64,0,43917,1,0,0:0:0:0:
448,0,43917,1,0,0:0:0:0:
192,0,43966,1,0,0:0:0:0:
320,0,44016,1,0,0:0:0:0:
448,0,44016,1,0,0:0:0:0:
192,0,44066,1,0,0:0:0:0:
320,0,44116,1,0,0:0:0:0:
448,0,44116,1,0,0:0:0:0:
192,0,44165,1,0,0:0:0:0:
320,0,44215,1,0,0:0:0:0:
448,0,44265,1,0,0:0:0:0:
64,0,44315,1,0,0:0:0:0:
192,0,44315,1,0,0:0:0:0:
448,0,44365,1,0,0:0:0:0:
192,0,44415,1,0,0:0:0:0:
320,0,44415,1,0,0:0:0:0:
64,0,44465,1,0,0:0:0:0:
192,0,44515,1,0,0:0:0:0:
320,0,44564,1,0,0:0:0:0:
64,0,44614,1,0,0:0:0:0:
448,0,44614,1,0,0:0:0:0:
192,0,44664,1,0,0:0:0:0:
64,0,44714,1,0,0:0:0:0:
320,0,44714,1,0,0:0:0:0:
448,0,44714,1,0,0:0:0:0:
192,0,44763,1,0,0:0:0:0:
320,0,44813,1,0,0:0:0:0:
448,0,44813,1,0,0:0:0:0:
192,0,44863,1,0,0:0:0:0:
320,0,44913,1,0,0:0:0:0:
448,0,44913,1,0,0:0:0:0:
192,0,44962,1,0,0:0:0:0:
320,0,45012,1,0,0:0:0:0:
448,0,45012,1,0,0:0:0:0:
192,0,45062,1,0,0:0:0:0:
64,0,45112,1,0,0:0:0:0:
448,0,45112,1,0,0:0:0:0:
320,0,45162,1,0,0:0:0:0:
192,0,45212,1,0,0:0:0:0:
64,0,45262,1,0,0:0:0:0:
320,0,45312,1,0,0:0:0:0:
448,0,45312,1,0,0:0:0:0:
64,0,45361,1,0,0:0:0:0:
320,0,45411,1,0,0:0:0:0:
448,0,45461,1,0,0:0:0:0:
64,0,45511,1,0,0:0:0:0:
192,0,45511,1,0,0:0:0:0:
320,0,45560,1,0,0:0:0:0:
64,0,45610,1,0,0:0:0:0:
192,0,45610,1,0,0:0:0:0:
320,0,45660,1,0,0:0:0:0:
64,0,45710,1,0,0:0:0:0:
192,0,45710,1,0,0:0:0:0:
320,0,45760,1,0,0:0:0:0:
64,0,45810,1,0,0:0:0:0:
192,0,45810,1,0,0:0:0:0:
320,0,45860,1,0,0:0:0:0:
64,0,45910,1,0,0:0:0:0:
448,0,45910,1,0,0:0:0:0:
192,0,45959,1,0,0:0:0:0:
320,0,46009,1,0,0:0:0:0:
448,0,46059,1,0,0:0:0:0:
64,0,46109,1,0,0:0:0:0:
192,0,46109,1,0,0:0:0:0:
320,0,46158,1,0,0:0:0:0:
448,0,46208,1,0,0:0:0:0:
64,0,46258,1,0,0:0:0:0:
192,0,46308,1,0,0:0:0:0:
320,0,46308,1,0,0:0:0:0:
448,0,46357,1,0,0:0:0:0:
192,0,46407,1,0,0:0:0:0:
320,0,46407,1,0,0:0:0:0:
448,0,46457,1,0,0:0:0:0:
192,0,46507,1,0,0:0:0:0:
320,0,46507,1,0,0:0:0:0:
448,0,46557,1,0,0:0:0:0:
192,0,46607,1,0,0:0:0:0:
320,0,46607,1,0,0:0:0:0:
448,0,46657,1,0,0:0:0:0:
64,0,46707,1,0,0:0:0:0:
192,0,46707,1,0,0:0:0:0:
320,0,46757,1,0,0:0:0:0:
448,0,46806,1,0,0:0:0:0:
192,0,46856,1,0,0:0:0:0:
64,0,46906,1,0,0:0:0:0:
448,0,46906,1,0,0:0:0:0:
320,0,46956,1,0,0:0:0:0:
64,0,47005,1,0,0:0:0:0:
192,0,47055,1,0,0:0:0:0:
320,0,47105,1,0,0:0:0:0:
448,0,47105,1,0,0:0:0:0:
64,0,47155,1,0,0:0:0:0:
320,0,47205,1,0,0:0:0:0:
448,0,47205,1,0,0:0:0:0:
64,0,47255,1,0,0:0:0:0:
320,0,47305,1,0,0:0:0:0:
448,0,47305,1,0,0:0:0:0:
64,0,47355,1,0,0:0:0:0:
320,0,47404,1,0,0:0:0:0:
448,0,47404,1,0,0:0:0:0:
64,0,47454,1,0,0:0:0:0:
192,0,47504,1,0,0:0:0:0:
320,0,47504,1,0,0:0:0:0:
448,0,47554,1,0,0:0:0:0:
192,0,47603,1,0,0:0:0:0:
64,0,47653,1,0,0:0:0:0:
320,0,47703,1,0,0:0:0:0:
448,0,47703,1,0,0:0:0:0:
192,0,47753,1,0,0:0:0:0:
64,0,47802,1,0,0:0:0:0:
448,0,47802,1,0,0:0:0:0:
320,0,47852,1,0,0:0:0:0:
64,0,47902,1,0,0:0:0:0:
192,0,47902,1,0,0:0:0:0:
448,0,47952,1,0,0:0:0:0:
64,0,48002,1,0,0:0:0:0:
192,0,48002,1,0,0:0:0:0:
448,0,48052,1,0,0:0:0:0:
64,0,48102,1,0,0:0:0:0:
192,0,48102,1,0,0:0:0:0:
448,0,48152,1,0,0:0:0:0:
64,0,48201,1,0,0:0:0:0:
192,0,48201,1,0,0:0:0:0:
448,0,48251,1,0,0:0:0:0:
64,0,48301,1,0,0:0:0:0:
320,0,48301,1,0,0:0:0:0:
192,0,48351,1,0,0:0:0:0:
448,0,48400,1,0,0:0:0:0:
320,0,48450,1,0,0:0:0:0:
64,0,48500,1,0,0:0:0:0:
448,0,48500,1,0,0:0:0:0:
192,0,48550,1,0,0:0:0:0:
64,0,48600,1,0,0:0:0:0:
448,0,48650,1,0,0:0:0:0:
192,0,48700,1,0,0:0:0:0:
320,0,48700,1,0,0:0:0:0:
64,0,48750,1,0,0:0:0:0:
192,0,48799,1,0,0:0:0:0:
320,0,48799,1,0,0:0:0:0:
64,0,48849,1,0,0:0:0:0:
192,0,48899,1,0,0:0:0:0:
320,0,48899,1,0,0:0:0:0:
64,0,48949,1,0,0:0:0:0:
192,0,48998,1,0,0:0:0:0:
320,0,48998,1,0,0:0:0:0:
64,0,49048,1,0,0:0:0:0:
320,0,49098,1,0,0:0:0:0:
448,0,49098,1,0,0:0:0:0:
192,0,49148,1,0,0:0:0:0:
64,0,49197,1,0,0:0:0:0:
192,0,49247,1,0,0:0:0:0:
320,0,49297,1,0,0:0:0:0:
448,0,49297,1,0,0:0:0:0:
64,0,49347,1,0,0:0:0:0:
192,0,49397,1,0,0:0:0:0:
320,0,49397,1,0,0:0:0:0:
448,0,49447,1,0,0:0:0:0:
64,0,49497,1,0,0:0:0:0:
192,0,49497,1,0,0:0:0:0:
320,0,49547,1,0,0:0:0:0:
448,0,49596,1,0,0:0:0:0:
320,0,49646,1,0,0:0:0:0:
64,0,49696,1,0,0:0:0:0:
192,0,49696,1,0,0:0:0:0:
448,0,49746,1,0,0:0:0:0:
320,0,49795,1,0,0:0:0:0:
448,0,49845,1,0,0:0:0:0:
64,0,49895,1,0,0:0:0:0:
192,0,49895,1,0,0:0:0:0:
320,0,49945,1,0,0:0:0:0:
448,0,49995,1,0,0:0:0:0:
192,0,50045,1,0,0:0:0:0:
320,0,50095,1,0,0:0:0:0:
448,0,50095,1,0,0:0:0:0:
192,0,50145,1,0,0:0:0:0:
320,0,50195,1,0,0:0:0:0:
192,0,50244,1,0,0:0:0:0:
64,0,50294,1,0,0:0:0:0:
448,0,50294,1,0,0:0:0:0:
64,0,50394,1,0,0:0:0:0:
448,0,50394,128,0,50792:0:0:0:0:
64,0,50792,1,0,0:0:0:0:
192,0,50842,1,0,0:0:0:0:
320,0,50842,1,0,0:0:0:0:
448,0,50892,1,0,0:0:0:0:
320,0,50942,1,0,0:0:0:0:
320,0,51041,1,0,0:0:0:0:
64,0,51091,1,0,0:0:0:0:
192,0,51091,1,0,0:0:0:0:
448,0,51091,1,0,0:0:0:0:
320,0,51191,1,0,0:0:0:0:
64,0,51290,1,0,0:0:0:0:
448,0,51290,1,0,0:0:0:0:
320,0,51390,1,0,0:0:0:0:
192,0,51490,1,0,0:0:0:0:
320,0,51590,1,0,0:0:0:0:
64,0,51689,1,0,0:0:0:0:
448,0,51689,1,0,0:0:0:0:
320,0,51789,1,0,0:0:0:0:
192,0,51888,1,0,0:0:0:0:
320,0,51988,1,0,0:0:0:0:
64,0,52087,1,0,0:0:0:0:
448,0,52087,1,0,0:0:0:0:
320,0,52187,1,0,0:0:0:0:
192,0,52287,1,0,0:0:0:0:
320,0,52387,1,0,0:0:0:0:
64,0,52486,1,0,0:0:0:0:
448,0,52486,1,0,0:0:0:0:
320,0,52586,1,0,0:0:0:0:
192,0,52685,1,0,0:0:0:0:
448,0,52785,1,0,0:0:0:0:
64,0,52885,1,0,0:0:0:0:
320,0,52885,1,0,0:0:0:0:
448,0,52985,1,0,0:0:0:0:
192,0,53084,1,0,0:0:0:0:
448,0,53184,1,0,0:0:0:0:
64,0,53283,1,0,0:0:0:0:
320,0,53283,1,0,0:0:0:0:
448,0,53383,1,0,0:0:0:0:
192,0,53482,1,0,0:0:0:0:
448,0,53582,1,0,0:0:0:0:
64,0,53682,1,0,0:0:0:0:
320,0,53682,1,0,0:0:0:0:
448,0,53782,1,0,0:0:0:0:
192,0,53881,128,0,53931:0:0:0:0:
320,0,53881,128,0,53931:0:0:0:0:
192,0,53981,128,0,54031:0:0:0:0:
448,0,53981,128,0,54031:0:0:0:0:
64,0,54080,128,0,54130:0:0:0:0:
320,0,54080,128,0,54130:0:0:0:0:
320,0,54180,128,0,54230:0:0:0:0:
448,0,54180,128,0,54230:0:0:0:0:
64,0,54280,128,0,54330:0:0:0:0:
192,0,54280,128,0,54330:0:0:0:0:
448,0,54280,128,0,54330:0:0:0:0:
64,0,54380,128,0,54430:0:0:0:0:
192,0,54380,128,0,54430:0:0:0:0:
320,0,54479,128,0,54529:0:0:0:0:
448,0,54479,128,0,54529:0:0:0:0:
192,0,54579,1,0,0:0:0:0:
64,0,54678,1,0,0:0:0:0:
192,0,54778,1,0,0:0:0:0:
320,0,54877,1,0,0:0:0:0:
448,0,54877,1,0,0:0:0:0:
192,0,54977,1,0,0:0:0:0:
64,0,55077,1,0,0:0:0:0:
320,0,55077,1,0,0:0:0:0:
448,0,55077,1,0,0:0:0:0:
192,0,55177,1,0,0:0:0:0:
320,0,55276,1,0,0:0:0:0:
448,0,55276,1,0,0:0:0:0:
192,0,55376,1,0,0:0:0:0:
64,0,55475,1,0,0:0:0:0:
192,0,55575,1,0,0:0:0:0:
320,0,55675,1,0,0:0:0:0:
448,0,55675,1,0,0:0:0:0:
192,0,55775,1,0,0:0:0:0:
64,0,55874,1,0,0:0:0:0:
320,0,55874,1,0,0:0:0:0:
448,0,55874,1,0,0:0:0:0:
320,0,55974,1,0,0:0:0:0:
64,0,56073,1,0,0:0:0:0:
192,0,56073,1,0,0:0:0:0:
320,0,56173,1,0,0:0:0:0:
64,0,56272,1,0,0:0:0:0:
192,0,56272,1,0,0:0:0:0:
448,0,56272,1,0,0:0:0:0:
320,0,56372,1,0,0:0:0:0:
64,0,56472,1,0,0:0:0:0:
192,0,56472,1,0,0:0:0:0:
320,0,56572,1,0,0:0:0:0:
64,0,56671,1,0,0:0:0:0:
192,0,56671,1,0,0:0:0:0:
448,0,56671,1,0,0:0:0:0:
320,0,56771,1,0,0:0:0:0:
64,0,56870,1,0,0:0:0:0:
192,0,56870,1,0,0:0:0:0:
448,0,56870,1,0,0:0:0:0:
320,0,56970,1,0,0:0:0:0:
64,0,57070,128,0,57120:0:0:0:0:
192,0,57070,128,0,57120:0:0:0:0:
320,0,57070,128,0,57120:0:0:0:0:
64,0,57170,128,0,57220:0:0:0:0:
192,0,57170,128,0,57220:0:0:0:0:
448,0,57170,128,0,57220:0:0:0:0:
64,0,57270,128,0,57319:0:0:0:0:
320,0,57270,128,0,57319:0:0:0:0:
448,0,57270,128,0,57319:0:0:0:0:
192,0,57369,128,0,57419:0:0:0:0:
320,0,57369,128,0,57419:0:0:0:0:
448,0,57369,128,0,57419:0:0:0:0:
64,0,57469,128,0,57518:0:0:0:0:
192,0,57469,128,0,57518:0:0:0:0:
320,0,57518,1,0,0:0:0:0:
64,0,57568,128,0,57618:0:0:0:0:
448,0,57568,128,0,57618:0:0:0:0:
192,0,57618,1,0,0:0:0:0:
64,0,57668,128,0,57717:0:0:0:0:
320,0,57668,128,0,57717:0:0:0:0:
448,0,57668,128,0,57717:0:0:0:0:
192,0,57717,1,0,0:0:0:0:
320,0,57767,1,0,0:0:0:0:
64,0,57817,1,0,0:0:0:0:
192,0,57867,1,0,0:0:0:0:
448,0,57867,1,0,0:0:0:0:
320,0,57917,1,0,0:0:0:0:
64,0,57967,1,0,0:0:0:0:
192,0,58017,1,0,0:0:0:0:
64,0,58067,1,0,0:0:0:0:
320,0,58067,1,0,0:0:0:0:
448,0,58067,1,0,0:0:0:0:
192,0,58116,1,0,0:0:0:0:
448,0,58166,1,0,0:0:0:0:
320,0,58216,1,0,0:0:0:0:
64,0,58266,1,0,0:0:0:0:
192,0,58266,1,0,0:0:0:0:
320,0,58315,1,0,0:0:0:0:
448,0,58365,1,0,0:0:0:0:
192,0,58415,1,0,0:0:0:0:
64,0,58465,1,0,0:0:0:0:
320,0,58465,1,0,0:0:0:0:
448,0,58465,1,0,0:0:0:0:
192,0,58515,1,0,0:0:0:0:
64,0,58565,1,0,0:0:0:0:
448,0,58615,1,0,0:0:0:0:
192,0,58665,1,0,0:0:0:0:
320,0,58665,1,0,0:0:0:0:
448,0,58714,1,0,0:0:0:0:
64,0,58764,1,0,0:0:0:0:
192,0,58814,1,0,0:0:0:0:
64,0,58864,1,0,0:0:0:0:
320,0,58864,1,0,0:0:0:0:
448,0,58864,1,0,0:0:0:0:
192,0,58913,1,0,0:0:0:0:
320,0,58963,1,0,0:0:0:0:
448,0,59013,1,0,0:0:0:0:
64,0,59063,1,0,0:0:0:0:
192,0,59063,1,0,0:0:0:0:
448,0,59112,1,0,0:0:0:0:
64,0,59162,1,0,0:0:0:0:
320,0,59212,1,0,0:0:0:0:
64,0,59262,1,0,0:0:0:0:
192,0,59262,1,0,0:0:0:0:
448,0,59262,1,0,0:0:0:0:
320,0,59312,1,0,0:0:0:0:
192,0,59362,1,0,0:0:0:0:
64,0,59412,1,0,0:0:0:0:
320,0,59462,1,0,0:0:0:0:
448,0,59462,1,0,0:0:0:0:
64,0,59511,1,0,0:0:0:0:
192,0,59561,1,0,0:0:0:0:
448,0,59611,1,0,0:0:0:0:
64,0,59661,1,0,0:0:0:0:
192,0,59661,1,0,0:0:0:0:
320,0,59661,1,0,0:0:0:0:
448,0,59710,1,0,0:0:0:0:
64,0,59760,1,0,0:0:0:0:
320,0,59810,1,0,0:0:0:0:
192,0,59860,1,0,0:0:0:0:
448,0,59860,1,0,0:0:0:0:
320,0,59910,1,0,0:0:0:0:
64,0,59960,1,0,0:0:0:0:
192,0,60010,1,0,0:0:0:0:
64,0,60060,1,0,0:0:0:0:
320,0,60060,1,0,0:0:0:0:
448,0,60060,1,0,0:0:0:0:
192,0,60109,1,0,0:0:0:0:
320,0,60159,1,0,0:0:0:0:
448,0,60209,1,0,0:0:0:0:
64,0,60259,1,0,0:0:0:0:
192,0,60259,1,0,0:0:0:0:
448,0,60308,1,0,0:0:0:0:
320,0,60358,1,0,0:0:0:0:
64,0,60408,1,0,0:0:0:0:
192,0,60458,1,0,0:0:0:0:
320,0,60458,1,0,0:0:0:0:
448,0,60458,1,0,0:0:0:0:
64,0,60507,1,0,0:0:0:0:
192,0,60557,1,0,0:0:0:0:
448,0,60607,1,0,0:0:0:0:
64,0,60657,1,0,0:0:0:0:
320,0,60657,1,0,0:0:0:0:
448,0,60707,1,0,0:0:0:0:
192,0,60757,1,0,0:0:0:0:
320,0,60807,1,0,0:0:0:0:
64,0,60857,1,0,0:0:0:0:
192,0,60857,1,0,0:0:0:0:
448,0,60857,1,0,0:0:0:0:
320,0,60907,1,0,0:0:0:0:
64,0,60956,1,0,0:0:0:0:
192,0,61006,1,0,0:0:0:0:
320,0,61056,1,0,0:0:0:0:
448,0,61056,1,0,0:0:0:0:
192,0,61106,1,0,0:0:0:0:
64,0,61155,1,0,0:0:0:0:
448,0,61205,1,0,0:0:0:0:
64,0,61255,1,0,0:0:0:0:
192,0,61255,1,0,0:0:0:0:
320,0,61255,1,0,0:0:0:0:
448,0,61305,1,0,0:0:0:0:
192,0,61355,1,0,0:0:0:0:
64,0,61405,1,0,0:0:0:0:
320,0,61455,1,0,0:0:0:0:
448,0,61455,1,0,0:0:0:0:
192,0,61505,1,0,0:0:0:0:
64,0,61554,1,0,0:0:0:0:
320,0,61604,1,0,0:0:0:0:
64,0,61654,1,0,0:0:0:0:
192,0,61654,1,0,0:0:0:0:
448,0,61654,1,0,0:0:0:0:
320,0,61704,1,0,0:0:0:0:
192,0,61753,1,0,0:0:0:0:
448,0,61803,1,0,0:0:0:0:
64,0,61853,1,0,0:0:0:0:
320,0,61853,1,0,0:0:0:0:
192,0,61903,1,0,0:0:0:0:
448,0,61952,1,0,0:0:0:0:
320,0,62002,1,0,0:0:0:0:
64,0,62052,1,0,0:0:0:0:
192,0,62052,1,0,0:0:0:0:
448,0,62052,1,0,0:0:0:0:
320,0,62102,1,0,0:0:0:0:
64,0,62152,1,0,0:0:0:0:
192,0,62202,1,0,0:0:0:0:
320,0,62252,1,0,0:0:0:0:
448,0,62252,1,0,0:0:0:0:
192,0,62302,1,0,0:0:0:0:
320,0,62351,1,0,0:0:0:0:
192,0,62401,1,0,0:0:0:0:
64,0,62451,1,0,0:0:0:0:
320,0,62451,1,0,0:0:0:0:
448,0,62451,1,0,0:0:0:0:
192,0,62501,1,0,0:0:0:0:
320,0,62550,1,0,0:0:0:0:
192,0,62600,1,0,0:0:0:0:
320,0,62650,1,0,0:0:0:0:
448,0,62650,1,0,0:0:0:0:
192,0,62700,1,0,0:0:0:0:
320,0,62750,1,0,0:0:0:0:
192,0,62800,1,0,0:0:0:0:
64,0,62850,1,0,0:0:0:0:
320,0,62850,1,0,0:0:0:0:
448,0,62850,1,0,0:0:0:0:
192,0,62900,1,0,0:0:0:0:
320,0,62949,1,0,0:0:0:0:
448,0,62949,1,0,0:0:0:0:
192,0,62999,1,0,0:0:0:0:
64,0,63049,1,0,0:0:0:0:
448,0,63049,1,0,0:0:0:0:
320,0,63099,1,0,0:0:0:0:
192,0,63148,1,0,0:0:0:0:
64,0,63198,1,0,0:0:0:0:
192,0,63248,1,0,0:0:0:0:
320,0,63298,1,0,0:0:0:0:
64,0,63347,1,0,0:0:0:0:
448,0,63347,1,0,0:0:0:0:
320,0,63397,1,0,0:0:0:0:
192,0,63447,1,0,0:0:0:0:
64,0,63497,1,0,0:0:0:0:
192,0,63547,1,0,0:0:0:0:
320,0,63597,1,0,0:0:0:0:
448,0,63647,1,0,0:0:0:0:
320,0,63697,1,0,0:0:0:0:
64,0,63746,1,0,0:0:0:0:
192,0,63746,1,0,0:0:0:0:
448,0,63796,1,0,0:0:0:0:
64,0,63846,1,0,0:0:0:0:
192,0,63846,1,0,0:0:0:0:
320,0,63846,1,0,0:0:0:0:
448,0,63896,1,0,0:0:0:0:
64,0,63945,1,0,0:0:0:0:
320,0,63945,1,0,0:0:0:0:
192,0,63995,1,0,0:0:0:0:
64,0,64045,1,0,0:0:0:0:
448,0,64045,1,0,0:0:0:0:
320,0,64095,1,0,0:0:0:0:
64,0,64145,1,0,0:0:0:0:
192,0,64145,1,0,0:0:0:0:
448,0,64195,1,0,0:0:0:0:
320,0,64245,1,0,0:0:0:0:
64,0,64295,1,0,0:0:0:0:
448,0,64345,1,0,0:0:0:0:
192,0,64394,1,0,0:0:0:0:
64,0,64444,1,0,0:0:0:0:
448,0,64444,1,0,0:0:0:0:
320,0,64494,1,0,0:0:0:0:
192,0,64544,1,0,0:0:0:0:
448,0,64593,1,0,0:0:0:0:
64,0,64643,1,0,0:0:0:0:
448,0,64693,1,0,0:0:0:0:
192,0,64743,1,0,0:0:0:0:
320,0,64792,1,0,0:0:0:0:
64,0,64842,1,0,0:0:0:0:
448,0,64842,1,0,0:0:0:0:
192,0,64892,1,0,0:0:0:0:
320,0,64942,1,0,0:0:0:0:
448,0,64942,1,0,0:0:0:0:
64,0,64992,1,0,0:0:0:0:
192,0,65042,1,0,0:0:0:0:
320,0,65042,1,0,0:0:0:0:
448,0,65092,1,0,0:0:0:0:
64,0,65142,1,0,0:0:0:0:
320,0,65191,1,0,0:0:0:0:
64,0,65241,1,0,0:0:0:0:
448,0,65241,1,0,0:0:0:0:
192,0,65291,1,0,0:0:0:0:
320,0,65341,1,0,0:0:0:0:
448,0,65341,1,0,0:0:0:0:
64,0,65390,1,0,0:0:0:0:
320,0,65440,1,0,0:0:0:0:
64,0,65490,1,0,0:0:0:0:
192,0,65490,1,0,0:0:0:0:
320,0,65540,1,0,0:0:0:0:
192,0,65590,1,0,0:0:0:0:
64,0,65640,1,0,0:0:0:0:
448,0,65640,1,0,0:0:0:0:
320,0,65690,1,0,0:0:0:0:
64,0,65740,1,0,0:0:0:0:
192,0,65740,1,0,0:0:0:0:
320,0,65789,1,0,0:0:0:0:
192,0,65839,1,0,0:0:0:0:
448,0,65889,1,0,0:0:0:0:
192,0,65939,1,0,0:0:0:0:
448,0,65988,1,0,0:0:0:0:
64,0,66038,1,0,0:0:0:0:
320,0,66038,1,0,0:0:0:0:
192,0,66088,1,0,0:0:0:0:
320,0,66138,1,0,0:0:0:0:
192,0,66187,1,0,0:0:0:0:
448,0,66237,1,0,0:0:0:0:
64,0,66287,1,0,0:0:0:0:
320,0,66337,1,0,0:0:0:0:
64,0,66387,1,0,0:0:0:0:
192,0,66437,1,0,0:0:0:0:
448,0,66437,1,0,0:0:0:0:
320,0,66487,1,0,0:0:0:0:
64,0,66537,1,0,0:0:0:0:
448,0,66537,1,0,0:0:0:0:
320,0,66586,1,0,0:0:0:0:
64,0,66636,1,0,0:0:0:0:
192,0,66636,1,0,0:0:0:0:
448,0,66686,1,0,0:0:0:0:
320,0,66736,1,0,0:0:0:0:
448,0,66785,1,0,0:0:0:0:
64,0,66835,1,0,0:0:0:0:
192,0,66835,1,0,0:0:0:0:
320,0,66885,1,0,0:0:0:0:
192,0,66935,1,0,0:0:0:0:
320,0,66985,1,0,0:0:0:0:
448,0,66985,1,0,0:0:0:0:
64,0,67035,1,0,0:0:0:0:
192,0,67035,1,0,0:0:0:0:
448,0,67085,1,0,0:0:0:0:
320,0,67135,1,0,0:0:0:0:
192,0,67184,1,0,0:0:0:0:
448,0,67184,1,0,0:0:0:0:
64,0,67234,1,0,0:0:0:0:
320,0,67234,1,0,0:0:0:0:
192,0,67284,1,0,0:0:0:0:
320,0,67334,1,0,0:0:0:0:
448,0,67383,1,0,0:0:0:0:
64,0,67433,1,0,0:0:0:0:
192,0,67483,1,0,0:0:0:0:
320,0,67533,1,0,0:0:0:0:
448,0,67533,1,0,0:0:0:0:
64,0,67582,1,0,0:0:0:0:
192,0,67632,1,0,0:0:0:0:
320,0,67632,1,0,0:0:0:0:
448,0,67682,1,0,0:0:0:0:
64,0,67732,1,0,0:0:0:0:
192,0,67782,1,0,0:0:0:0:
448,0,67832,1,0,0:0:0:0:
320,0,67882,1,0,0:0:0:0:
192,0,67932,1,0,0:0:0:0:
64,0,67982,1,0,0:0:0:0:
320,0,68031,1,0,0:0:0:0:
448,0,68031,1,0,0:0:0:0:
192,0,68081,1,0,0:0:0:0:
64,0,68131,1,0,0:0:0:0:
448,0,68181,1,0,0:0:0:0:
192,0,68230,1,0,0:0:0:0:
320,0,68230,1,0,0:0:0:0:
64,0,68280,1,0,0:0:0:0:
320,0,68330,1,0,0:0:0:0:
448,0,68330,1,0,0:0:0:0:
192,0,68380,1,0,0:0:0:0:
64,0,68430,1,0,0:0:0:0:
448,0,68430,1,0,0:0:0:0:
320,0,68480,1,0,0:0:0:0:
192,0,68530,1,0,0:0:0:0:
64,0,68580,1,0,0:0:0:0:
320,0,68629,1,0,0:0:0:0:
448,0,68629,1,0,0:0:0:0:
192,0,68679,1,0,0:0:0:0:
320,0,68729,1,0,0:0:0:0:
192,0,68779,1,0,0:0:0:0:
64,0,68828,1,0,0:0:0:0:
448,0,68828,1,0,0:0:0:0:
192,0,68878,1,0,0:0:0:0:
320,0,68928,1,0,0:0:0:0:
192,0,68978,1,0,0:0:0:0:
320,0,69027,1,0,0:0:0:0:
192,0,69077,1,0,0:0:0:0:
320,0,69127,1,0,0:0:0:0:
192,0,69177,1,0,0:0:0:0:
64,0,69227,1,0,0:0:0:0:
448,0,69227,1,0,0:0:0:0:
320,0,69277,1,0,0:0:0:0:
192,0,69327,1,0,0:0:0:0:
448,0,69377,1,0,0:0:0:0:
320,0,69426,1,0,0:0:0:0:
64,0,69476,1,0,0:0:0:0:
192,0,69526,1,0,0:0:0:0:
320,0,69576,1,0,0:0:0:0:
64,0,69625,1,0,0:0:0:0:
192,0,69625,1,0,0:0:0:0:
448,0,69675,1,0,0:0:0:0:
192,0,69725,1,0,0:0:0:0:
320,0,69725,1,0,0:0:0:0:
64,0,69775,1,0,0:0:0:0:
320,0,69825,1,0,0:0:0:0:
448,0,69825,1,0,0:0:0:0:
192,0,69875,1,0,0:0:0:0:
64,0,69925,1,0,0:0:0:0:
320,0,69975,1,0,0:0:0:0:
448,0,69975,1,0,0:0:0:0:
64,0,70024,1,0,0:0:0:0:
192,0,70024,1,0,0:0:0:0:
448,0,70074,1,0,0:0:0:0:
64,0,70124,1,0,0:0:0:0:
192,0,70124,1,0,0:0:0:0:
320,0,70174,1,0,0:0:0:0:
64,0,70223,1,0,0:0:0:0:
192,0,70223,1,0,0:0:0:0:
448,0,70223,1,0,0:0:0:0:
320,0,70273,1,0,0:0:0:0:
192,0,70323,1,0,0:0:0:0:
448,0,70373,1,0,0:0:0:0:
64,0,70422,1,0,0:0:0:0:
320,0,70422,1,0,0:0:0:0:
192,0,70472,1,0,0:0:0:0:
64,0,70522,1,0,0:0:0:0:
320,0,70522,1,0,0:0:0:0:
448,0,70572,1,0,0:0:0:0:
192,0,70622,1,0,0:0:0:0:
448,0,70672,1,0,0:0:0:0:
192,0,70722,1,0,0:0:0:0:
320,0,70772,1,0,0:0:0:0:
64,0,70821,1,0,0:0:0:0:
448,0,70821,1,0,0:0:0:0:
192,0,70871,1,0,0:0:0:0:
64,0,70921,1,0,0:0:0:0:
192,0,70971,1,0,0:0:0:0:
320,0,71020,1,0,0:0:0:0:
192,0,71070,1,0,0:0:0:0:
448,0,71120,1,0,0:0:0:0:
64,0,71170,1,0,0:0:0:0:
320,0,71220,1,0,0:0:0:0:
448,0,71220,1,0,0:0:0:0:
192,0,71270,1,0,0:0:0:0:
320,0,71320,1,0,0:0:0:0:
448,0,71320,1,0,0:0:0:0:
192,0,71370,1,0,0:0:0:0:
64,0,71419,1,0,0:0:0:0:
448,0,71419,1,0,0:0:0:0:
192,0,71469,1,0,0:0:0:0:
320,0,71519,1,0,0:0:0:0:
448,0,71569,1,0,0:0:0:0:
192,0,71619,1,0,0:0:0:0:
320,0,71619,1,0,0:0:0:0:
64,0,71668,1,0,0:0:0:0:
320,0,71718,1,0,0:0:0:0:
448,0,71718,1,0,0:0:0:0:
64,0,71768,1,0,0:0:0:0:
192,0,71818,1,0,0:0:0:0:
448,0,71818,1,0,0:0:0:0:
320,0,71867,1,0,0:0:0:0:
192,0,71917,1,0,0:0:0:0:
448,0,71917,1,0,0:0:0:0:
320,0,71967,1,0,0:0:0:0:
64,0,72017,1,0,0:0:0:0:
448,0,72017,1,0,0:0:0:0:
192,0,72067,1,0,0:0:0:0:
64,0,72117,1,0,0:0:0:0:
320,0,72117,1,0,0:0:0:0:
192,0,72167,1,0,0:0:0:0:
320,0,72217,1,0,0:0:0:0:
192,0,72266,1,0,0:0:0:0:
448,0,72316,1,0,0:0:0:0:
320,0,72366,1,0,0:0:0:0:
64,0,72416,1,0,0:0:0:0:
448,0,72416,1,0,0:0:0:0:
192,0,72465,1,0,0:0:0:0:
64,0,72515,1,0,0:0:0:0:
192,0,72565,1,0,0:0:0:0:
320,0,72615,1,0,0:0:0:0:
192,0,72665,1,0,0:0:0:0:
320,0,72715,1,0,0:0:0:0:
448,0,72765,1,0,0:0:0:0:
64,0,72815,1,0,0:0:0:0:
192,0,72815,1,0,0:0:0:0:
320,0,72864,1,0,0:0:0:0:
64,0,72914,1,0,0:0:0:0:
192,0,72914,1,0,0:0:0:0:
320,0,72964,1,0,0:0:0:0:
64,0,73014,1,0,0:0:0:0:
448,0,73014,1,0,0:0:0:0:
192,0,73063,1,0,0:0:0:0:
320,0,73113,1,0,0:0:0:0:
64,0,73163,1,0,0:0:0:0:
192,0,73163,1,0,0:0:0:0:
320,0,73213,1,0,0:0:0:0:
448,0,73213,1,0,0:0:0:0:
64,0,73262,1,0,0:0:0:0:
320,0,73312,1,0,0:0:0:0:
448,0,73312,1,0,0:0:0:0:
64,0,73362,1,0,0:0:0:0:
192,0,73412,1,0,0:0:0:0:
448,0,73412,1,0,0:0:0:0:
320,0,73462,1,0,0:0:0:0:
192,0,73512,1,0,0:0:0:0:
448,0,73512,1,0,0:0:0:0:
320,0,73562,1,0,0:0:0:0:
64,0,73612,1,0,0:0:0:0:
192,0,73612,1,0,0:0:0:0:
448,0,73661,1,0,0:0:0:0:
64,0,73711,1,0,0:0:0:0:
192,0,73711,1,0,0:0:0:0:
448,0,73761,1,0,0:0:0:0:
320,0,73811,1,0,0:0:0:0:
448,0,73860,1,0,0:0:0:0:
64,0,73910,1,0,0:0:0:0:
192,0,73960,1,0,0:0:0:0:
64,0,74010,1,0,0:0:0:0:
448,0,74010,1,0,0:0:0:0:
320,0,74060,1,0,0:0:0:0:
448,0,74110,1,0,0:0:0:0:
320,0,74160,1,0,0:0:0:0:
192,0,74210,1,0,0:0:0:0:
320,0,74259,1,0,0:0:0:0:
64,0,74309,1,0,0:0:0:0:
192,0,74359,1,0,0:0:0:0:
64,0,74409,1,0,0:0:0:0:
448,0,74409,1,0,0:0:0:0:
320,0,74458,1,0,0:0:0:0:
192,0,74508,1,0,0:0:0:0:
64,0,74558,1,0,0:0:0:0:
320,0,74608,1,0,0:0:0:0:
448,0,74608,1,0,0:0:0:0:
192,0,74657,1,0,0:0:0:0:
64,0,74707,1,0,0:0:0:0:
320,0,74707,1,0,0:0:0:0:
192,0,74757,1,0,0:0:0:0:
320,0,74807,1,0,0:0:0:0:
448,0,74807,1,0,0:0:0:0:
192,0,74857,1,0,0:0:0:0:
320,0,74907,1,0,0:0:0:0:
192,0,74957,1,0,0:0:0:0:
64,0,75007,1,0,0:0:0:0:
448,0,75007,1,0,0:0:0:0:
320,0,75057,1,0,0:0:0:0:
448,0,75106,1,0,0:0:0:0:
320,0,75156,1,0,0:0:0:0:
192,0,75206,1,0,0:0:0:0:
448,0,75206,1,0,0:0:0:0:
320,0,75256,1,0,0:0:0:0:
64,0,75305,1,0,0:0:0:0:
448,0,75305,1,0,0:0:0:0:
192,0,75355,1,0,0:0:0:0:
64,0,75405,1,0,0:0:0:0:
320,0,75405,1,0,0:0:0:0:
192,0,75455,1,0,0:0:0:0:
64,0,75505,1,0,0:0:0:0:
192,0,75555,1,0,0:0:0:0:
64,0,75605,1,0,0:0:0:0:
448,0,75605,1,0,0:0:0:0:
192,0,75655,1,0,0:0:0:0:
64,0,75704,1,0,0:0:0:0:
320,0,75704,1,0,0:0:0:0:
448,0,75754,1,0,0:0:0:0:
64,0,75804,1,0,0:0:0:0:
192,0,75804,1,0,0:0:0:0:
320,0,75804,1,0,0:0:0:0:
320,0,76302,1,0,0:0:0:0:
192,0,76352,1,0,0:0:0:0:
448,0,76352,1,0,0:0:0:0:
320,0,76402,1,0,0:0:0:0:
192,0,76452,1,0,0:0:0:0:
192,0,76551,1,0,0:0:0:0:
64,0,76601,1,0,0:0:0:0:
320,0,76601,1,0,0:0:0:0:
448,0,76601,1,0,0:0:0:0:
320,0,76800,128,0,76850:0:0:0:0:
448,0,76900,128,0,76950:0:0:0:0:
192,0,77000,1,0,0:0:0:0:
320,0,77000,128,0,77050:0:0:0:0:
448,0,77099,128,0,77149:0:0:0:0:
64,0,77199,128,0,77249:0:0:0:0:
192,0,77298,128,0,77348:0:0:0:0:
64,0,77398,1,0,0:0:0:0:
448,0,77398,1,0,0:0:0:0:
320,0,77497,128,0,77547:0:0:0:0:
192,0,77597,128,0,77647:0:0:0:0:
192,0,77797,128,0,77847:0:0:0:0:
448,0,77797,1,0,0:0:0:0:
320,0,77896,128,0,77946:0:0:0:0:
192,0,77996,128,0,78046:0:0:0:0:
64,0,78095,128,0,78145:0:0:0:0:
320,0,78195,1,0,0:0:0:0:
448,0,78195,1,0,0:0:0:0:
192,0,78295,128,0,78345:0:0:0:0:
320,0,78395,128,0,78445:0:0:0:0:
64,0,78594,128,0,78644:0:0:0:0:
448,0,78594,1,0,0:0:0:0:
192,0,78694,128,0,78743:0:0:0:0:
64,0,78793,1,0,0:0:0:0:
448,0,78793,128,0,78843:0:0:0:0:
320,0,78893,128,0,78942:0:0:0:0:
64,0,78992,1,0,0:0:0:0:
192,0,78992,1,0,0:0:0:0:
320,0,79092,128,0,79142:0:0:0:0:
192,0,79192,128,0,79242:0:0:0:0:
64,0,79391,1,0,0:0:0:0:
320,0,79391,128,0,79441:0:0:0:0:
320,0,79590,128,0,79640:0:0:0:0:
64,0,79690,1,0,0:0:0:0:
192,0,79690,128,0,79740:0:0:0:0:
64,0,79790,1,0,0:0:0:0:
448,0,79790,1,0,0:0:0:0:
64,0,79989,128,0,80039:0:0:0:0:
192,0,80089,128,0,80138:0:0:0:0:
320,0,80188,128,0,80238:0:0:0:0:
448,0,80188,1,0,0:0:0:0:
192,0,80288,128,0,80337:0:0:0:0:
64,0,80387,1,0,0:0:0:0:
448,0,80387,128,0,80437:0:0:0:0:
320,0,80487,128,0,80537:0:0:0:0:
64,0,80587,1,0,0:0:0:0:
448,0,80587,1,0,0:0:0:0:
192,0,80687,128,0,80736:0:0:0:0:
320,0,80786,128,0,80836:0:0:0:0:
64,0,80985,128,0,81035:0:0:0:0:
320,0,81085,128,0,81135:0:0:0:0:
192,0,81185,128,0,81235:0:0:0:0:
320,0,81285,128,0,81334:0:0:0:0:
448,0,81285,1,0,0:0:0:0:
192,0,81484,128,0,81533:0:0:0:0:
64,0,81583,1,0,0:0:0:0:
320,0,81583,128,0,81633:0:0:0:0:
64,0,81782,1,0,0:0:0:0:
192,0,81782,128,0,81832:0:0:0:0:
320,0,81882,128,0,81932:0:0:0:0:
64,0,81982,1,0,0:0:0:0:
448,0,81982,128,0,82032:0:0:0:0:
320,0,82082,128,0,82131:0:0:0:0:
64,0,82281,1,0,0:0:0:0:
192,0,82281,128,0,82331:0:0:0:0:
448,0,82380,128,0,82430:0:0:0:0:
448,0,82580,128,0,82630:0:0:0:0:
320,0,82680,128,0,82730:0:0:0:0:
448,0,82779,128,0,82829:0:0:0:0:
320,0,82879,128,0,82929:0:0:0:0:
64,0,82978,1,0,0:0:0:0:
192,0,82978,1,0,0:0:0:0:
448,0,82978,1,0,0:0:0:0:
320,0,83177,128,0,83227:0:0:0:0:
448,0,83277,128,0,83327:0:0:0:0:
192,0,83377,1,0,0:0:0:0:
320,0,83377,128,0,83427:0:0:0:0:
448,0,83477,128,0,83527:0:0:0:0:
64,0,83576,128,0,83626:0:0:0:0:
192,0,83676,128,0,83726:0:0:0:0:
64,0,83775,1,0,0:0:0:0:
448,0,83775,1,0,0:0:0:0:
320,0,83875,128,0,83925:0:0:0:0:
192,0,83975,128,0,84025:0:0:0:0:
64,0,84174,1,0,0:0:0:0:
448,0,84174,128,0,84224:0:0:0:0:
320,0,84274,128,0,84324:0:0:0:0:
64,0,84373,128,0,84423:0:0:0:0:
64,0,84473,128,0,84523:0:0:0:0:
320,0,84572,1,0,0:0:0:0:
448,0,84572,1,0,0:0:0:0:
192,0,84672,128,0,84722:0:0:0:0:
320,0,84772,128,0,84822:0:0:0:0:
64,0,84971,128,0,85021:0:0:0:0:
448,0,84971,1,0,0:0:0:0:
192,0,85071,128,0,85121:0:0:0:0:
64,0,85170,1,0,0:0:0:0:
448,0,85170,128,0,85220:0:0:0:0:
320,0,85270,128,0,85320:0:0:0:0:
64,0,85370,1,0,0:0:0:0:
192,0,85370,1,0,0:0:0:0:
320,0,85470,128,0,85520:0:0:0:0:
192,0,85569,128,0,85619:0:0:0:0:
64,0,85769,1,0,0:0:0:0:
320,0,85769,128,0,85818:0:0:0:0:
320,0,85968,128,0,86017:0:0:0:0:
64,0,86067,1,0,0:0:0:0:
320,0,86067,128,0,86117:0:0:0:0:
64,0,86167,1,0,0:0:0:0:
448,0,86167,1,0,0:0:0:0:
64,0,86367,128,0,86416:0:0:0:0:
192,0,86466,128,0,86516:0:0:0:0:
320,0,86566,128,0,86615:0:0:0:0:
448,0,86566,1,0,0:0:0:0:
192,0,86665,128,0,86715:0:0:0:0:
64,0,86765,1,0,0:0:0:0:
448,0,86765,128,0,86815:0:0:0:0:
320,0,86865,128,0,86915:0:0:0:0:
64,0,86965,1,0,0:0:0:0:
448,0,86965,1,0,0:0:0:0:
192,0,87064,128,0,87114:0:0:0:0:
320,0,87164,128,0,87213:0:0:0:0:
64,0,87363,128,0,87412:0:0:0:0:
320,0,87462,128,0,87512:0:0:0:0:
192,0,87562,128,0,87612:0:0:0:0:
320,0,87662,128,0,87712:0:0:0:0:
448,0,87662,1,0,0:0:0:0:
192,0,87861,128,0,87911:0:0:0:0:
64,0,87961,1,0,0:0:0:0:
320,0,87961,128,0,88010:0:0:0:0:
64,0,88160,1,0,0:0:0:0:
192,0,88160,128,0,88210:0:0:0:0:
320,0,88260,128,0,88310:0:0:0:0:
64,0,88360,1,0,0:0:0:0:
448,0,88360,128,0,88409:0:0:0:0:
320,0,88459,128,0,88509:0:0:0:0:
64,0,88658,1,0,0:0:0:0:
448,0,88658,128,0,89157:0:0:0:0:
64,0,89157,1,0,0:0:0:0:
192,0,89206,1,0,0:0:0:0:
320,0,89206,1,0,0:0:0:0:
448,0,89256,1,0,0:0:0:0:
64,0,89256,1,0,0:0:0:0:
192,0,89306,1,0,0:0:0:0:
320,0,89306,1,0,0:0:0:0:
448,0,89356,1,0,0:0:0:0:
64,0,89356,1,0,0:0:0:0:
192,0,89356,1,0,0:0:0:0:
192,0,89455,1,0,0:0:0:0:
320,0,89555,1,0,0:0:0:0:
448,0,89555,1,0,0:0:0:0:
192,0,89655,1,0,0:0:0:0:
320,0,89655,1,0,0:0:0:0:
64,0,89755,1,0,0:0:0:0:
192,0,89755,1,0,0:0:0:0:
64,0,89854,1,0,0:0:0:0:
448,0,89854,1,0,0:0:0:0:
320,0,89954,1,0,0:0:0:0:
448,0,89954,1,0,0:0:0:0:
320,0,90053,1,0,0:0:0:0:
448,0,90053,1,0,0:0:0:0:
64,0,90153,1,0,0:0:0:0:
192,0,90153,1,0,0:0:0:0:
320,0,90252,1,0,0:0:0:0:
448,0,90252,1,0,0:0:0:0:
192,0,90352,1,0,0:0:0:0:
320,0,90352,1,0,0:0:0:0:
64,0,90452,1,0,0:0:0:0:
192,0,90552,1,0,0:0:0:0:
320,0,90552,1,0,0:0:0:0:
320,0,90651,1,0,0:0:0:0:
448,0,90651,1,0,0:0:0:0:
64,0,90751,1,0,0:0:0:0:
448,0,90751,1,0,0:0:0:0:
64,0,90850,1,0,0:0:0:0:
448,0,90850,1,0,0:0:0:0:
192,0,90950,1,0,0:0:0:0:
320,0,90950,1,0,0:0:0:0:
64,0,91050,1,0,0:0:0:0:
448,0,91050,1,0,0:0:0:0:
64,0,91150,1,0,0:0:0:0:
192,0,91150,1,0,0:0:0:0:
320,0,91249,1,0,0:0:0:0:
64,0,91349,1,0,0:0:0:0:
192,0,91349,1,0,0:0:0:0:
192,0,91448,1,0,0:0:0:0:
320,0,91448,1,0,0:0:0:0:
320,0,91548,1,0,0:0:0:0:
448,0,91548,1,0,0:0:0:0:
64,0,91647,1,0,0:0:0:0:
448,0,91647,1,0,0:0:0:0:
192,0,91747,1,0,0:0:0:0:
320,0,91747,1,0,0:0:0:0:
64,0,91847,1,0,0:0:0:0:
448,0,91847,1,0,0:0:0:0:
64,0,91947,1,0,0:0:0:0:
192,0,91947,1,0,0:0:0:0:
320,0,92046,1,0,0:0:0:0:
64,0,92146,1,0,0:0:0:0:
192,0,92146,1,0,0:0:0:0:
320,0,92245,1,0,0:0:0:0:
64,0,92345,1,0,0:0:0:0:
192,0,92345,1,0,0:0:0:0:
64,0,92445,1,0,0:0:0:0:
192,0,92445,1,0,0:0:0:0:
64,0,92545,1,0,0:0:0:0:
192,0,92545,1,0,0:0:0:0:
448,0,92545,1,0,0:0:0:0:
320,0,92644,1,0,0:0:0:0:
448,0,92644,1,0,0:0:0:0:
192,0,92744,1,0,0:0:0:0:
320,0,92744,1,0,0:0:0:0:
192,0,92844,1,0,0:0:0:0:
320,0,92844,1,0,0:0:0:0:
64,0,92943,1,0,0:0:0:0:
192,0,92943,1,0,0:0:0:0:
192,0,93043,1,0,0:0:0:0:
320,0,93043,1,0,0:0:0:0:
64,0,93142,1,0,0:0:0:0:
448,0,93142,1,0,0:0:0:0:
64,0,93242,1,0,0:0:0:0:
448,0,93242,1,0,0:0:0:0:
320,0,93342,1,0,0:0:0:0:
448,0,93342,1,0,0:0:0:0:
64,0,93442,1,0,0:0:0:0:
192,0,93442,1,0,0:0:0:0:
64,0,93541,1,0,0:0:0:0:
192,0,93541,1,0,0:0:0:0:
192,0,93641,1,0,0:0:0:0:
320,0,93641,1,0,0:0:0:0:
64,0,93740,1,0,0:0:0:0:
448,0,93740,1,0,0:0:0:0:
64,0,93840,1,0,0:0:0:0:
448,0,93840,1,0,0:0:0:0:
320,0,93940,1,0,0:0:0:0:
448,0,93940,1,0,0:0:0:0:
320,0,94040,1,0,0:0:0:0:
448,0,94040,1,0,0:0:0:0:
64,0,94139,1,0,0:0:0:0:
192,0,94139,1,0,0:0:0:0:
320,0,94189,1,0,0:0:0:0:
448,0,94189,1,0,0:0:0:0:
64,0,94239,1,0,0:0:0:0:
192,0,94239,1,0,0:0:0:0:
320,0,94288,1,0,0:0:0:0:
448,0,94288,1,0,0:0:0:0:
64,0,94338,1,0,0:0:0:0:
192,0,94338,1,0,0:0:0:0:
320,0,94388,1,0,0:0:0:0:
448,0,94388,1,0,0:0:0:0:
64,0,94438,1,0,0:0:0:0:
192,0,94438,1,0,0:0:0:0:
320,0,94487,1,0,0:0:0:0:
448,0,94487,1,0,0:0:0:0:
64,0,94537,1,0,0:0:0:0:
192,0,94537,1,0,0:0:0:0:
320,0,94587,1,0,0:0:0:0:
448,0,94587,1,0,0:0:0:0:
64,0,94637,1,0,0:0:0:0:
192,0,94637,1,0,0:0:0:0:
320,0,94687,1,0,0:0:0:0:
448,0,94687,1,0,0:0:0:0:
64,0,94737,1,0,0:0:0:0:
192,0,94737,1,0,0:0:0:0:
320,0,94787,1,0,0:0:0:0:
448,0,94787,1,0,0:0:0:0:
64,0,94837,1,0,0:0:0:0:
192,0,94837,1,0,0:0:0:0:
320,0,94886,1,0,0:0:0:0:
448,0,94886,1,0,0:0:0:0:
64,0,94936,1,0,0:0:0:0:
192,0,94936,1,0,0:0:0:0:
320,0,94986,1,0,0:0:0:0:
448,0,94986,1,0,0:0:0:0:
64,0,95036,1,0,0:0:0:0:
192,0,95036,1,0,0:0:0:0:
320,0,95085,1,0,0:0:0:0:
448,0,95085,1,0,0:0:0:0:
64,0,95135,1,0,0:0:0:0:
192,0,95135,1,0,0:0:0:0:
320,0,95185,1,0,0:0:0:0:
448,0,95185,1,0,0:0:0:0:
64,0,95235,1,0,0:0:0:0:
192,0,95285,1,0,0:0:0:0:
320,0,95285,1,0,0:0:0:0:
64,0,95335,1,0,0:0:0:0:
448,0,95335,1,0,0:0:0:0:
192,0,95385,1,0,0:0:0:0:
320,0,95385,1,0,0:0:0:0:
448,0,95435,1,0,0:0:0:0:
64,0,95435,1,0,0:0:0:0:
192,0,95484,1,0,0:0:0:0:
320,0,95484,1,0,0:0:0:0:
448,0,95534,1,0,0:0:0:0:
64,0,95534,1,0,0:0:0:0:
192,0,95534,1,0,0:0:0:0:
64,0,95634,1,0,0:0:0:0:
320,0,95634,1,0,0:0:0:0:
64,0,95733,1,0,0:0:0:0:
192,0,95733,1,0,0:0:0:0:
448,0,95733,1,0,0:0:0:0:
320,0,95783,1,0,0:0:0:0:
192,0,95833,1,0,0:0:0:0:
64,0,95882,1,0,0:0:0:0:
320,0,95932,1,0,0:0:0:0:
448,0,95932,1,0,0:0:0:0:
192,0,95982,1,0,0:0:0:0:
64,0,96032,1,0,0:0:0:0:
448,0,96032,1,0,0:0:0:0:
320,0,96082,1,0,0:0:0:0:
64,0,96132,1,0,0:0:0:0:
192,0,96132,1,0,0:0:0:0:
448,0,96182,1,0,0:0:0:0:
192,0,96232,1,0,0:0:0:0:
320,0,96232,1,0,0:0:0:0:
64,0,96281,1,0,0:0:0:0:
192,0,96331,1,0,0:0:0:0:
448,0,96331,1,0,0:0:0:0:
64,0,96381,1,0,0:0:0:0:
192,0,96431,1,0,0:0:0:0:
448,0,96431,1,0,0:0:0:0:
320,0,96481,1,0,0:0:0:0:
64,0,96530,1,0,0:0:0:0:
192,0,96580,1,0,0:0:0:0:
64,0,96630,1,0,0:0:0:0:
448,0,96630,1,0,0:0:0:0:
320,0,96680,1,0,0:0:0:0:
64,0,96730,1,0,0:0:0:0:
448,0,96730,1,0,0:0:0:0:
192,0,96780,1,0,0:0:0:0:
320,0,96830,1,0,0:0:0:0:
448,0,96880,1,0,0:0:0:0:
64,0,96929,1,0,0:0:0:0:
192,0,96929,1,0,0:0:0:0:
320,0,96979,1,0,0:0:0:0:
64,0,97029,1,0,0:0:0:0:
192,0,97029,1,0,0:0:0:0:
320,0,97079,1,0,0:0:0:0:
64,0,97128,1,0,0:0:0:0:
448,0,97128,1,0,0:0:0:0:
192,0,97178,1,0,0:0:0:0:
64,0,97228,1,0,0:0:0:0:
448,0,97228,1,0,0:0:0:0:
192,0,97278,1,0,0:0:0:0:
320,0,97327,1,0,0:0:0:0:
448,0,97377,1,0,0:0:0:0:
64,0,97427,1,0,0:0:0:0:
192,0,97427,1,0,0:0:0:0:
320,0,97477,1,0,0:0:0:0:
64,0,97527,1,0,0:0:0:0:
192,0,97527,1,0,0:0:0:0:
320,0,97577,1,0,0:0:0:0:
448,0,97627,1,0,0:0:0:0:
64,0,97677,1,0,0:0:0:0:
192,0,97726,1,0,0:0:0:0:
448,0,97726,1,0,0:0:0:0:
320,0,97776,1,0,0:0:0:0:
192,0,97826,1,0,0:0:0:0:
448,0,97826,1,0,0:0:0:0:
320,0,97876,1,0,0:0:0:0:
64,0,97925,1,0,0:0:0:0:
192,0,97925,1,0,0:0:0:0:
448,0,97975,1,0,0:0:0:0:
64,0,98025,1,0,0:0:0:0:
192,0,98025,1,0,0:0:0:0:
448,0,98075,1,0,0:0:0:0:
320,0,98125,1,0,0:0:0:0:
192,0,98175,1,0,0:0:0:0:
64,0,98225,1,0,0:0:0:0:
448,0,98225,1,0,0:0:0:0:
320,0,98275,1,0,0:0:0:0:
64,0,98324,1,0,0:0:0:0:
448,0,98324,1,0,0:0:0:0:
320,0,98374,1,0,0:0:0:0:
192,0,98424,1,0,0:0:0:0:
64,0,98474,1,0,0:0:0:0:
192,0,98523,1,0,0:0:0:0:
320,0,98523,1,0,0:0:0:0:
448,0,98573,1,0,0:0:0:0:
64,0,98623,1,0,0:0:0:0:
320,0,98673,1,0,0:0:0:0:
192,0,98722,1,0,0:0:0:0:
448,0,98722,1,0,0:0:0:0:
64,0,98772,1,0,0:0:0:0:
192,0,98822,1,0,0:0:0:0:
448,0,98822,1,0,0:0:0:0:
64,0,98872,1,0,0:0:0:0:
192,0,98922,1,0,0:0:0:0:
320,0,98972,1,0,0:0:0:0:
64,0,99022,1,0,0:0:0:0:
448,0,99072,1,0,0:0:0:0:
64,0,99121,1,0,0:0:0:0:
192,0,99121,1,0,0:0:0:0:
320,0,99171,1,0,0:0:0:0:
64,0,99221,1,0,0:0:0:0:
448,0,99221,1,0,0:0:0:0:
192,0,99271,1,0,0:0:0:0:
320,0,99320,1,0,0:0:0:0:
448,0,99320,1,0,0:0:0:0:
64,0,99370,1,0,0:0:0:0:
192,0,99420,1,0,0:0:0:0:
320,0,99420,1,0,0:0:0:0:
448,0,99470,1,0,0:0:0:0:
64,0,99520,1,0,0:0:0:0:
192,0,99520,1,0,0:0:0:0:
320,0,99570,1,0,0:0:0:0:
64,0,99620,1,0,0:0:0:0:
448,0,99620,1,0,0:0:0:0:
192,0,99670,1,0,0:0:0:0:
320,0,99719,1,0,0:0:0:0:
448,0,99769,1,0,0:0:0:0:
64,0,99819,1,0,0:0:0:0:
192,0,99819,1,0,0:0:0:0:
320,0,99869,1,0,0:0:0:0:
64,0,99918,1,0,0:0:0:0:
192,0,99918,1,0,0:0:0:0:
320,0,99968,1,0,0:0:0:0:
448,0,100018,1,0,0:0:0:0:
192,0,100068,1,0,0:0:0:0:
64,0,100118,1,0,0:0:0:0:
320,0,100118,1,0,0:0:0:0:
448,0,100167,1,0,0:0:0:0:
64,0,100217,1,0,0:0:0:0:
320,0,100217,1,0,0:0:0:0:
448,0,100267,1,0,0:0:0:0:
64,0,100317,1,0,0:0:0:0:
192,0,100317,1,0,0:0:0:0:
320,0,100367,1,0,0:0:0:0:
64,0,100417,1,0,0:0:0:0:
192,0,100417,1,0,0:0:0:0:
320,0,100467,1,0,0:0:0:0:
448,0,100517,1,0,0:0:0:0:
192,0,100566,1,0,0:0:0:0:
64,0,100616,1,0,0:0:0:0:
448,0,100616,1,0,0:0:0:0:
320,0,100666,1,0,0:0:0:0:
64,0,100716,1,0,0:0:0:0:
448,0,100716,1,0,0:0:0:0:
320,0,100765,1,0,0:0:0:0:
192,0,100815,1,0,0:0:0:0:
64,0,100865,1,0,0:0:0:0:
320,0,100915,1,0,0:0:0:0:
448,0,100915,1,0,0:0:0:0:
192,0,100965,1,0,0:0:0:0:
320,0,101015,1,0,0:0:0:0:
448,0,101015,1,0,0:0:0:0:
192,0,101065,1,0,0:0:0:0:
64,0,101115,1,0,0:0:0:0:
320,0,101115,1,0,0:0:0:0:
448,0,101164,1,0,0:0:0:0:
64,0,101214,1,0,0:0:0:0:
320,0,101214,1,0,0:0:0:0:
448,0,101264,1,0,0:0:0:0:
192,0,101314,1,0,0:0:0:0:
64,0,101363,1,0,0:0:0:0:
320,0,101413,1,0,0:0:0:0:
448,0,101413,1,0,0:0:0:0:
192,0,101463,1,0,0:0:0:0:
64,0,101513,1,0,0:0:0:0:
448,0,101513,1,0,0:0:0:0:
192,0,101562,1,0,0:0:0:0:
320,0,101612,1,0,0:0:0:0:
448,0,101662,1,0,0:0:0:0:
64,0,101712,1,0,0:0:0:0:
192,0,101712,1,0,0:0:0:0:
320,0,101762,1,0,0:0:0:0:
64,0,101812,1,0,0:0:0:0:
192,0,101812,1,0,0:0:0:0:
320,0,101862,1,0,0:0:0:0:
448,0,101912,1,0,0:0:0:0:
64,0,101961,1,0,0:0:0:0:
320,0,102011,1,0,0:0:0:0:
448,0,102011,1,0,0:0:0:0:
192,0,102061,1,0,0:0:0:0:
64,0,102111,1,0,0:0:0:0:
320,0,102111,1,0,0:0:0:0:
448,0,102111,1,0,0:0:0:0:
192,0,102160,1,0,0:0:0:0:
320,0,102210,1,0,0:0:0:0:
448,0,102260,1,0,0:0:0:0:
64,0,102310,1,0,0:0:0:0:
192,0,102310,1,0,0:0:0:0:
320,0,102360,1,0,0:0:0:0:
64,0,102410,1,0,0:0:0:0:
448,0,102410,1,0,0:0:0:0:
192,0,102460,1,0,0:0:0:0:
320,0,102510,1,0,0:0:0:0:
448,0,102510,1,0,0:0:0:0:
64,0,102559,1,0,0:0:0:0:
192,0,102609,1,0,0:0:0:0:
320,0,102609,1,0,0:0:0:0:
448,0,102659,1,0,0:0:0:0:
64,0,102709,1,0,0:0:0:0:
192,0,102709,1,0,0:0:0:0:
448,0,102758,1,0,0:0:0:0:
64,0,102808,1,0,0:0:0:0:
192,0,102808,1,0,0:0:0:0:
320,0,102858,1,0,0:0:0:0:
448,0,102908,1,0,0:0:0:0:
192,0,102957,1,0,0:0:0:0:
64,0,103007,1,0,0:0:0:0:
448,0,103007,1,0,0:0:0:0:
192,0,103057,1,0,0:0:0:0:
64,0,103107,1,0,0:0:0:0:
448,0,103107,1,0,0:0:0:0:
320,0,103157,1,0,0:0:0:0:
192,0,103207,1,0,0:0:0:0:
64,0,103257,1,0,0:0:0:0:
320,0,103307,1,0,0:0:0:0:
448,0,103307,1,0,0:0:0:0:
192,0,103356,1,0,0:0:0:0:
320,0,103406,1,0,0:0:0:0:
448,0,103406,1,0,0:0:0:0:
192,0,103456,1,0,0:0:0:0:
64,0,103506,1,0,0:0:0:0:
448,0,103506,1,0,0:0:0:0:
320,0,103556,1,0,0:0:0:0:
64,0,103605,1,0,0:0:0:0:
448,0,103605,1,0,0:0:0:0:
320,0,103655,1,0,0:0:0:0:
192,0,103705,1,0,0:0:0:0:
64,0,103755,1,0,0:0:0:0:
320,0,103805,1,0,0:0:0:0:
448,0,103805,1,0,0:0:0:0:
192,0,103855,1,0,0:0:0:0:
320,0,103905,1,0,0:0:0:0:
448,0,103905,1,0,0:0:0:0:
192,0,103955,1,0,0:0:0:0:
64,0,104004,1,0,0:0:0:0:
448,0,104054,1,0,0:0:0:0:
64,0,104104,1,0,0:0:0:0:
320,0,104104,1,0,0:0:0:0:
192,0,104154,1,0,0:0:0:0:
64,0,104203,1,0,0:0:0:0:
320,0,104203,1,0,0:0:0:0:
192,0,104253,1,0,0:0:0:0:
320,0,104303,1,0,0:0:0:0:
448,0,104303,1,0,0:0:0:0:
64,0,104353,1,0,0:0:0:0:
320,0,104402,1,0,0:0:0:0:
448,0,104402,1,0,0:0:0:0:
64,0,104452,1,0,0:0:0:0:
192,0,104502,1,0,0:0:0:0:
320,0,104552,1,0,0:0:0:0:
64,0,104602,1,0,0:0:0:0:
448,0,104602,1,0,0:0:0:0:
192,0,104652,1,0,0:0:0:0:
64,0,104702,1,0,0:0:0:0:
448,0,104702,1,0,0:0:0:0:
192,0,104752,1,0,0:0:0:0:
320,0,104801,1,0,0:0:0:0:
448,0,104851,1,0,0:0:0:0:
64,0,104901,1,0,0:0:0:0:
192,0,104901,1,0,0:0:0:0:
320,0,104951,1,0,0:0:0:0:
448,0,105000,1,0,0:0:0:0:
64,0,105050,1,0,0:0:0:0:
192,0,105100,1,0,0:0:0:0:
320,0,105100,1,0,0:0:0:0:
448,0,105150,1,0,0:0:0:0:
192,0,105200,1,0,0:0:0:0:
320,0,105200,1,0,0:0:0:0:
448,0,105250,1,0,0:0:0:0:
64,0,105300,1,0,0:0:0:0:
192,0,105350,1,0,0:0:0:0:
320,0,105399,1,0,0:0:0:0:
64,0,105449,1,0,0:0:0:0:
320,0,105499,1,0,0:0:0:0:
448,0,105499,1,0,0:0:0:0:
192,0,105549,1,0,0:0:0:0:
64,0,105598,1,0,0:0:0:0:
448,0,105598,1,0,0:0:0:0:
320,0,105648,1,0,0:0:0:0:
64,0,105698,1,0,0:0:0:0:
192,0,105698,1,0,0:0:0:0:
448,0,105748,1,0,0:0:0:0:
192,0,105797,1,0,0:0:0:0:
320,0,105797,1,0,0:0:0:0:
64,0,105847,1,0,0:0:0:0:
320,0,105897,1,0,0:0:0:0:
448,0,105897,1,0,0:0:0:0:
192,0,105947,1,0,0:0:0:0:
64,0,105997,1,0,0:0:0:0:
448,0,105997,1,0,0:0:0:0:
320,0,106047,1,0,0:0:0:0:
192,0,106097,1,0,0:0:0:0:
64,0,106147,1,0,0:0:0:0:
320,0,106196,1,0,0:0:0:0:
448,0,106196,1,0,0:0:0:0:
192,0,106246,1,0,0:0:0:0:
320,0,106296,1,0,0:0:0:0:
448,0,106296,1,0,0:0:0:0:
192,0,106346,1,0,0:0:0:0:
64,0,106395,1,0,0:0:0:0:
320,0,106445,1,0,0:0:0:0:
192,0,106495,1,0,0:0:0:0:
448,0,106495,1,0,0:0:0:0:
64,0,106545,1,0,0:0:0:0:
192,0,106595,1,0,0:0:0:0:
448,0,106595,1,0,0:0:0:0:
64,0,106645,1,0,0:0:0:0:
320,0,106695,1,0,0:0:0:0:
448,0,106695,1,0,0:0:0:0:
192,0,106745,1,0,0:0:0:0:
320,0,106794,1,0,0:0:0:0:
448,0,106794,1,0,0:0:0:0:
192,0,106844,1,0,0:0:0:0:
64,0,106894,1,0,0:0:0:0:
320,0,106944,1,0,0:0:0:0:
64,0,106993,1,0,0:0:0:0:
448,0,106993,1,0,0:0:0:0:
192,0,107043,1,0,0:0:0:0:
64,0,107093,1,0,0:0:0:0:
448,0,107093,1,0,0:0:0:0:
192,0,107143,1,0,0:0:0:0:
320,0,107193,1,0,0:0:0:0:
448,0,107242,1,0,0:0:0:0:
64,0,107292,1,0,0:0:0:0:
192,0,107292,1,0,0:0:0:0:
320,0,107342,1,0,0:0:0:0:
64,0,107392,1,0,0:0:0:0:
192,0,107392,1,0,0:0:0:0:
320,0,107442,1,0,0:0:0:0:
192,0,107492,1,0,0:0:0:0:
448,0,107492,1,0,0:0:0:0:
64,0,107542,1,0,0:0:0:0:
192,0,107592,1,0,0:0:0:0:
448,0,107592,1,0,0:0:0:0:
320,0,107691,1,0,0:0:0:0:
64,0,107791,1,0,0:0:0:0:
192,0,107791,1,0,0:0:0:0:
64,0,107890,1,0,0:0:0:0:
448,0,107890,1,0,0:0:0:0:
320,0,107990,1,0,0:0:0:0:
192,0,108090,1,0,0:0:0:0:
448,0,108090,1,0,0:0:0:0:
192,0,108190,1,0,0:0:0:0:
448,0,108190,1,0,0:0:0:0:
320,0,108289,1,0,0:0:0:0:
64,0,108389,1,0,0:0:0:0:
448,0,108389,1,0,0:0:0:0:
64,0,108488,1,0,0:0:0:0:
320,0,108488,1,0,0:0:0:0:
448,0,108488,1,0,0:0:0:0:
192,0,108538,1,0,0:0:0:0:
320,0,108588,1,0,0:0:0:0:
448,0,108588,1,0,0:0:0:0:
192,0,108637,1,0,0:0:0:0:
320,0,108687,1,0,0:0:0:0:
448,0,108687,1,0,0:0:0:0:
192,0,108737,1,0,0:0:0:0:
320,0,108787,1,0,0:0:0:0:
448,0,108787,1,0,0:0:0:0:
192,0,108837,1,0,0:0:0:0:
64,0,108887,1,0,0:0:0:0:
448,0,108887,1,0,0:0:0:0:
320,0,108937,1,0,0:0:0:0:
192,0,108987,1,0,0:0:0:0:
64,0,109036,1,0,0:0:0:0:
320,0,109086,1,0,0:0:0:0:
448,0,109086,1,0,0:0:0:0:
64,0,109136,1,0,0:0:0:0:
192,0,109186,1,0,0:0:0:0:
320,0,109235,1,0,0:0:0:0:
64,0,109285,1,0,0:0:0:0:
448,0,109285,1,0,0:0:0:0:
192,0,109335,1,0,0:0:0:0:
64,0,109385,1,0,0:0:0:0:
448,0,109385,1,0,0:0:0:0:
192,0,109435,1,0,0:0:0:0:
64,0,109485,1,0,0:0:0:0:
448,0,109485,1,0,0:0:0:0:
192,0,109535,1,0,0:0:0:0:
64,0,109585,1,0,0:0:0:0:
448,0,109585,1,0,0:0:0:0:
192,0,109634,1,0,0:0:0:0:
320,0,109684,1,0,0:0:0:0:
448,0,109684,1,0,0:0:0:0:
64,0,109734,1,0,0:0:0:0:
192,0,109784,1,0,0:0:0:0:
448,0,109833,1,0,0:0:0:0:
64,0,109883,1,0,0:0:0:0:
192,0,109883,1,0,0:0:0:0:
320,0,109933,1,0,0:0:0:0:
448,0,109983,1,0,0:0:0:0:
64,0,110032,1,0,0:0:0:0:
192,0,110082,1,0,0:0:0:0:
320,0,110082,1,0,0:0:0:0:
448,0,110132,1,0,0:0:0:0:
192,0,110182,1,0,0:0:0:0:
320,0,110182,1,0,0:0:0:0:
448,0,110232,1,0,0:0:0:0:
192,0,110282,1,0,0:0:0:0:
320,0,110282,1,0,0:0:0:0:
448,0,110332,1,0,0:0:0:0:
192,0,110382,1,0,0:0:0:0:
320,0,110382,1,0,0:0:0:0:
448,0,110431,1,0,0:0:0:0:
64,0,110481,1,0,0:0:0:0:
192,0,110481,1,0,0:0:0:0:
320,0,110531,1,0,0:0:0:0:
448,0,110581,1,0,0:0:0:0:
192,0,110630,1,0,0:0:0:0:
64,0,110680,1,0,0:0:0:0:
448,0,110680,1,0,0:0:0:0:
320,0,110730,1,0,0:0:0:0:
64,0,110780,1,0,0:0:0:0:
192,0,110830,1,0,0:0:0:0:
320,0,110880,1,0,0:0:0:0:
448,0,110880,1,0,0:0:0:0:
64,0,110930,1,0,0:0:0:0:
320,0,110980,1,0,0:0:0:0:
448,0,110980,1,0,0:0:0:0:
64,0,111030,1,0,0:0:0:0:
320,0,111079,1,0,0:0:0:0:
448,0,111079,1,0,0:0:0:0:
64,0,111129,1,0,0:0:0:0:
320,0,111179,1,0,0:0:0:0:
448,0,111179,1,0,0:0:0:0:
64,0,111229,1,0,0:0:0:0:
192,0,111278,1,0,0:0:0:0:
320,0,111278,1,0,0:0:0:0:
448,0,111328,1,0,0:0:0:0:
192,0,111378,1,0,0:0:0:0:
64,0,111428,1,0,0:0:0:0:
320,0,111477,1,0,0:0:0:0:
448,0,111477,1,0,0:0:0:0:
192,0,111527,1,0,0:0:0:0:
64,0,111577,1,0,0:0:0:0:
448,0,111577,1,0,0:0:0:0:
320,0,111627,1,0,0:0:0:0:
64,0,111677,1,0,0:0:0:0:
192,0,111677,1,0,0:0:0:0:
448,0,111727,1,0,0:0:0:0:
64,0,111777,1,0,0:0:0:0:
192,0,111777,1,0,0:0:0:0:
448,0,111827,1,0,0:0:0:0:
64,0,111876,1,0,0:0:0:0:
192,0,111876,1,0,0:0:0:0:
448,0,111926,1,0,0:0:0:0:
64,0,111976,1,0,0:0:0:0:
192,0,111976,1,0,0:0:0:0:
448,0,112026,1,0,0:0:0:0:
64,0,112075,1,0,0:0:0:0:
320,0,112075,1,0,0:0:0:0:
192,0,112125,1,0,0:0:0:0:
448,0,112175,1,0,0:0:0:0:
320,0,112225,1,0,0:0:0:0:
64,0,112275,1,0,0:0:0:0:
448,0,112275,1,0,0:0:0:0:
192,0,112325,1,0,0:0:0:0:
64,0,112375,1,0,0:0:0:0:
448,0,112425,1,0,0:0:0:0:
192,0,112474,1,0,0:0:0:0:
320,0,112474,1,0,0:0:0:0:
64,0,112524,1,0,0:0:0:0:
192,0,112574,1,0,0:0:0:0:
320,0,112574,1,0,0:0:0:0:
64,0,112624,1,0,0:0:0:0:
192,0,112673,1,0,0:0:0:0:
320,0,112673,1,0,0:0:0:0:
64,0,112723,1,0,0:0:0:0:
192,0,112773,1,0,0:0:0:0:
320,0,112773,1,0,0:0:0:0:
64,0,112823,1,0,0:0:0:0:
320,0,112872,1,0,0:0:0:0:
448,0,112872,1,0,0:0:0:0:
192,0,112922,1,0,0:0:0:0:
64,0,112972,1,0,0:0:0:0:
192,0,113022,1,0,0:0:0:0:
320,0,113072,1,0,0:0:0:0:
448,0,113072,1,0,0:0:0:0:
64,0,113122,1,0,0:0:0:0:
192,0,113172,1,0,0:0:0:0:
320,0,113172,1,0,0:0:0:0:
448,0,113222,1,0,0:0:0:0:
64,0,113271,1,0,0:0:0:0:
192,0,113271,1,0,0:0:0:0:
320,0,113321,1,0,0:0:0:0:
448,0,113371,1,0,0:0:0:0:
320,0,113421,1,0,0:0:0:0:
64,0,113470,1,0,0:0:0:0:
192,0,113470,1,0,0:0:0:0:
448,0,113520,1,0,0:0:0:0:
320,0,113570,1,0,0:0:0:0:
448,0,113620,1,0,0:0:0:0:
64,0,113670,1,0,0:0:0:0:
192,0,113670,1,0,0:0:0:0:
320,0,113720,1,0,0:0:0:0:
448,0,113770,1,0,0:0:0:0:
192,0,113820,1,0,0:0:0:0:
320,0,113869,1,0,0:0:0:0:
448,0,113869,1,0,0:0:0:0:
192,0,113919,1,0,0:0:0:0:
320,0,113969,1,0,0:0:0:0:
192,0,114019,1,0,0:0:0:0:
64,0,114068,1,0,0:0:0:0:
448,0,114068,1,0,0:0:0:0:
320,0,114118,1,0,0:0:0:0:
64,0,114168,1,0,0:0:0:0:
192,0,114168,1,0,0:0:0:0:
320,0,114218,1,0,0:0:0:0:
64,0,114268,1,0,0:0:0:0:
192,0,114268,1,0,0:0:0:0:
320,0,114317,1,0,0:0:0:0:
192,0,114367,1,0,0:0:0:0:
64,0,114417,1,0,0:0:0:0:
320,0,114467,1,0,0:0:0:0:
448,0,114467,1,0,0:0:0:0:
64,0,114517,1,0,0:0:0:0:
192,0,114567,1,0,0:0:0:0:
320,0,114567,1,0,0:0:0:0:
448,0,114617,1,0,0:0:0:0:
320,0,114667,1,0,0:0:0:0:
192,0,114716,1,0,0:0:0:0:
64,0,114766,1,0,0:0:0:0:
448,0,114766,1,0,0:0:0:0:
320,0,114816,1,0,0:0:0:0:
64,0,114866,1,0,0:0:0:0:
192,0,114866,1,0,0:0:0:0:
448,0,114866,1,0,0:0:0:0:
320,0,114915,1,0,0:0:0:0:
64,0,114965,1,0,0:0:0:0:
192,0,114965,1,0,0:0:0:0:
320,0,115015,1,0,0:0:0:0:
64,0,115065,1,0,0:0:0:0:
192,0,115065,1,0,0:0:0:0:
320,0,115115,1,0,0:0:0:0:
64,0,115165,1,0,0:0:0:0:
192,0,115165,1,0,0:0:0:0:
320,0,115215,1,0,0:0:0:0:
64,0,115265,1,0,0:0:0:0:
448,0,115265,1,0,0:0:0:0:
192,0,115314,1,0,0:0:0:0:
320,0,115364,1,0,0:0:0:0:
448,0,115414,1,0,0:0:0:0:
64,0,115464,1,0,0:0:0:0:
192,0,115464,1,0,0:0:0:0:
448,0,115513,1,0,0:0:0:0:
64,0,115563,1,0,0:0:0:0:
320,0,115613,1,0,0:0:0:0:
192,0,115663,1,0,0:0:0:0:
448,0,115663,1,0,0:0:0:0:
64,0,115712,1,0,0:0:0:0:
192,0,115762,1,0,0:0:0:0:
448,0,115762,1,0,0:0:0:0:
64,0,115812,1,0,0:0:0:0:
192,0,115862,1,0,0:0:0:0:
448,0,115862,1,0,0:0:0:0:
64,0,115912,1,0,0:0:0:0:
192,0,115962,1,0,0:0:0:0:
448,0,115962,1,0,0:0:0:0:
64,0,116012,1,0,0:0:0:0:
320,0,116062,1,0,0:0:0:0:
448,0,116062,1,0,0:0:0:0:
192,0,116111,1,0,0:0:0:0:
64,0,116161,1,0,0:0:0:0:
320,0,116211,1,0,0:0:0:0:
192,0,116261,1,0,0:0:0:0:
448,0,116261,1,0,0:0:0:0:
320,0,116310,1,0,0:0:0:0:
64,0,116360,1,0,0:0:0:0:
448,0,116410,1,0,0:0:0:0:
192,0,116460,1,0,0:0:0:0:
320,0,116460,1,0,0:0:0:0:
64,0,116510,1,0,0:0:0:0:
192,0,116560,1,0,0:0:0:0:
320,0,116560,1,0,0:0:0:0:
64,0,116610,1,0,0:0:0:0:
192,0,116660,1,0,0:0:0:0:
320,0,116660,1,0,0:0:0:0:
64,0,116709,1,0,0:0:0:0:
192,0,116759,1,0,0:0:0:0:
320,0,116759,1,0,0:0:0:0:
64,0,116809,1,0,0:0:0:0:
320,0,116859,1,0,0:0:0:0:
448,0,116859,1,0,0:0:0:0:
192,0,116908,1,0,0:0:0:0:
64,0,116958,1,0,0:0:0:0:
320,0,117008,1,0,0:0:0:0:
64,0,117058,1,0,0:0:0:0:
448,0,117058,1,0,0:0:0:0:
192,0,117107,1,0,0:0:0:0:
448,0,117157,1,0,0:0:0:0:
320,0,117207,1,0,0:0:0:0:
64,0,117257,1,0,0:0:0:0:
192,0,117257,1,0,0:0:0:0:
448,0,117307,1,0,0:0:0:0:
64,0,117357,1,0,0:0:0:0:
192,0,117357,1,0,0:0:0:0:
448,0,117407,1,0,0:0:0:0:
64,0,117457,1,0,0:0:0:0:
192,0,117457,1,0,0:0:0:0:
448,0,117506,1,0,0:0:0:0:
64,0,117556,1,0,0:0:0:0:
192,0,117556,1,0,0:0:0:0:
448,0,117606,1,0,0:0:0:0:
192,0,117656,1,0,0:0:0:0:
320,0,117656,1,0,0:0:0:0:
64,0,117705,1,0,0:0:0:0:
320,0,117755,1,0,0:0:0:0:
448,0,117805,1,0,0:0:0:0:
64,0,117855,1,0,0:0:0:0:
192,0,117855,1,0,0:0:0:0:
320,0,117905,1,0,0:0:0:0:
64,0,117955,1,0,0:0:0:0:
448,0,117955,1,0,0:0:0:0:
192,0,118005,1,0,0:0:0:0:
320,0,118055,1,0,0:0:0:0:
448,0,118055,1,0,0:0:0:0:
64,0,118105,1,0,0:0:0:0:
192,0,118154,1,0,0:0:0:0:
64,0,118204,1,0,0:0:0:0:
320,0,118254,1,0,0:0:0:0:
448,0,118254,1,0,0:0:0:0:
64,0,118304,1,0,0:0:0:0:
192,0,118353,1,0,0:0:0:0:
64,0,118403,1,0,0:0:0:0:
192,0,118453,1,0,0:0:0:0:
448,0,118453,1,0,0:0:0:0:
320,0,118503,1,0,0:0:0:0:
64,0,118552,1,0,0:0:0:0:
192,0,118602,1,0,0:0:0:0:
64,0,118652,1,0,0:0:0:0:
448,0,118652,1,0,0:0:0:0:
320,0,118702,1,0,0:0:0:0:
448,0,118752,1,0,0:0:0:0:
64,0,118802,1,0,0:0:0:0:
192,0,118852,1,0,0:0:0:0:
320,0,118852,1,0,0:0:0:0:
448,0,118902,1,0,0:0:0:0:
64,0,118951,1,0,0:0:0:0:
448,0,119001,1,0,0:0:0:0:
192,0,119051,1,0,0:0:0:0:
320,0,119051,1,0,0:0:0:0:
448,0,119101,1,0,0:0:0:0:
64,0,119150,1,0,0:0:0:0:
448,0,119200,1,0,0:0:0:0:
64,0,119250,1,0,0:0:0:0:
192,0,119250,1,0,0:0:0:0:
320,0,119300,1,0,0:0:0:0:
448,0,119350,1,0,0:0:0:0:
320,0,119400,1,0,0:0:0:0:
64,0,119450,1,0,0:0:0:0:
192,0,119450,1,0,0:0:0:0:
448,0,119500,1,0,0:0:0:0:
192,0,119549,1,0,0:0:0:0:
320,0,119549,1,0,0:0:0:0:
64,0,119599,1,0,0:0:0:0:
320,0,119649,1,0,0:0:0:0:
448,0,119649,1,0,0:0:0:0:
192,0,119699,1,0,0:0:0:0:
64,0,119748,1,0,0:0:0:0:
192,0,119798,1,0,0:0:0:0:
320,0,119848,1,0,0:0:0:0:
448,0,119848,1,0,0:0:0:0:
192,0,119898,1,0,0:0:0:0:
64,0,119947,1,0,0:0:0:0:
192,0,119997,1,0,0:0:0:0:
320,0,120047,1,0,0:0:0:0:
448,0,120047,1,0,0:0:0:0:
192,0,120097,1,0,0:0:0:0:
320,0,120147,1,0,0:0:0:0:
192,0,120197,1,0,0:0:0:0:
320,0,120247,1,0,0:0:0:0:
448,0,120247,1,0,0:0:0:0:
192,0,120297,1,0,0:0:0:0:
320,0,120346,1,0,0:0:0:0:
192,0,120396,1,0,0:0:0:0:
64,0,120446,1,0,0:0:0:0:
448,0,120545,1,0,0:0:0:0:
320,0,120545,128,0,120845:0:0:0:0:
64,0,120845,128,0,120944:0:0:0:0:
448,0,120944,1,0,0:0:0:0:
320,0,120994,1,0,0:0:0:0:
192,0,120994,1,0,0:0:0:0:
64,0,121044,1,0,0:0:0:0:
192,0,121094,1,0,0:0:0:0:
448,0,121143,1,0,0:0:0:0:
320,0,121193,1,0,0:0:0:0:
64,0,121243,1,0,0:0:0:0:
192,0,121243,1,0,0:0:0:0:
448,0,121243,1,0,0:0:0:0:
320,0,121293,1,0,0:0:0:0:
64,0,121342,1,0,0:0:0:0:
192,0,121342,1,0,0:0:0:0:
320,0,121392,1,0,0:0:0:0:
64,0,121442,1,0,0:0:0:0:
192,0,121442,1,0,0:0:0:0:
320,0,121492,1,0,0:0:0:0:
448,0,121492,1,0,0:0:0:0:
64,0,121542,1,0,0:0:0:0:
192,0,121592,1,0,0:0:0:0:
320,0,121642,1,0,0:0:0:0:
448,0,121642,1,0,0:0:0:0:
64,0,121692,1,0,0:0:0:0:
192,0,121742,1,0,0:0:0:0:
320,0,121791,1,0,0:0:0:0:
64,0,121841,1,0,0:0:0:0:
448,0,121841,1,0,0:0:0:0:
192,0,121891,1,0,0:0:0:0:
320,0,121941,1,0,0:0:0:0:
448,0,121990,1,0,0:0:0:0:
64,0,122040,1,0,0:0:0:0:
192,0,122040,1,0,0:0:0:0:
320,0,122090,1,0,0:0:0:0:
64,0,122140,1,0,0:0:0:0:
448,0,122140,1,0,0:0:0:0:
192,0,122190,1,0,0:0:0:0:
320,0,122240,1,0,0:0:0:0:
448,0,122240,1,0,0:0:0:0:
64,0,122290,1,0,0:0:0:0:
192,0,122290,1,0,0:0:0:0:
320,0,122340,1,0,0:0:0:0:
448,0,122389,1,0,0:0:0:0:
64,0,122439,1,0,0:0:0:0:
192,0,122439,1,0,0:0:0:0:
320,0,122489,1,0,0:0:0:0:
448,0,122539,1,0,0:0:0:0:
64,0,122588,1,0,0:0:0:0:
320,0,122638,1,0,0:0:0:0:
448,0,122638,1,0,0:0:0:0:
64,0,122688,1,0,0:0:0:0:
192,0,122688,1,0,0:0:0:0:
320,0,122738,1,0,0:0:0:0:
448,0,122738,1,0,0:0:0:0:
192,0,122787,1,0,0:0:0:0:
64,0,122837,1,0,0:0:0:0:
448,0,122837,1,0,0:0:0:0:
320,0,122887,1,0,0:0:0:0:
192,0,122937,1,0,0:0:0:0:
448,0,122937,1,0,0:0:0:0:
320,0,122987,1,0,0:0:0:0:
64,0,123037,1,0,0:0:0:0:
192,0,123037,1,0,0:0:0:0:
320,0,123087,1,0,0:0:0:0:
448,0,123087,1,0,0:0:0:0:
64,0,123137,1,0,0:0:0:0:
192,0,123186,1,0,0:0:0:0:
320,0,123236,1,0,0:0:0:0:
448,0,123236,1,0,0:0:0:0:
64,0,123286,1,0,0:0:0:0:
192,0,123336,1,0,0:0:0:0:
320,0,123385,1,0,0:0:0:0:
64,0,123435,1,0,0:0:0:0:
448,0,123435,1,0,0:0:0:0:
192,0,123485,1,0,0:0:0:0:
320,0,123535,1,0,0:0:0:0:
448,0,123585,1,0,0:0:0:0:
192,0,123635,1,0,0:0:0:0:
448,0,123685,1,0,0:0:0:0:
64,0,123735,1,0,0:0:0:0:
192,0,123735,1,0,0:0:0:0:
320,0,123784,1,0,0:0:0:0:
64,0,123834,1,0,0:0:0:0:
192,0,123834,1,0,0:0:0:0:
320,0,123884,1,0,0:0:0:0:
448,0,123884,1,0,0:0:0:0:
64,0,123934,1,0,0:0:0:0:
192,0,123983,1,0,0:0:0:0:
320,0,124033,1,0,0:0:0:0:
448,0,124033,1,0,0:0:0:0:
64,0,124083,1,0,0:0:0:0:
192,0,124133,1,0,0:0:0:0:
320,0,124182,1,0,0:0:0:0:
64,0,124232,1,0,0:0:0:0:
448,0,124232,1,0,0:0:0:0:
192,0,124282,1,0,0:0:0:0:
320,0,124282,1,0,0:0:0:0:
64,0,124332,1,0,0:0:0:0:
448,0,124332,1,0,0:0:0:0:
320,0,124382,1,0,0:0:0:0:
64,0,124432,1,0,0:0:0:0:
192,0,124432,1,0,0:0:0:0:
448,0,124482,1,0,0:0:0:0:
64,0,124532,1,0,0:0:0:0:
320,0,124532,1,0,0:0:0:0:
448,0,124581,1,0,0:0:0:0:
64,0,124631,1,0,0:0:0:0:
320,0,124631,1,0,0:0:0:0:
192,0,124681,1,0,0:0:0:0:
448,0,124681,1,0,0:0:0:0:
320,0,124731,1,0,0:0:0:0:
64,0,124780,1,0,0:0:0:0:
192,0,124830,1,0,0:0:0:0:
448,0,124830,1,0,0:0:0:0:
320,0,124880,1,0,0:0:0:0:
448,0,124930,1,0,0:0:0:0:
64,0,124980,1,0,0:0:0:0:
192,0,125030,1,0,0:0:0:0:
448,0,125030,1,0,0:0:0:0:
320,0,125080,1,0,0:0:0:0:
64,0,125130,1,0,0:0:0:0:
448,0,125180,1,0,0:0:0:0:
64,0,125229,1,0,0:0:0:0:
192,0,125229,1,0,0:0:0:0:
320,0,125279,1,0,0:0:0:0:
64,0,125329,1,0,0:0:0:0:
448,0,125329,1,0,0:0:0:0:
192,0,125379,1,0,0:0:0:0:
64,0,125428,1,0,0:0:0:0:
448,0,125428,1,0,0:0:0:0:
192,0,125478,1,0,0:0:0:0:
320,0,125478,1,0,0:0:0:0:
448,0,125528,1,0,0:0:0:0:
320,0,125578,1,0,0:0:0:0:
64,0,125627,1,0,0:0:0:0:
448,0,125627,1,0,0:0:0:0:
192,0,125677,1,0,0:0:0:0:
320,0,125727,1,0,0:0:0:0:
64,0,125777,1,0,0:0:0:0:
320,0,125827,1,0,0:0:0:0:
448,0,125827,1,0,0:0:0:0:
64,0,125877,1,0,0:0:0:0:
192,0,125877,1,0,0:0:0:0:
320,0,125927,1,0,0:0:0:0:
448,0,125927,1,0,0:0:0:0:
192,0,125977,1,0,0:0:0:0:
64,0,126026,1,0,0:0:0:0:
448,0,126026,1,0,0:0:0:0:
320,0,126076,1,0,0:0:0:0:
64,0,126126,1,0,0:0:0:0:
192,0,126126,1,0,0:0:0:0:
320,0,126176,1,0,0:0:0:0:
64,0,126225,1,0,0:0:0:0:
448,0,126225,1,0,0:0:0:0:
192,0,126275,1,0,0:0:0:0:
320,0,126275,1,0,0:0:0:0:
448,0,126325,1,0,0:0:0:0:
64,0,126375,1,0,0:0:0:0:
320,0,126425,1,0,0:0:0:0:
448,0,126425,1,0,0:0:0:0:
64,0,126475,1,0,0:0:0:0:
192,0,126525,1,0,0:0:0:0:
448,0,126575,1,0,0:0:0:0:
192,0,126624,1,0,0:0:0:0:
320,0,126624,1,0,0:0:0:0:
448,0,126674,1,0,0:0:0:0:
64,0,126724,1,0,0:0:0:0:
192,0,126774,1,0,0:0:0:0:
64,0,126823,1,0,0:0:0:0:
448,0,126823,1,0,0:0:0:0:
192,0,126873,1,0,0:0:0:0:
320,0,126923,1,0,0:0:0:0:
448,0,126923,1,0,0:0:0:0:
64,0,126973,1,0,0:0:0:0:
192,0,127022,1,0,0:0:0:0:
320,0,127022,1,0,0:0:0:0:
64,0,127072,1,0,0:0:0:0:
448,0,127072,1,0,0:0:0:0:
320,0,127122,1,0,0:0:0:0:
192,0,127172,1,0,0:0:0:0:
64,0,127222,1,0,0:0:0:0:
448,0,127222,1,0,0:0:0:0:
320,0,127272,1,0,0:0:0:0:
192,0,127322,1,0,0:0:0:0:
320,0,127372,1,0,0:0:0:0:
64,0,127421,1,0,0:0:0:0:
448,0,127421,1,0,0:0:0:0:
192,0,127471,1,0,0:0:0:0:
320,0,127471,1,0,0:0:0:0:
64,0,127521,1,0,0:0:0:0:
448,0,127521,1,0,0:0:0:0:
192,0,127571,1,0,0:0:0:0:
64,0,127620,1,0,0:0:0:0:
320,0,127620,1,0,0:0:0:0:
448,0,127620,1,0,0:0:0:0:
320,0,127720,1,0,0:0:0:0:
448,0,127720,1,0,0:0:0:0:
192,0,127770,1,0,0:0:0:0:
320,0,127820,1,0,0:0:0:0:
448,0,127820,1,0,0:0:0:0:
64,0,127870,1,0,0:0:0:0:
192,0,127870,1,0,0:0:0:0:
448,0,127920,1,0,0:0:0:0:
320,0,127970,1,0,0:0:0:0:
64,0,128019,1,0,0:0:0:0:
192,0,128019,1,0,0:0:0:0:
448,0,128069,1,0,0:0:0:0:
320,0,128119,1,0,0:0:0:0:
192,0,128169,1,0,0:0:0:0:
64,0,128218,1,0,0:0:0:0:
448,0,128218,1,0,0:0:0:0:
320,0,128268,1,0,0:0:0:0:
192,0,128318,1,0,0:0:0:0:
64,0,128368,1,0,0:0:0:0:
320,0,128417,1,0,0:0:0:0:
448,0,128417,1,0,0:0:0:0:
192,0,128467,1,0,0:0:0:0:
64,0,128517,1,0,0:0:0:0:
448,0,128517,1,0,0:0:0:0:
320,0,128567,1,0,0:0:0:0:
64,0,128617,1,0,0:0:0:0:
192,0,128617,1,0,0:0:0:0:
320,0,128667,1,0,0:0:0:0:
448,0,128667,1,0,0:0:0:0:
192,0,128717,1,0,0:0:0:0:
64,0,128767,1,0,0:0:0:0:
320,0,128817,1,0,0:0:0:0:
448,0,128817,1,0,0:0:0:0:
192,0,128866,1,0,0:0:0:0:
64,0,128916,1,0,0:0:0:0:
448,0,128966,1,0,0:0:0:0:
64,0,129016,1,0,0:0:0:0:
192,0,129016,1,0,0:0:0:0:
320,0,129065,1,0,0:0:0:0:
448,0,129065,1,0,0:0:0:0:
64,0,129115,1,0,0:0:0:0:
192,0,129115,1,0,0:0:0:0:
320,0,129165,1,0,0:0:0:0:
64,0,129215,1,0,0:0:0:0:
448,0,129215,1,0,0:0:0:0:
192,0,129265,1,0,0:0:0:0:
64,0,129315,1,0,0:0:0:0:
320,0,129315,1,0,0:0:0:0:
192,0,129365,1,0,0:0:0:0:
320,0,129415,1,0,0:0:0:0:
448,0,129415,1,0,0:0:0:0:
64,0,129464,1,0,0:0:0:0:
192,0,129464,1,0,0:0:0:0:
448,0,129514,1,0,0:0:0:0:
320,0,129564,1,0,0:0:0:0:
64,0,129614,1,0,0:0:0:0:
192,0,129614,1,0,0:0:0:0:
448,0,129663,1,0,0:0:0:0:
320,0,129713,1,0,0:0:0:0:
192,0,129763,1,0,0:0:0:0:
64,0,129813,1,0,0:0:0:0:
448,0,129813,1,0,0:0:0:0:
320,0,129862,1,0,0:0:0:0:
192,0,129912,1,0,0:0:0:0:
64,0,129962,1,0,0:0:0:0:
320,0,130012,1,0,0:0:0:0:
64,0,130062,1,0,0:0:0:0:
320,0,130112,1,0,0:0:0:0:
448,0,130112,1,0,0:0:0:0:
192,0,130162,1,0,0:0:0:0:
320,0,130212,1,0,0:0:0:0:
448,0,130212,1,0,0:0:0:0:
64,0,130261,1,0,0:0:0:0:
192,0,130261,1,0,0:0:0:0:
448,0,130311,1,0,0:0:0:0:
320,0,130361,1,0,0:0:0:0:
64,0,130411,1,0,0:0:0:0:
192,0,130411,1,0,0:0:0:0:
448,0,130460,1,0,0:0:0:0:
320,0,130510,1,0,0:0:0:0:
192,0,130560,1,0,0:0:0:0:
64,0,130610,1,0,0:0:0:0:
448,0,130610,1,0,0:0:0:0:
192,0,130660,1,0,0:0:0:0:
320,0,130660,1,0,0:0:0:0:
64,0,130710,1,0,0:0:0:0:
448,0,130710,1,0,0:0:0:0:
192,0,130760,1,0,0:0:0:0:
320,0,130810,1,0,0:0:0:0:
448,0,130810,1,0,0:0:0:0:
64,0,130859,1,0,0:0:0:0:
192,0,130909,1,0,0:0:0:0:
448,0,130909,1,0,0:0:0:0:
64,0,130959,1,0,0:0:0:0:
192,0,131009,1,0,0:0:0:0:
448,0,131009,1,0,0:0:0:0:
64,0,131058,1,0,0:0:0:0:
320,0,131058,1,0,0:0:0:0:
192,0,131108,1,0,0:0:0:0:
448,0,131158,1,0,0:0:0:0:
64,0,131208,1,0,0:0:0:0:
320,0,131208,1,0,0:0:0:0:
192,0,131257,1,0,0:0:0:0:
64,0,131307,1,0,0:0:0:0:
448,0,131357,1,0,0:0:0:0:
64,0,131407,1,0,0:0:0:0:
320,0,131407,1,0,0:0:0:0:
192,0,131457,1,0,0:0:0:0:
448,0,131507,1,0,0:0:0:0:
64,0,131557,1,0,0:0:0:0:
320,0,131607,1,0,0:0:0:0:
448,0,131607,1,0,0:0:0:0:
192,0,131656,1,0,0:0:0:0:
64,0,131706,1,0,0:0:0:0:
448,0,131706,1,0,0:0:0:0:
320,0,131756,1,0,0:0:0:0:
64,0,131806,1,0,0:0:0:0:
448,0,131806,1,0,0:0:0:0:
192,0,131855,1,0,0:0:0:0:
320,0,131855,1,0,0:0:0:0:
64,0,131905,1,0,0:0:0:0:
192,0,131955,1,0,0:0:0:0:
64,0,132005,1,0,0:0:0:0:
448,0,132005,1,0,0:0:0:0:
320,0,132055,1,0,0:0:0:0:
192,0,132105,1,0,0:0:0:0:
448,0,132155,1,0,0:0:0:0:
64,0,132205,1,0,0:0:0:0:
192,0,132205,1,0,0:0:0:0:
320,0,132255,1,0,0:0:0:0:
448,0,132255,1,0,0:0:0:0:
64,0,132304,1,0,0:0:0:0:
192,0,132304,1,0,0:0:0:0:
320,0,132354,1,0,0:0:0:0:
64,0,132404,1,0,0:0:0:0:
448,0,132404,1,0,0:0:0:0:
192,0,132454,1,0,0:0:0:0:
320,0,132503,1,0,0:0:0:0:
448,0,132503,1,0,0:0:0:0:
192,0,132553,1,0,0:0:0:0:
64,0,132603,1,0,0:0:0:0:
448,0,132603,1,0,0:0:0:0:
192,0,132653,1,0,0:0:0:0:
320,0,132653,1,0,0:0:0:0:
64,0,132702,1,0,0:0:0:0:
448,0,132702,1,0,0:0:0:0:
320,0,132752,1,0,0:0:0:0:
64,0,132802,1,0,0:0:0:0:
192,0,132802,1,0,0:0:0:0:
448,0,132852,1,0,0:0:0:0:
192,0,132902,1,0,0:0:0:0:
320,0,132902,1,0,0:0:0:0:
64,0,132952,1,0,0:0:0:0:
320,0,133002,1,0,0:0:0:0:
448,0,133002,1,0,0:0:0:0:
64,0,133052,1,0,0:0:0:0:
192,0,133101,1,0,0:0:0:0:
448,0,133101,1,0,0:0:0:0:
320,0,133151,1,0,0:0:0:0:
64,0,133201,1,0,0:0:0:0:
448,0,133201,1,0,0:0:0:0:
192,0,133251,1,0,0:0:0:0:
320,0,133251,1,0,0:0:0:0:
448,0,133300,1,0,0:0:0:0:
64,0,133350,1,0,0:0:0:0:
192,0,133350,1,0,0:0:0:0:
320,0,133400,1,0,0:0:0:0:
448,0,133450,1,0,0:0:0:0:
64,0,133450,1,0,0:0:0:0:
192,0,133500,1,0,0:0:0:0:
320,0,133550,1,0,0:0:0:0:
448,0,133550,1,0,0:0:0:0:
64,0,133600,1,0,0:0:0:0:
192,0,133650,1,0,0:0:0:0:
320,0,133650,1,0,0:0:0:0:
448,0,133699,1,0,0:0:0:0:
64,0,133749,1,0,0:0:0:0:
192,0,133749,1,0,0:0:0:0:
320,0,133799,1,0,0:0:0:0:
448,0,133849,1,0,0:0:0:0:
64,0,133849,1,0,0:0:0:0:
192,0,133898,1,0,0:0:0:0:
320,0,133948,1,0,0:0:0:0:
448,0,133948,1,0,0:0:0:0:
