osu file format v14

[General]
AudioFilename: audio_1.2.mp3
AudioLeadIn: 0
PreviewTime: 0
Countdown: 1
SampleSet: Normal
StackLeniency: 0.7
Mode: 3
LetterboxInBreaks: 0
SpecialStyle: 0
WidescreenStoryboard: 0

[Editor]
DistanceSpacing: 1
BeatDivisor: 4
GridSize: 16
TimelineZoom: 1

[Metadata]
Title:Hymn (Gammer & G-Spencer Remix)
TitleUnicode:Hymn (Gammer & G-Spencer Remix)
Artist:Tina Cousins
ArtistUnicode:Tina Cousins
Creator:Insp1r3
Version:Challenge x1.2
Source:Yolomania Vol. 3
Tags:
BeatmapID:1786121
BeatmapSetID:854757

[Difficulty]
HPDrainRate:8
CircleSize:4
OverallDifficulty:5.5
ApproachRate:5
SliderMultiplier:1.4
SliderTickRate:1

[Events]
//Background and Video events
0,0,"hymn.png",0,0
//Break Periods
//Storyboard Layer 0 (Background)
//Storyboard Layer 1 (Fail)
//Storyboard Layer 2 (Pass)
//Storyboard Layer 3 (Foreground)
//Storyboard Sound Samples

[TimingPoints]
84,232.511637207443,4,1,0,15,1,0

[HitObjects]
192,192,25,5,0,0:0:0:0:
64,0,84,1,0,0:0:0:0:
448,0,84,128,0,432:0:0:0:0:
320,0,84,1,0,0:0:0:0:
448,0,549,1,0,0:0:0:0:
320,0,1014,128,0,1362:0:0:0:0:
320,0,1479,1,0,0:0:0:0:
192,0,1944,128,0,2292:0:0:0:0:
192,0,2409,1,0,0:0:0:0:
192,0,2641,1,0,0:0:0:0:
448,0,2874,128,0,3222:0:0:0:0:
448,0,3339,1,0,0:0:0:0:
320,0,3687,1,0,0:0:0:0:
320,0,3804,128,0,4152:0:0:0:0:
320,0,4269,1,0,0:0:0:0:
320,0,4501,1,0,0:0:0:0:
320,0,4734,128,0,5082:0:0:0:0:
448,0,5547,128,0,5780:0:0:0:0:
448,0,5896,128,0,6129:0:0:0:0:
64,0,6129,1,0,0:0:0:0:
64,0,6361,128,0,6594:0:0:0:0:
64,0,6710,128,0,6942:0:0:0:0:
64,0,7059,1,0,0:0:0:0:
320,0,7291,1,0,0:0:0:0:
192,0,7407,1,0,0:0:0:0:
64,0,7524,1,0,0:0:0:0:
448,0,7524,128,0,7872:0:0:0:0:
320,0,7989,1,0,0:0:0:0:
448,0,7989,1,0,0:0:0:0:
192,0,8454,1,0,0:0:0:0:
320,0,8454,128,0,8803:0:0:0:0:
64,0,8919,1,0,0:0:0:0:
320,0,8919,1,0,0:0:0:0:
320,0,9151,1,0,0:0:0:0:
192,0,9268,1,0,0:0:0:0:
64,0,9384,128,0,9733:0:0:0:0:
320,0,9384,1,0,0:0:0:0:
64,0,9849,1,0,0:0:0:0:
192,0,9849,1,0,0:0:0:0:
64,0,10081,1,0,0:0:0:0:
192,0,10081,1,0,0:0:0:0:
64,0,10314,1,0,0:0:0:0:
192,0,10314,128,0,10663:0:0:0:0:
64,0,10779,1,0,0:0:0:0:
192,0,10779,1,0,0:0:0:0:
192,0,11011,1,0,0:0:0:0:
64,0,11128,1,0,0:0:0:0:
448,0,11128,1,0,0:0:0:0:
192,0,11244,1,0,0:0:0:0:
448,0,11244,1,0,0:0:0:0:
320,0,11302,1,0,0:0:0:0:
192,0,11360,1,0,0:0:0:0:
64,0,11418,1,0,0:0:0:0:
448,0,11476,1,0,0:0:0:0:
192,0,11535,1,0,0:0:0:0:
320,0,11593,1,0,0:0:0:0:
448,0,11650,1,0,0:0:0:0:
64,0,11709,1,0,0:0:0:0:
192,0,11709,1,0,0:0:0:0:
448,0,11767,1,0,0:0:0:0:
320,0,11825,1,0,0:0:0:0:
192,0,11883,1,0,0:0:0:0:
64,0,11941,1,0,0:0:0:0:
448,0,11941,1,0,0:0:0:0:
192,0,12000,1,0,0:0:0:0:
320,0,12058,1,0,0:0:0:0:
448,0,12115,1,0,0:0:0:0:
64,0,12174,1,0,0:0:0:0:
192,0,12174,1,0,0:0:0:0:
320,0,12232,1,0,0:0:0:0:
192,0,12290,1,0,0:0:0:0:
320,0,12348,1,0,0:0:0:0:
192,0,12406,1,0,0:0:0:0:
320,0,12465,1,0,0:0:0:0:
192,0,12523,1,0,0:0:0:0:
320,0,12581,1,0,0:0:0:0:
192,0,12639,1,0,0:0:0:0:
320,0,12697,1,0,0:0:0:0:
448,0,12755,1,0,0:0:0:0:
64,0,12814,1,0,0:0:0:0:
192,0,12871,1,0,0:0:0:0:
320,0,12930,1,0,0:0:0:0:
64,0,12988,1,0,0:0:0:0:
448,0,12988,1,0,0:0:0:0:
192,0,13046,1,0,0:0:0:0:
320,0,13104,1,0,0:0:0:0:
448,0,13162,1,0,0:0:0:0:
320,0,13220,1,0,0:0:0:0:
192,0,13279,1,0,0:0:0:0:
64,0,13336,1,0,0:0:0:0:
448,0,13336,1,0,0:0:0:0:
192,0,13395,1,0,0:0:0:0:
320,0,13453,1,0,0:0:0:0:
192,0,13511,1,0,0:0:0:0:
64,0,13569,1,0,0:0:0:0:
448,0,13569,1,0,0:0:0:0:
320,0,13627,1,0,0:0:0:0:
192,0,13685,1,0,0:0:0:0:
320,0,13744,1,0,0:0:0:0:
64,0,13801,1,0,0:0:0:0:
448,0,13801,1,0,0:0:0:0:
192,0,13860,1,0,0:0:0:0:
320,0,13918,1,0,0:0:0:0:
448,0,13976,1,0,0:0:0:0:
64,0,14034,1,0,0:0:0:0:
192,0,14034,1,0,0:0:0:0:
64,0,14150,1,0,0:0:0:0:
448,0,14150,128,0,14848:0:0:0:0:
64,0,14964,1,0,0:0:0:0:
320,0,14964,1,0,0:0:0:0:
448,0,14964,1,0,0:0:0:0:
192,0,15080,1,0,0:0:0:0:
64,0,15196,1,0,0:0:0:0:
448,0,15196,1,0,0:0:0:0:
192,0,15313,1,0,0:0:0:0:
320,0,15313,1,0,0:0:0:0:
64,0,15429,1,0,0:0:0:0:
192,0,15429,1,0,0:0:0:0:
320,0,15545,1,0,0:0:0:0:
448,0,15545,1,0,0:0:0:0:
64,0,15661,1,0,0:0:0:0:
320,0,15661,1,0,0:0:0:0:
192,0,15778,1,0,0:0:0:0:
448,0,15778,1,0,0:0:0:0:
64,0,15894,1,0,0:0:0:0:
320,0,16010,1,0,0:0:0:0:
448,0,16010,1,0,0:0:0:0:
320,0,16126,1,0,0:0:0:0:
448,0,16126,1,0,0:0:0:0:
64,0,16243,1,0,0:0:0:0:
192,0,16359,1,0,0:0:0:0:
448,0,16359,1,0,0:0:0:0:
192,0,16475,1,0,0:0:0:0:
448,0,16475,1,0,0:0:0:0:
320,0,16591,1,0,0:0:0:0:
448,0,16591,1,0,0:0:0:0:
192,0,16708,1,0,0:0:0:0:
320,0,16708,1,0,0:0:0:0:
64,0,16825,1,0,0:0:0:0:
320,0,16940,1,0,0:0:0:0:
448,0,16940,1,0,0:0:0:0:
192,0,17057,1,0,0:0:0:0:
320,0,17057,1,0,0:0:0:0:
64,0,17173,1,0,0:0:0:0:
192,0,17290,1,0,0:0:0:0:
320,0,17290,1,0,0:0:0:0:
320,0,17405,1,0,0:0:0:0:
448,0,17405,1,0,0:0:0:0:
64,0,17522,1,0,0:0:0:0:
448,0,17522,1,0,0:0:0:0:
64,0,17638,1,0,0:0:0:0:
192,0,17638,1,0,0:0:0:0:
320,0,17755,1,0,0:0:0:0:
64,0,17870,1,0,0:0:0:0:
448,0,17870,1,0,0:0:0:0:
64,0,17987,1,0,0:0:0:0:
192,0,17987,1,0,0:0:0:0:
320,0,18103,1,0,0:0:0:0:
64,0,18220,1,0,0:0:0:0:
448,0,18220,1,0,0:0:0:0:
320,0,18335,1,0,0:0:0:0:
64,0,18452,1,0,0:0:0:0:
448,0,18452,1,0,0:0:0:0:
64,0,18568,1,0,0:0:0:0:
448,0,18568,1,0,0:0:0:0:
64,0,18685,1,0,0:0:0:0:
192,0,18685,1,0,0:0:0:0:
448,0,18685,1,0,0:0:0:0:
192,0,18800,1,0,0:0:0:0:
320,0,18917,1,0,0:0:0:0:
448,0,18917,1,0,0:0:0:0:
64,0,19033,1,0,0:0:0:0:
192,0,19033,1,0,0:0:0:0:
192,0,19150,1,0,0:0:0:0:
320,0,19150,1,0,0:0:0:0:
64,0,19265,1,0,0:0:0:0:
448,0,19265,1,0,0:0:0:0:
64,0,19382,1,0,0:0:0:0:
192,0,19382,1,0,0:0:0:0:
192,0,19498,1,0,0:0:0:0:
320,0,19498,1,0,0:0:0:0:
64,0,19615,1,0,0:0:0:0:
320,0,19730,1,0,0:0:0:0:
448,0,19730,1,0,0:0:0:0:
192,0,19847,1,0,0:0:0:0:
320,0,19847,1,0,0:0:0:0:
64,0,19963,1,0,0:0:0:0:
192,0,20080,1,0,0:0:0:0:
320,0,20080,1,0,0:0:0:0:
320,0,20195,1,0,0:0:0:0:
448,0,20195,1,0,0:0:0:0:
64,0,20312,1,0,0:0:0:0:
448,0,20312,1,0,0:0:0:0:
64,0,20428,1,0,0:0:0:0:
192,0,20428,1,0,0:0:0:0:
320,0,20545,1,0,0:0:0:0:
64,0,20660,1,0,0:0:0:0:
448,0,20660,1,0,0:0:0:0:
64,0,20777,1,0,0:0:0:0:
448,0,20777,1,0,0:0:0:0:
192,0,20893,1,0,0:0:0:0:
64,0,21010,1,0,0:0:0:0:
448,0,21010,1,0,0:0:0:0:
64,0,21125,1,0,0:0:0:0:
192,0,21125,1,0,0:0:0:0:
192,0,21242,1,0,0:0:0:0:
448,0,21242,1,0,0:0:0:0:
320,0,21358,1,0,0:0:0:0:
448,0,21358,1,0,0:0:0:0:
192,0,21475,1,0,0:0:0:0:
320,0,21590,1,0,0:0:0:0:
448,0,21590,1,0,0:0:0:0:
320,0,21707,1,0,0:0:0:0:
448,0,21707,1,0,0:0:0:0:
192,0,21823,1,0,0:0:0:0:
64,0,21940,1,0,0:0:0:0:
448,0,21940,1,0,0:0:0:0:
64,0,22055,1,0,0:0:0:0:
192,0,22055,1,0,0:0:0:0:
320,0,22172,1,0,0:0:0:0:
64,0,22288,1,0,0:0:0:0:
192,0,22288,1,0,0:0:0:0:
64,0,22405,1,0,0:0:0:0:
192,0,22405,1,0,0:0:0:0:
448,0,22405,1,0,0:0:0:0:
320,0,22463,1,0,0:0:0:0:
192,0,22520,1,0,0:0:0:0:
320,0,22579,1,0,0:0:0:0:
64,0,22637,1,0,0:0:0:0:
448,0,22637,1,0,0:0:0:0:
192,0,22695,1,0,0:0:0:0:
64,0,22753,1,0,0:0:0:0:
448,0,22753,1,0,0:0:0:0:
192,0,22811,1,0,0:0:0:0:
320,0,22870,1,0,0:0:0:0:
448,0,22870,1,0,0:0:0:0:
64,0,22928,1,0,0:0:0:0:
320,0,22985,1,0,0:0:0:0:
448,0,22985,1,0,0:0:0:0:
64,0,23044,1,0,0:0:0:0:
192,0,23102,1,0,0:0:0:0:
448,0,23102,1,0,0:0:0:0:
320,0,23160,1,0,0:0:0:0:
64,0,23218,1,0,0:0:0:0:
192,0,23218,1,0,0:0:0:0:
320,0,23276,1,0,0:0:0:0:
448,0,23335,1,0,0:0:0:0:
192,0,23393,1,0,0:0:0:0:
320,0,23450,1,0,0:0:0:0:
448,0,23450,1,0,0:0:0:0:
192,0,23509,1,0,0:0:0:0:
64,0,23567,1,0,0:0:0:0:
320,0,23567,1,0,0:0:0:0:
448,0,23625,1,0,0:0:0:0:
192,0,23683,1,0,0:0:0:0:
320,0,23741,1,0,0:0:0:0:
64,0,23800,1,0,0:0:0:0:
448,0,23800,1,0,0:0:0:0:
192,0,23858,1,0,0:0:0:0:
64,0,23915,1,0,0:0:0:0:
448,0,23915,1,0,0:0:0:0:
192,0,23974,1,0,0:0:0:0:
320,0,24032,1,0,0:0:0:0:
448,0,24032,1,0,0:0:0:0:
64,0,24090,1,0,0:0:0:0:
320,0,24148,1,0,0:0:0:0:
448,0,24148,1,0,0:0:0:0:
64,0,24206,1,0,0:0:0:0:
192,0,24265,1,0,0:0:0:0:
320,0,24323,1,0,0:0:0:0:
64,0,24380,1,0,0:0:0:0:
448,0,24380,1,0,0:0:0:0:
320,0,24439,1,0,0:0:0:0:
64,0,24497,1,0,0:0:0:0:
192,0,24497,1,0,0:0:0:0:
448,0,24555,1,0,0:0:0:0:
320,0,24613,1,0,0:0:0:0:
192,0,24671,1,0,0:0:0:0:
64,0,24730,1,0,0:0:0:0:
448,0,24730,1,0,0:0:0:0:
192,0,24788,1,0,0:0:0:0:
64,0,24845,1,0,0:0:0:0:
448,0,24845,1,0,0:0:0:0:
320,0,24904,1,0,0:0:0:0:
64,0,24962,1,0,0:0:0:0:
192,0,24962,1,0,0:0:0:0:
320,0,25020,1,0,0:0:0:0:
64,0,25079,1,0,0:0:0:0:
192,0,25079,1,0,0:0:0:0:
448,0,25136,1,0,0:0:0:0:
320,0,25195,1,0,0:0:0:0:
192,0,25253,1,0,0:0:0:0:
64,0,25311,1,0,0:0:0:0:
448,0,25311,1,0,0:0:0:0:
192,0,25369,1,0,0:0:0:0:
320,0,25427,1,0,0:0:0:0:
448,0,25427,1,0,0:0:0:0:
64,0,25485,1,0,0:0:0:0:
192,0,25544,1,0,0:0:0:0:
320,0,25601,1,0,0:0:0:0:
64,0,25660,1,0,0:0:0:0:
192,0,25660,1,0,0:0:0:0:
320,0,25718,1,0,0:0:0:0:
448,0,25776,1,0,0:0:0:0:
64,0,25834,1,0,0:0:0:0:
320,0,25892,1,0,0:0:0:0:
448,0,25892,1,0,0:0:0:0:
64,0,25950,1,0,0:0:0:0:
320,0,26009,1,0,0:0:0:0:
448,0,26009,1,0,0:0:0:0:
192,0,26066,1,0,0:0:0:0:
64,0,26125,1,0,0:0:0:0:
320,0,26125,1,0,0:0:0:0:
448,0,26125,1,0,0:0:0:0:
192,0,26183,1,0,0:0:0:0:
64,0,26241,1,0,0:0:0:0:
320,0,26241,1,0,0:0:0:0:
448,0,26299,1,0,0:0:0:0:
64,0,26357,1,0,0:0:0:0:
192,0,26357,1,0,0:0:0:0:
320,0,26415,1,0,0:0:0:0:
64,0,26474,1,0,0:0:0:0:
448,0,26474,1,0,0:0:0:0:
192,0,26531,1,0,0:0:0:0:
320,0,26590,1,0,0:0:0:0:
448,0,26590,1,0,0:0:0:0:
64,0,26648,1,0,0:0:0:0:
192,0,26706,1,0,0:0:0:0:
320,0,26706,1,0,0:0:0:0:
448,0,26764,1,0,0:0:0:0:
64,0,26822,1,0,0:0:0:0:
192,0,26822,1,0,0:0:0:0:
320,0,26880,1,0,0:0:0:0:
64,0,26939,1,0,0:0:0:0:
448,0,26939,1,0,0:0:0:0:
192,0,26996,1,0,0:0:0:0:
320,0,27055,1,0,0:0:0:0:
448,0,27055,1,0,0:0:0:0:
64,0,27113,1,0,0:0:0:0:
192,0,27171,1,0,0:0:0:0:
320,0,27171,1,0,0:0:0:0:
448,0,27229,1,0,0:0:0:0:
64,0,27287,1,0,0:0:0:0:
192,0,27287,1,0,0:0:0:0:
320,0,27345,1,0,0:0:0:0:
64,0,27404,1,0,0:0:0:0:
448,0,27404,1,0,0:0:0:0:
192,0,27461,1,0,0:0:0:0:
320,0,27520,1,0,0:0:0:0:
448,0,27520,1,0,0:0:0:0:
64,0,27578,1,0,0:0:0:0:
192,0,27636,1,0,0:0:0:0:
320,0,27636,1,0,0:0:0:0:
448,0,27694,1,0,0:0:0:0:
64,0,27752,1,0,0:0:0:0:
192,0,27752,1,0,0:0:0:0:
320,0,27810,1,0,0:0:0:0:
64,0,27869,1,0,0:0:0:0:
448,0,27869,1,0,0:0:0:0:
192,0,27926,1,0,0:0:0:0:
320,0,27985,1,0,0:0:0:0:
448,0,27985,1,0,0:0:0:0:
64,0,28043,1,0,0:0:0:0:
192,0,28043,1,0,0:0:0:0:
320,0,28101,1,0,0:0:0:0:
448,0,28101,1,0,0:0:0:0:
64,0,28159,1,0,0:0:0:0:
192,0,28159,1,0,0:0:0:0:
320,0,28217,1,0,0:0:0:0:
448,0,28217,1,0,0:0:0:0:
64,0,28275,1,0,0:0:0:0:
192,0,28275,1,0,0:0:0:0:
320,0,28334,1,0,0:0:0:0:
448,0,28334,1,0,0:0:0:0:
64,0,28391,1,0,0:0:0:0:
192,0,28391,1,0,0:0:0:0:
320,0,28450,1,0,0:0:0:0:
448,0,28450,1,0,0:0:0:0:
64,0,28508,1,0,0:0:0:0:
192,0,28508,1,0,0:0:0:0:
320,0,28566,1,0,0:0:0:0:
448,0,28566,1,0,0:0:0:0:
64,0,28624,1,0,0:0:0:0:
192,0,28624,1,0,0:0:0:0:
320,0,28682,1,0,0:0:0:0:
448,0,28682,1,0,0:0:0:0:
64,0,28740,1,0,0:0:0:0:
192,0,28740,1,0,0:0:0:0:
320,0,28799,1,0,0:0:0:0:
448,0,28799,1,0,0:0:0:0:
64,0,28856,1,0,0:0:0:0:
192,0,28856,1,0,0:0:0:0:
448,0,28915,1,0,0:0:0:0:
320,0,28973,1,0,0:0:0:0:
192,0,28973,1,0,0:0:0:0:
64,0,29031,1,0,0:0:0:0:
448,0,29031,1,0,0:0:0:0:
320,0,29089,1,0,0:0:0:0:
192,0,29089,1,0,0:0:0:0:
64,0,29147,1,0,0:0:0:0:
448,0,29147,1,0,0:0:0:0:
320,0,29205,1,0,0:0:0:0:
192,0,29205,1,0,0:0:0:0:
64,0,29264,1,0,0:0:0:0:
448,0,29264,1,0,0:0:0:0:
320,0,29322,1,0,0:0:0:0:
192,0,29322,1,0,0:0:0:0:
64,0,29380,1,0,0:0:0:0:
448,0,29380,1,0,0:0:0:0:
320,0,29438,1,0,0:0:0:0:
192,0,29438,1,0,0:0:0:0:
64,0,29496,1,0,0:0:0:0:
448,0,29496,1,0,0:0:0:0:
320,0,29555,1,0,0:0:0:0:
192,0,29555,1,0,0:0:0:0:
64,0,29612,1,0,0:0:0:0:
320,0,29612,1,0,0:0:0:0:
448,0,29612,1,0,0:0:0:0:
64,0,29670,1,0,0:0:0:0:
192,0,29670,1,0,0:0:0:0:
320,0,29729,1,0,0:0:0:0:
448,0,29729,1,0,0:0:0:0:
192,0,29787,1,0,0:0:0:0:
64,0,29845,1,0,0:0:0:0:
320,0,29845,1,0,0:0:0:0:
448,0,29845,1,0,0:0:0:0:
192,0,29903,1,0,0:0:0:0:
320,0,29961,1,0,0:0:0:0:
448,0,30020,1,0,0:0:0:0:
64,0,30077,1,0,0:0:0:0:
192,0,30077,1,0,0:0:0:0:
320,0,30135,1,0,0:0:0:0:
64,0,30194,1,0,0:0:0:0:
448,0,30194,1,0,0:0:0:0:
192,0,30252,1,0,0:0:0:0:
320,0,30310,1,0,0:0:0:0:
448,0,30310,1,0,0:0:0:0:
64,0,30368,1,0,0:0:0:0:
192,0,30426,1,0,0:0:0:0:
320,0,30426,1,0,0:0:0:0:
448,0,30485,1,0,0:0:0:0:
64,0,30542,1,0,0:0:0:0:
192,0,30542,1,0,0:0:0:0:
448,0,30600,1,0,0:0:0:0:
64,0,30659,1,0,0:0:0:0:
192,0,30659,1,0,0:0:0:0:
320,0,30717,1,0,0:0:0:0:
448,0,30775,1,0,0:0:0:0:
192,0,30833,1,0,0:0:0:0:
64,0,30891,1,0,0:0:0:0:
448,0,30891,1,0,0:0:0:0:
192,0,30950,1,0,0:0:0:0:
64,0,31007,1,0,0:0:0:0:
448,0,31007,1,0,0:0:0:0:
320,0,31065,1,0,0:0:0:0:
192,0,31124,1,0,0:0:0:0:
64,0,31182,1,0,0:0:0:0:
320,0,31240,1,0,0:0:0:0:
448,0,31240,1,0,0:0:0:0:
192,0,31298,1,0,0:0:0:0:
320,0,31356,1,0,0:0:0:0:
448,0,31356,1,0,0:0:0:0:
192,0,31415,1,0,0:0:0:0:
64,0,31472,1,0,0:0:0:0:
448,0,31472,1,0,0:0:0:0:
320,0,31530,1,0,0:0:0:0:
64,0,31589,1,0,0:0:0:0:
448,0,31589,1,0,0:0:0:0:
320,0,31647,1,0,0:0:0:0:
192,0,31705,1,0,0:0:0:0:
64,0,31763,1,0,0:0:0:0:
320,0,31821,1,0,0:0:0:0:
448,0,31821,1,0,0:0:0:0:
192,0,31880,1,0,0:0:0:0:
320,0,31937,1,0,0:0:0:0:
448,0,31937,1,0,0:0:0:0:
192,0,31995,1,0,0:0:0:0:
64,0,32054,1,0,0:0:0:0:
448,0,32112,1,0,0:0:0:0:
64,0,32170,1,0,0:0:0:0:
320,0,32170,1,0,0:0:0:0:
192,0,32228,1,0,0:0:0:0:
64,0,32286,1,0,0:0:0:0:
320,0,32286,1,0,0:0:0:0:
192,0,32345,1,0,0:0:0:0:
320,0,32402,1,0,0:0:0:0:
448,0,32402,1,0,0:0:0:0:
64,0,32460,1,0,0:0:0:0:
320,0,32519,1,0,0:0:0:0:
448,0,32519,1,0,0:0:0:0:
64,0,32577,1,0,0:0:0:0:
192,0,32635,1,0,0:0:0:0:
320,0,32693,1,0,0:0:0:0:
64,0,32751,1,0,0:0:0:0:
448,0,32751,1,0,0:0:0:0:
192,0,32810,1,0,0:0:0:0:
64,0,32867,1,0,0:0:0:0:
448,0,32867,1,0,0:0:0:0:
192,0,32925,1,0,0:0:0:0:
320,0,32984,1,0,0:0:0:0:
448,0,33042,1,0,0:0:0:0:
64,0,33100,1,0,0:0:0:0:
192,0,33100,1,0,0:0:0:0:
320,0,33158,1,0,0:0:0:0:
448,0,33216,1,0,0:0:0:0:
64,0,33275,1,0,0:0:0:0:
192,0,33332,1,0,0:0:0:0:
320,0,33332,1,0,0:0:0:0:
448,0,33390,1,0,0:0:0:0:
192,0,33449,1,0,0:0:0:0:
320,0,33449,1,0,0:0:0:0:
448,0,33507,1,0,0:0:0:0:
64,0,33565,1,0,0:0:0:0:
192,0,33623,1,0,0:0:0:0:
320,0,33681,1,0,0:0:0:0:
64,0,33740,1,0,0:0:0:0:
320,0,33798,1,0,0:0:0:0:
448,0,33798,1,0,0:0:0:0:
192,0,33855,1,0,0:0:0:0:
64,0,33914,1,0,0:0:0:0:
448,0,33914,1,0,0:0:0:0:
320,0,33972,1,0,0:0:0:0:
64,0,34030,1,0,0:0:0:0:
192,0,34030,1,0,0:0:0:0:
448,0,34088,1,0,0:0:0:0:
192,0,34146,1,0,0:0:0:0:
320,0,34146,1,0,0:0:0:0:
64,0,34205,1,0,0:0:0:0:
320,0,34263,1,0,0:0:0:0:
448,0,34263,1,0,0:0:0:0:
192,0,34320,1,0,0:0:0:0:
64,0,34379,1,0,0:0:0:0:
448,0,34379,1,0,0:0:0:0:
320,0,34437,1,0,0:0:0:0:
192,0,34495,1,0,0:0:0:0:
64,0,34553,1,0,0:0:0:0:
320,0,34611,1,0,0:0:0:0:
448,0,34611,1,0,0:0:0:0:
192,0,34670,1,0,0:0:0:0:
320,0,34728,1,0,0:0:0:0:
448,0,34728,1,0,0:0:0:0:
192,0,34785,1,0,0:0:0:0:
64,0,34844,1,0,0:0:0:0:
320,0,34902,1,0,0:0:0:0:
192,0,34960,1,0,0:0:0:0:
448,0,34960,1,0,0:0:0:0:
64,0,35018,1,0,0:0:0:0:
192,0,35076,1,0,0:0:0:0:
448,0,35076,1,0,0:0:0:0:
64,0,35135,1,0,0:0:0:0:
320,0,35193,1,0,0:0:0:0:
448,0,35193,1,0,0:0:0:0:
192,0,35250,1,0,0:0:0:0:
320,0,35309,1,0,0:0:0:0:
448,0,35309,1,0,0:0:0:0:
192,0,35367,1,0,0:0:0:0:
64,0,35425,1,0,0:0:0:0:
320,0,35483,1,0,0:0:0:0:
64,0,35541,1,0,0:0:0:0:
448,0,35541,1,0,0:0:0:0:
192,0,35600,1,0,0:0:0:0:
64,0,35658,1,0,0:0:0:0:
448,0,35658,1,0,0:0:0:0:
192,0,35715,1,0,0:0:0:0:
320,0,35774,1,0,0:0:0:0:
448,0,35832,1,0,0:0:0:0:
64,0,35890,1,0,0:0:0:0:
192,0,35890,1,0,0:0:0:0:
320,0,35948,1,0,0:0:0:0:
64,0,36006,1,0,0:0:0:0:
192,0,36006,1,0,0:0:0:0:
320,0,36065,1,0,0:0:0:0:
192,0,36123,1,0,0:0:0:0:
448,0,36123,1,0,0:0:0:0:
64,0,36180,1,0,0:0:0:0:
192,0,36239,1,0,0:0:0:0:
448,0,36239,1,0,0:0:0:0:
64,0,36297,1,0,0:0:0:0:
320,0,36355,1,0,0:0:0:0:
448,0,36413,1,0,0:0:0:0:
64,0,36471,1,0,0:0:0:0:
192,0,36471,1,0,0:0:0:0:
320,0,36530,1,0,0:0:0:0:
64,0,36588,1,0,0:0:0:0:
448,0,36588,1,0,0:0:0:0:
320,0,36645,1,0,0:0:0:0:
192,0,36704,1,0,0:0:0:0:
64,0,36762,1,0,0:0:0:0:
320,0,36820,1,0,0:0:0:0:
448,0,36820,1,0,0:0:0:0:
192,0,36878,1,0,0:0:0:0:
320,0,36936,1,0,0:0:0:0:
448,0,36936,1,0,0:0:0:0:
192,0,36995,1,0,0:0:0:0:
64,0,37053,1,0,0:0:0:0:
448,0,37110,1,0,0:0:0:0:
64,0,37169,1,0,0:0:0:0:
192,0,37169,1,0,0:0:0:0:
320,0,37227,1,0,0:0:0:0:
64,0,37285,1,0,0:0:0:0:
192,0,37285,1,0,0:0:0:0:
448,0,37285,1,0,0:0:0:0:
320,0,37343,1,0,0:0:0:0:
192,0,37401,1,0,0:0:0:0:
64,0,37460,1,0,0:0:0:0:
320,0,37518,1,0,0:0:0:0:
448,0,37518,1,0,0:0:0:0:
192,0,37576,1,0,0:0:0:0:
64,0,37634,1,0,0:0:0:0:
448,0,37634,1,0,0:0:0:0:
320,0,37692,1,0,0:0:0:0:
64,0,37750,1,0,0:0:0:0:
192,0,37750,1,0,0:0:0:0:
448,0,37809,1,0,0:0:0:0:
192,0,37866,1,0,0:0:0:0:
320,0,37866,1,0,0:0:0:0:
64,0,37925,1,0,0:0:0:0:
320,0,37983,1,0,0:0:0:0:
448,0,37983,1,0,0:0:0:0:
64,0,38041,1,0,0:0:0:0:
320,0,38099,1,0,0:0:0:0:
448,0,38099,1,0,0:0:0:0:
192,0,38157,1,0,0:0:0:0:
64,0,38215,1,0,0:0:0:0:
320,0,38274,1,0,0:0:0:0:
64,0,38331,1,0,0:0:0:0:
448,0,38331,1,0,0:0:0:0:
320,0,38390,1,0,0:0:0:0:
64,0,38448,1,0,0:0:0:0:
448,0,38448,1,0,0:0:0:0:
192,0,38506,1,0,0:0:0:0:
320,0,38564,1,0,0:0:0:0:
448,0,38622,1,0,0:0:0:0:
64,0,38680,1,0,0:0:0:0:
192,0,38680,1,0,0:0:0:0:
320,0,38739,1,0,0:0:0:0:
64,0,38796,1,0,0:0:0:0:
192,0,38796,1,0,0:0:0:0:
320,0,38855,1,0,0:0:0:0:
64,0,38913,1,0,0:0:0:0:
448,0,38913,1,0,0:0:0:0:
192,0,38971,1,0,0:0:0:0:
64,0,39029,1,0,0:0:0:0:
448,0,39029,1,0,0:0:0:0:
192,0,39087,1,0,0:0:0:0:
320,0,39145,1,0,0:0:0:0:
448,0,39204,1,0,0:0:0:0:
64,0,39261,1,0,0:0:0:0:
192,0,39261,1,0,0:0:0:0:
320,0,39320,1,0,0:0:0:0:
64,0,39378,1,0,0:0:0:0:
192,0,39378,1,0,0:0:0:0:
320,0,39436,1,0,0:0:0:0:
448,0,39494,1,0,0:0:0:0:
64,0,39552,1,0,0:0:0:0:
192,0,39610,1,0,0:0:0:0:
448,0,39610,1,0,0:0:0:0:
320,0,39669,1,0,0:0:0:0:
192,0,39726,1,0,0:0:0:0:
448,0,39726,1,0,0:0:0:0:
320,0,39785,1,0,0:0:0:0:
64,0,39843,1,0,0:0:0:0:
192,0,39843,1,0,0:0:0:0:
448,0,39901,1,0,0:0:0:0:
64,0,39959,1,0,0:0:0:0:
192,0,39959,1,0,0:0:0:0:
448,0,40017,1,0,0:0:0:0:
320,0,40075,1,0,0:0:0:0:
192,0,40134,1,0,0:0:0:0:
64,0,40191,1,0,0:0:0:0:
448,0,40191,1,0,0:0:0:0:
320,0,40250,1,0,0:0:0:0:
64,0,40308,1,0,0:0:0:0:
448,0,40308,1,0,0:0:0:0:
320,0,40366,1,0,0:0:0:0:
192,0,40424,1,0,0:0:0:0:
64,0,40482,1,0,0:0:0:0:
320,0,40540,1,0,0:0:0:0:
448,0,40540,1,0,0:0:0:0:
192,0,40599,1,0,0:0:0:0:
64,0,40656,1,0,0:0:0:0:
448,0,40715,1,0,0:0:0:0:
192,0,40773,1,0,0:0:0:0:
320,0,40773,1,0,0:0:0:0:
64,0,40831,1,0,0:0:0:0:
192,0,40889,1,0,0:0:0:0:
320,0,40889,1,0,0:0:0:0:
64,0,40947,1,0,0:0:0:0:
448,0,41005,1,0,0:0:0:0:
320,0,41064,1,0,0:0:0:0:
192,0,41121,1,0,0:0:0:0:
448,0,41180,1,0,0:0:0:0:
64,0,41238,1,0,0:0:0:0:
192,0,41238,1,0,0:0:0:0:
320,0,41296,1,0,0:0:0:0:
64,0,41354,1,0,0:0:0:0:
448,0,41354,1,0,0:0:0:0:
192,0,41412,1,0,0:0:0:0:
320,0,41470,1,0,0:0:0:0:
448,0,41470,1,0,0:0:0:0:
64,0,41529,1,0,0:0:0:0:
192,0,41586,1,0,0:0:0:0:
320,0,41586,1,0,0:0:0:0:
448,0,41645,1,0,0:0:0:0:
64,0,41703,1,0,0:0:0:0:
192,0,41703,1,0,0:0:0:0:
320,0,41761,1,0,0:0:0:0:
64,0,41820,1,0,0:0:0:0:
448,0,41820,1,0,0:0:0:0:
192,0,41877,1,0,0:0:0:0:
320,0,41935,1,0,0:0:0:0:
448,0,41994,1,0,0:0:0:0:
64,0,42052,1,0,0:0:0:0:
192,0,42052,1,0,0:0:0:0:
320,0,42110,1,0,0:0:0:0:
64,0,42168,1,0,0:0:0:0:
192,0,42168,1,0,0:0:0:0:
320,0,42226,1,0,0:0:0:0:
448,0,42285,1,0,0:0:0:0:
192,0,42342,1,0,0:0:0:0:
64,0,42400,1,0,0:0:0:0:
320,0,42400,1,0,0:0:0:0:
448,0,42459,1,0,0:0:0:0:
64,0,42517,1,0,0:0:0:0:
320,0,42517,1,0,0:0:0:0:
448,0,42575,1,0,0:0:0:0:
64,0,42633,1,0,0:0:0:0:
192,0,42633,1,0,0:0:0:0:
320,0,42691,1,0,0:0:0:0:
64,0,42750,1,0,0:0:0:0:
192,0,42750,1,0,0:0:0:0:
320,0,42807,1,0,0:0:0:0:
448,0,42865,1,0,0:0:0:0:
192,0,42924,1,0,0:0:0:0:
64,0,42982,1,0,0:0:0:0:
448,0,42982,1,0,0:0:0:0:
320,0,43040,1,0,0:0:0:0:
64,0,43098,1,0,0:0:0:0:
448,0,43098,1,0,0:0:0:0:
320,0,43156,1,0,0:0:0:0:
192,0,43215,1,0,0:0:0:0:
64,0,43272,1,0,0:0:0:0:
320,0,43330,1,0,0:0:0:0:
448,0,43330,1,0,0:0:0:0:
192,0,43389,1,0,0:0:0:0:
320,0,43447,1,0,0:0:0:0:
448,0,43447,1,0,0:0:0:0:
192,0,43505,1,0,0:0:0:0:
64,0,43563,1,0,0:0:0:0:
320,0,43563,1,0,0:0:0:0:
448,0,43621,1,0,0:0:0:0:
64,0,43680,1,0,0:0:0:0:
320,0,43680,1,0,0:0:0:0:
192,0,43795,1,0,0:0:0:0:
320,0,43912,1,0,0:0:0:0:
448,0,43912,1,0,0:0:0:0:
64,0,44028,1,0,0:0:0:0:
448,0,44028,1,0,0:0:0:0:
192,0,44145,1,0,0:0:0:0:
320,0,44260,1,0,0:0:0:0:
448,0,44260,1,0,0:0:0:0:
320,0,44377,1,0,0:0:0:0:
448,0,44377,1,0,0:0:0:0:
192,0,44493,1,0,0:0:0:0:
64,0,44610,1,0,0:0:0:0:
448,0,44610,1,0,0:0:0:0:
64,0,44725,1,0,0:0:0:0:
192,0,44725,1,0,0:0:0:0:
448,0,44725,1,0,0:0:0:0:
320,0,44784,1,0,0:0:0:0:
64,0,44842,1,0,0:0:0:0:
192,0,44842,1,0,0:0:0:0:
320,0,44900,1,0,0:0:0:0:
64,0,44958,1,0,0:0:0:0:
192,0,44958,1,0,0:0:0:0:
320,0,45016,1,0,0:0:0:0:
64,0,45075,1,0,0:0:0:0:
192,0,45075,1,0,0:0:0:0:
320,0,45132,1,0,0:0:0:0:
64,0,45190,1,0,0:0:0:0:
448,0,45190,1,0,0:0:0:0:
192,0,45249,1,0,0:0:0:0:
320,0,45307,1,0,0:0:0:0:
448,0,45365,1,0,0:0:0:0:
64,0,45423,1,0,0:0:0:0:
192,0,45423,1,0,0:0:0:0:
448,0,45481,1,0,0:0:0:0:
192,0,45540,1,0,0:0:0:0:
64,0,45597,1,0,0:0:0:0:
320,0,45655,1,0,0:0:0:0:
448,0,45655,1,0,0:0:0:0:
192,0,45714,1,0,0:0:0:0:
320,0,45772,1,0,0:0:0:0:
448,0,45772,1,0,0:0:0:0:
192,0,45830,1,0,0:0:0:0:
320,0,45888,1,0,0:0:0:0:
448,0,45888,1,0,0:0:0:0:
192,0,45946,1,0,0:0:0:0:
320,0,46005,1,0,0:0:0:0:
448,0,46005,1,0,0:0:0:0:
192,0,46063,1,0,0:0:0:0:
64,0,46120,1,0,0:0:0:0:
448,0,46120,1,0,0:0:0:0:
320,0,46179,1,0,0:0:0:0:
192,0,46237,1,0,0:0:0:0:
64,0,46295,1,0,0:0:0:0:
320,0,46353,1,0,0:0:0:0:
448,0,46353,1,0,0:0:0:0:
192,0,46411,1,0,0:0:0:0:
64,0,46470,1,0,0:0:0:0:
448,0,46528,1,0,0:0:0:0:
192,0,46585,1,0,0:0:0:0:
320,0,46585,1,0,0:0:0:0:
64,0,46644,1,0,0:0:0:0:
192,0,46702,1,0,0:0:0:0:
320,0,46702,1,0,0:0:0:0:
64,0,46760,1,0,0:0:0:0:
192,0,46818,1,0,0:0:0:0:
320,0,46818,1,0,0:0:0:0:
64,0,46876,1,0,0:0:0:0:
192,0,46935,1,0,0:0:0:0:
320,0,46935,1,0,0:0:0:0:
64,0,46993,1,0,0:0:0:0:
320,0,47050,1,0,0:0:0:0:
448,0,47050,1,0,0:0:0:0:
192,0,47109,1,0,0:0:0:0:
64,0,47167,1,0,0:0:0:0:
320,0,47225,1,0,0:0:0:0:
64,0,47283,1,0,0:0:0:0:
448,0,47283,1,0,0:0:0:0:
192,0,47341,1,0,0:0:0:0:
448,0,47400,1,0,0:0:0:0:
320,0,47458,1,0,0:0:0:0:
64,0,47515,1,0,0:0:0:0:
192,0,47515,1,0,0:0:0:0:
448,0,47574,1,0,0:0:0:0:
64,0,47632,1,0,0:0:0:0:
192,0,47632,1,0,0:0:0:0:
448,0,47690,1,0,0:0:0:0:
64,0,47748,1,0,0:0:0:0:
192,0,47748,1,0,0:0:0:0:
448,0,47806,1,0,0:0:0:0:
64,0,47865,1,0,0:0:0:0:
192,0,47865,1,0,0:0:0:0:
448,0,47923,1,0,0:0:0:0:
192,0,47980,1,0,0:0:0:0:
320,0,47980,1,0,0:0:0:0:
64,0,48039,1,0,0:0:0:0:
320,0,48097,1,0,0:0:0:0:
448,0,48155,1,0,0:0:0:0:
64,0,48213,1,0,0:0:0:0:
192,0,48213,1,0,0:0:0:0:
320,0,48271,1,0,0:0:0:0:
64,0,48330,1,0,0:0:0:0:
448,0,48330,1,0,0:0:0:0:
192,0,48388,1,0,0:0:0:0:
320,0,48445,1,0,0:0:0:0:
448,0,48445,1,0,0:0:0:0:
64,0,48504,1,0,0:0:0:0:
320,0,48562,1,0,0:0:0:0:
448,0,48562,1,0,0:0:0:0:
64,0,48620,1,0,0:0:0:0:
320,0,48678,1,0,0:0:0:0:
448,0,48678,1,0,0:0:0:0:
64,0,48736,1,0,0:0:0:0:
320,0,48795,1,0,0:0:0:0:
448,0,48795,1,0,0:0:0:0:
64,0,48853,1,0,0:0:0:0:
192,0,48910,1,0,0:0:0:0:
448,0,48910,1,0,0:0:0:0:
320,0,48969,1,0,0:0:0:0:
64,0,49027,1,0,0:0:0:0:
192,0,49085,1,0,0:0:0:0:
64,0,49143,1,0,0:0:0:0:
448,0,49143,1,0,0:0:0:0:
320,0,49201,1,0,0:0:0:0:
448,0,49260,1,0,0:0:0:0:
64,0,49318,1,0,0:0:0:0:
192,0,49375,1,0,0:0:0:0:
320,0,49375,1,0,0:0:0:0:
448,0,49434,1,0,0:0:0:0:
192,0,49492,1,0,0:0:0:0:
320,0,49492,1,0,0:0:0:0:
448,0,49550,1,0,0:0:0:0:
192,0,49608,1,0,0:0:0:0:
320,0,49608,1,0,0:0:0:0:
448,0,49666,1,0,0:0:0:0:
192,0,49725,1,0,0:0:0:0:
320,0,49725,1,0,0:0:0:0:
448,0,49783,1,0,0:0:0:0:
64,0,49840,1,0,0:0:0:0:
192,0,49840,1,0,0:0:0:0:
320,0,49899,1,0,0:0:0:0:
448,0,49957,1,0,0:0:0:0:
320,0,50015,1,0,0:0:0:0:
64,0,50074,1,0,0:0:0:0:
192,0,50074,1,0,0:0:0:0:
448,0,50131,1,0,0:0:0:0:
192,0,50190,1,0,0:0:0:0:
320,0,50190,1,0,0:0:0:0:
64,0,50248,1,0,0:0:0:0:
320,0,50306,1,0,0:0:0:0:
448,0,50306,1,0,0:0:0:0:
192,0,50364,1,0,0:0:0:0:
64,0,50422,1,0,0:0:0:0:
192,0,50480,1,0,0:0:0:0:
320,0,50539,1,0,0:0:0:0:
448,0,50539,1,0,0:0:0:0:
64,0,50596,1,0,0:0:0:0:
192,0,50655,1,0,0:0:0:0:
64,0,50713,1,0,0:0:0:0:
320,0,50771,1,0,0:0:0:0:
448,0,50771,1,0,0:0:0:0:
192,0,50829,1,0,0:0:0:0:
64,0,50887,1,0,0:0:0:0:
320,0,50945,1,0,0:0:0:0:
64,0,51004,1,0,0:0:0:0:
192,0,51004,1,0,0:0:0:0:
320,0,51061,1,0,0:0:0:0:
192,0,51120,1,0,0:0:0:0:
320,0,51178,1,0,0:0:0:0:
64,0,51236,1,0,0:0:0:0:
448,0,51236,1,0,0:0:0:0:
192,0,51294,1,0,0:0:0:0:
320,0,51352,1,0,0:0:0:0:
448,0,51352,1,0,0:0:0:0:
192,0,51410,1,0,0:0:0:0:
320,0,51469,1,0,0:0:0:0:
448,0,51469,1,0,0:0:0:0:
192,0,51526,1,0,0:0:0:0:
320,0,51585,1,0,0:0:0:0:
448,0,51643,1,0,0:0:0:0:
64,0,51701,1,0,0:0:0:0:
192,0,51701,1,0,0:0:0:0:
448,0,51759,1,0,0:0:0:0:
192,0,51817,1,0,0:0:0:0:
320,0,51817,1,0,0:0:0:0:
64,0,51875,1,0,0:0:0:0:
192,0,51934,1,0,0:0:0:0:
320,0,51991,1,0,0:0:0:0:
64,0,52050,1,0,0:0:0:0:
448,0,52050,1,0,0:0:0:0:
192,0,52108,1,0,0:0:0:0:
64,0,52166,1,0,0:0:0:0:
320,0,52166,1,0,0:0:0:0:
448,0,52166,1,0,0:0:0:0:
192,0,52224,1,0,0:0:0:0:
320,0,52282,1,0,0:0:0:0:
448,0,52282,1,0,0:0:0:0:
192,0,52340,1,0,0:0:0:0:
320,0,52399,1,0,0:0:0:0:
448,0,52399,1,0,0:0:0:0:
192,0,52456,1,0,0:0:0:0:
320,0,52515,1,0,0:0:0:0:
448,0,52515,1,0,0:0:0:0:
192,0,52573,1,0,0:0:0:0:
64,0,52631,1,0,0:0:0:0:
448,0,52631,1,0,0:0:0:0:
320,0,52689,1,0,0:0:0:0:
192,0,52747,1,0,0:0:0:0:
64,0,52805,1,0,0:0:0:0:
320,0,52864,1,0,0:0:0:0:
448,0,52864,1,0,0:0:0:0:
64,0,52921,1,0,0:0:0:0:
320,0,52980,1,0,0:0:0:0:
448,0,53038,1,0,0:0:0:0:
64,0,53096,1,0,0:0:0:0:
192,0,53096,1,0,0:0:0:0:
320,0,53154,1,0,0:0:0:0:
64,0,53212,1,0,0:0:0:0:
192,0,53212,1,0,0:0:0:0:
320,0,53270,1,0,0:0:0:0:
64,0,53329,1,0,0:0:0:0:
192,0,53329,1,0,0:0:0:0:
320,0,53386,1,0,0:0:0:0:
64,0,53445,1,0,0:0:0:0:
192,0,53445,1,0,0:0:0:0:
320,0,53503,1,0,0:0:0:0:
64,0,53561,1,0,0:0:0:0:
448,0,53561,1,0,0:0:0:0:
192,0,53619,1,0,0:0:0:0:
320,0,53677,1,0,0:0:0:0:
448,0,53735,1,0,0:0:0:0:
64,0,53794,1,0,0:0:0:0:
192,0,53794,1,0,0:0:0:0:
320,0,53851,1,0,0:0:0:0:
448,0,53910,1,0,0:0:0:0:
64,0,53968,1,0,0:0:0:0:
192,0,54026,1,0,0:0:0:0:
320,0,54026,1,0,0:0:0:0:
448,0,54084,1,0,0:0:0:0:
192,0,54142,1,0,0:0:0:0:
320,0,54142,1,0,0:0:0:0:
448,0,54200,1,0,0:0:0:0:
192,0,54259,1,0,0:0:0:0:
320,0,54259,1,0,0:0:0:0:
448,0,54317,1,0,0:0:0:0:
192,0,54375,1,0,0:0:0:0:
320,0,54375,1,0,0:0:0:0:
448,0,54433,1,0,0:0:0:0:
64,0,54491,1,0,0:0:0:0:
192,0,54491,1,0,0:0:0:0:
320,0,54550,1,0,0:0:0:0:
448,0,54607,1,0,0:0:0:0:
192,0,54665,1,0,0:0:0:0:
64,0,54724,1,0,0:0:0:0:
448,0,54724,1,0,0:0:0:0:
320,0,54782,1,0,0:0:0:0:
64,0,54840,1,0,0:0:0:0:
192,0,54898,1,0,0:0:0:0:
320,0,54956,1,0,0:0:0:0:
448,0,54956,1,0,0:0:0:0:
64,0,55015,1,0,0:0:0:0:
320,0,55072,1,0,0:0:0:0:
448,0,55072,1,0,0:0:0:0:
64,0,55130,1,0,0:0:0:0:
320,0,55189,1,0,0:0:0:0:
448,0,55189,1,0,0:0:0:0:
64,0,55247,1,0,0:0:0:0:
320,0,55305,1,0,0:0:0:0:
448,0,55305,1,0,0:0:0:0:
64,0,55363,1,0,0:0:0:0:
192,0,55421,1,0,0:0:0:0:
320,0,55421,1,0,0:0:0:0:
448,0,55480,1,0,0:0:0:0:
192,0,55537,1,0,0:0:0:0:
64,0,55595,1,0,0:0:0:0:
320,0,55654,1,0,0:0:0:0:
448,0,55654,1,0,0:0:0:0:
192,0,55712,1,0,0:0:0:0:
64,0,55770,1,0,0:0:0:0:
448,0,55770,1,0,0:0:0:0:
320,0,55828,1,0,0:0:0:0:
64,0,55886,1,0,0:0:0:0:
192,0,55886,1,0,0:0:0:0:
448,0,55945,1,0,0:0:0:0:
64,0,56002,1,0,0:0:0:0:
192,0,56002,1,0,0:0:0:0:
448,0,56060,1,0,0:0:0:0:
64,0,56119,1,0,0:0:0:0:
192,0,56119,1,0,0:0:0:0:
448,0,56177,1,0,0:0:0:0:
64,0,56235,1,0,0:0:0:0:
192,0,56235,1,0,0:0:0:0:
448,0,56293,1,0,0:0:0:0:
64,0,56351,1,0,0:0:0:0:
320,0,56351,1,0,0:0:0:0:
192,0,56410,1,0,0:0:0:0:
448,0,56467,1,0,0:0:0:0:
320,0,56525,1,0,0:0:0:0:
64,0,56584,1,0,0:0:0:0:
448,0,56584,1,0,0:0:0:0:
192,0,56642,1,0,0:0:0:0:
64,0,56700,1,0,0:0:0:0:
448,0,56758,1,0,0:0:0:0:
192,0,56816,1,0,0:0:0:0:
320,0,56816,1,0,0:0:0:0:
64,0,56875,1,0,0:0:0:0:
192,0,56932,1,0,0:0:0:0:
320,0,56932,1,0,0:0:0:0:
64,0,56990,1,0,0:0:0:0:
192,0,57049,1,0,0:0:0:0:
320,0,57049,1,0,0:0:0:0:
64,0,57107,1,0,0:0:0:0:
192,0,57165,1,0,0:0:0:0:
320,0,57165,1,0,0:0:0:0:
64,0,57223,1,0,0:0:0:0:
320,0,57281,1,0,0:0:0:0:
448,0,57281,1,0,0:0:0:0:
192,0,57340,1,0,0:0:0:0:
64,0,57397,1,0,0:0:0:0:
192,0,57455,1,0,0:0:0:0:
320,0,57514,1,0,0:0:0:0:
448,0,57514,1,0,0:0:0:0:
64,0,57572,1,0,0:0:0:0:
192,0,57630,1,0,0:0:0:0:
320,0,57630,1,0,0:0:0:0:
448,0,57688,1,0,0:0:0:0:
64,0,57746,1,0,0:0:0:0:
192,0,57746,1,0,0:0:0:0:
320,0,57805,1,0,0:0:0:0:
448,0,57862,1,0,0:0:0:0:
320,0,57920,1,0,0:0:0:0:
64,0,57979,1,0,0:0:0:0:
192,0,57979,1,0,0:0:0:0:
448,0,58037,1,0,0:0:0:0:
320,0,58095,1,0,0:0:0:0:
448,0,58153,1,0,0:0:0:0:
64,0,58211,1,0,0:0:0:0:
192,0,58211,1,0,0:0:0:0:
320,0,58270,1,0,0:0:0:0:
448,0,58327,1,0,0:0:0:0:
192,0,58385,1,0,0:0:0:0:
320,0,58444,1,0,0:0:0:0:
448,0,58444,1,0,0:0:0:0:
192,0,58502,1,0,0:0:0:0:
320,0,58560,1,0,0:0:0:0:
192,0,58618,1,0,0:0:0:0:
64,0,58676,1,0,0:0:0:0:
448,0,58676,1,0,0:0:0:0:
64,0,58793,1,0,0:0:0:0:
448,0,58793,128,0,59258:0:0:0:0:
64,0,59258,1,0,0:0:0:0:
192,0,59315,1,0,0:0:0:0:
320,0,59315,1,0,0:0:0:0:
448,0,59374,1,0,0:0:0:0:
320,0,59432,1,0,0:0:0:0:
320,0,59548,1,0,0:0:0:0:
64,0,59606,1,0,0:0:0:0:
192,0,59606,1,0,0:0:0:0:
448,0,59606,1,0,0:0:0:0:
320,0,59723,1,0,0:0:0:0:
64,0,59839,1,0,0:0:0:0:
448,0,59839,1,0,0:0:0:0:
320,0,59955,1,0,0:0:0:0:
192,0,60071,1,0,0:0:0:0:
320,0,60188,1,0,0:0:0:0:
64,0,60304,1,0,0:0:0:0:
448,0,60304,1,0,0:0:0:0:
320,0,60420,1,0,0:0:0:0:
192,0,60536,1,0,0:0:0:0:
320,0,60653,1,0,0:0:0:0:
64,0,60769,1,0,0:0:0:0:
448,0,60769,1,0,0:0:0:0:
320,0,60885,1,0,0:0:0:0:
192,0,61001,1,0,0:0:0:0:
320,0,61118,1,0,0:0:0:0:
64,0,61234,1,0,0:0:0:0:
448,0,61234,1,0,0:0:0:0:
320,0,61350,1,0,0:0:0:0:
192,0,61466,1,0,0:0:0:0:
448,0,61583,1,0,0:0:0:0:
64,0,61699,1,0,0:0:0:0:
320,0,61699,1,0,0:0:0:0:
448,0,61815,1,0,0:0:0:0:
192,0,61931,1,0,0:0:0:0:
448,0,62048,1,0,0:0:0:0:
64,0,62164,1,0,0:0:0:0:
320,0,62164,1,0,0:0:0:0:
448,0,62280,1,0,0:0:0:0:
192,0,62396,1,0,0:0:0:0:
448,0,62513,1,0,0:0:0:0:
64,0,62629,1,0,0:0:0:0:
320,0,62629,1,0,0:0:0:0:
448,0,62745,1,0,0:0:0:0:
192,0,62861,128,0,62920:0:0:0:0:
320,0,62861,128,0,62920:0:0:0:0:
192,0,62978,128,0,63036:0:0:0:0:
448,0,62978,128,0,63036:0:0:0:0:
64,0,63094,128,0,63152:0:0:0:0:
320,0,63094,128,0,63152:0:0:0:0:
320,0,63210,128,0,63269:0:0:0:0:
448,0,63210,128,0,63269:0:0:0:0:
64,0,63326,128,0,63385:0:0:0:0:
192,0,63326,128,0,63385:0:0:0:0:
448,0,63326,128,0,63385:0:0:0:0:
64,0,63443,128,0,63501:0:0:0:0:
192,0,63443,128,0,63501:0:0:0:0:
320,0,63559,128,0,63617:0:0:0:0:
448,0,63559,128,0,63617:0:0:0:0:
192,0,63675,1,0,0:0:0:0:
64,0,63791,1,0,0:0:0:0:
192,0,63908,1,0,0:0:0:0:
320,0,64024,1,0,0:0:0:0:
448,0,64024,1,0,0:0:0:0:
192,0,64140,1,0,0:0:0:0:
64,0,64256,1,0,0:0:0:0:
320,0,64256,1,0,0:0:0:0:
448,0,64256,1,0,0:0:0:0:
192,0,64373,1,0,0:0:0:0:
320,0,64489,1,0,0:0:0:0:
448,0,64489,1,0,0:0:0:0:
192,0,64605,1,0,0:0:0:0:
64,0,64721,1,0,0:0:0:0:
192,0,64838,1,0,0:0:0:0:
320,0,64954,1,0,0:0:0:0:
448,0,64954,1,0,0:0:0:0:
192,0,65070,1,0,0:0:0:0:
64,0,65186,1,0,0:0:0:0:
320,0,65186,1,0,0:0:0:0:
448,0,65186,1,0,0:0:0:0:
320,0,65303,1,0,0:0:0:0:
64,0,65419,1,0,0:0:0:0:
192,0,65419,1,0,0:0:0:0:
320,0,65535,1,0,0:0:0:0:
64,0,65651,1,0,0:0:0:0:
192,0,65651,1,0,0:0:0:0:
448,0,65651,1,0,0:0:0:0:
320,0,65768,1,0,0:0:0:0:
64,0,65884,1,0,0:0:0:0:
192,0,65884,1,0,0:0:0:0:
320,0,66000,1,0,0:0:0:0:
64,0,66116,1,0,0:0:0:0:
192,0,66116,1,0,0:0:0:0:
448,0,66116,1,0,0:0:0:0:
320,0,66233,1,0,0:0:0:0:
64,0,66349,1,0,0:0:0:0:
192,0,66349,1,0,0:0:0:0:
448,0,66349,1,0,0:0:0:0:
320,0,66465,1,0,0:0:0:0:
64,0,66581,128,0,66640:0:0:0:0:
192,0,66581,128,0,66640:0:0:0:0:
320,0,66581,128,0,66640:0:0:0:0:
64,0,66698,128,0,66756:0:0:0:0:
192,0,66698,128,0,66756:0:0:0:0:
448,0,66698,128,0,66756:0:0:0:0:
64,0,66815,128,0,66872:0:0:0:0:
320,0,66815,128,0,66872:0:0:0:0:
448,0,66815,128,0,66872:0:0:0:0:
192,0,66930,128,0,66989:0:0:0:0:
320,0,66930,128,0,66989:0:0:0:0:
448,0,66930,128,0,66989:0:0:0:0:
64,0,67047,128,0,67105:0:0:0:0:
192,0,67047,128,0,67105:0:0:0:0:
320,0,67105,1,0,0:0:0:0:
64,0,67163,128,0,67221:0:0:0:0:
448,0,67163,128,0,67221:0:0:0:0:
192,0,67221,1,0,0:0:0:0:
64,0,67280,128,0,67337:0:0:0:0:
320,0,67280,128,0,67337:0:0:0:0:
448,0,67280,128,0,67337:0:0:0:0:
192,0,67337,1,0,0:0:0:0:
320,0,67395,1,0,0:0:0:0:
64,0,67454,1,0,0:0:0:0:
192,0,67512,1,0,0:0:0:0:
448,0,67512,1,0,0:0:0:0:
320,0,67570,1,0,0:0:0:0:
64,0,67628,1,0,0:0:0:0:
192,0,67686,1,0,0:0:0:0:
64,0,67745,1,0,0:0:0:0:
320,0,67745,1,0,0:0:0:0:
448,0,67745,1,0,0:0:0:0:
192,0,67802,1,0,0:0:0:0:
448,0,67860,1,0,0:0:0:0:
320,0,67919,1,0,0:0:0:0:
64,0,67977,1,0,0:0:0:0:
192,0,67977,1,0,0:0:0:0:
320,0,68035,1,0,0:0:0:0:
448,0,68093,1,0,0:0:0:0:
192,0,68151,1,0,0:0:0:0:
64,0,68210,1,0,0:0:0:0:
320,0,68210,1,0,0:0:0:0:
448,0,68210,1,0,0:0:0:0:
192,0,68267,1,0,0:0:0:0:
64,0,68325,1,0,0:0:0:0:
448,0,68384,1,0,0:0:0:0:
192,0,68442,1,0,0:0:0:0:
320,0,68442,1,0,0:0:0:0:
448,0,68500,1,0,0:0:0:0:
64,0,68558,1,0,0:0:0:0:
192,0,68616,1,0,0:0:0:0:
64,0,68675,1,0,0:0:0:0:
320,0,68675,1,0,0:0:0:0:
448,0,68675,1,0,0:0:0:0:
192,0,68732,1,0,0:0:0:0:
320,0,68790,1,0,0:0:0:0:
448,0,68849,1,0,0:0:0:0:
64,0,68907,1,0,0:0:0:0:
192,0,68907,1,0,0:0:0:0:
448,0,68965,1,0,0:0:0:0:
64,0,69023,1,0,0:0:0:0:
320,0,69081,1,0,0:0:0:0:
64,0,69140,1,0,0:0:0:0:
192,0,69140,1,0,0:0:0:0:
448,0,69140,1,0,0:0:0:0:
320,0,69197,1,0,0:0:0:0:
192,0,69255,1,0,0:0:0:0:
64,0,69314,1,0,0:0:0:0:
320,0,69372,1,0,0:0:0:0:
448,0,69372,1,0,0:0:0:0:
64,0,69430,1,0,0:0:0:0:
192,0,69488,1,0,0:0:0:0:
448,0,69546,1,0,0:0:0:0:
64,0,69605,1,0,0:0:0:0:
192,0,69605,1,0,0:0:0:0:
320,0,69605,1,0,0:0:0:0:
448,0,69662,1,0,0:0:0:0:
64,0,69720,1,0,0:0:0:0:
320,0,69779,1,0,0:0:0:0:
192,0,69837,1,0,0:0:0:0:
448,0,69837,1,0,0:0:0:0:
320,0,69895,1,0,0:0:0:0:
64,0,69953,1,0,0:0:0:0:
192,0,70011,1,0,0:0:0:0:
64,0,70070,1,0,0:0:0:0:
320,0,70070,1,0,0:0:0:0:
448,0,70070,1,0,0:0:0:0:
192,0,70127,1,0,0:0:0:0:
320,0,70185,1,0,0:0:0:0:
448,0,70244,1,0,0:0:0:0:
64,0,70302,1,0,0:0:0:0:
192,0,70302,1,0,0:0:0:0:
448,0,70360,1,0,0:0:0:0:
320,0,70418,1,0,0:0:0:0:
64,0,70476,1,0,0:0:0:0:
192,0,70535,1,0,0:0:0:0:
320,0,70535,1,0,0:0:0:0:
448,0,70535,1,0,0:0:0:0:
64,0,70592,1,0,0:0:0:0:
192,0,70650,1,0,0:0:0:0:
448,0,70709,1,0,0:0:0:0:
64,0,70767,1,0,0:0:0:0:
320,0,70767,1,0,0:0:0:0:
448,0,70825,1,0,0:0:0:0:
192,0,70883,1,0,0:0:0:0:
320,0,70941,1,0,0:0:0:0:
64,0,71000,1,0,0:0:0:0:
192,0,71000,1,0,0:0:0:0:
448,0,71000,1,0,0:0:0:0:
320,0,71058,1,0,0:0:0:0:
64,0,71115,1,0,0:0:0:0:
192,0,71174,1,0,0:0:0:0:
320,0,71232,1,0,0:0:0:0:
448,0,71232,1,0,0:0:0:0:
192,0,71290,1,0,0:0:0:0:
64,0,71348,1,0,0:0:0:0:
448,0,71406,1,0,0:0:0:0:
64,0,71465,1,0,0:0:0:0:
192,0,71465,1,0,0:0:0:0:
320,0,71465,1,0,0:0:0:0:
448,0,71523,1,0,0:0:0:0:
192,0,71580,1,0,0:0:0:0:
64,0,71639,1,0,0:0:0:0:
320,0,71697,1,0,0:0:0:0:
448,0,71697,1,0,0:0:0:0:
192,0,71755,1,0,0:0:0:0:
64,0,71813,1,0,0:0:0:0:
320,0,71871,1,0,0:0:0:0:
64,0,71930,1,0,0:0:0:0:
192,0,71930,1,0,0:0:0:0:
448,0,71930,1,0,0:0:0:0:
320,0,71988,1,0,0:0:0:0:
192,0,72045,1,0,0:0:0:0:
448,0,72104,1,0,0:0:0:0:
64,0,72162,1,0,0:0:0:0:
320,0,72162,1,0,0:0:0:0:
192,0,72220,1,0,0:0:0:0:
448,0,72278,1,0,0:0:0:0:
320,0,72336,1,0,0:0:0:0:
64,0,72395,1,0,0:0:0:0:
192,0,72395,1,0,0:0:0:0:
448,0,72395,1,0,0:0:0:0:
320,0,72453,1,0,0:0:0:0:
64,0,72510,1,0,0:0:0:0:
192,0,72569,1,0,0:0:0:0:
320,0,72627,1,0,0:0:0:0:
448,0,72627,1,0,0:0:0:0:
192,0,72685,1,0,0:0:0:0:
320,0,72743,1,0,0:0:0:0:
192,0,72801,1,0,0:0:0:0:
64,0,72860,1,0,0:0:0:0:
320,0,72860,1,0,0:0:0:0:
448,0,72860,1,0,0:0:0:0:
192,0,72918,1,0,0:0:0:0:
320,0,72975,1,0,0:0:0:0:
192,0,73034,1,0,0:0:0:0:
320,0,73092,1,0,0:0:0:0:
448,0,73092,1,0,0:0:0:0:
192,0,73150,1,0,0:0:0:0:
320,0,73208,1,0,0:0:0:0:
192,0,73266,1,0,0:0:0:0:
64,0,73325,1,0,0:0:0:0:
320,0,73325,1,0,0:0:0:0:
448,0,73325,1,0,0:0:0:0:
192,0,73383,1,0,0:0:0:0:
320,0,73440,1,0,0:0:0:0:
448,0,73440,1,0,0:0:0:0:
192,0,73499,1,0,0:0:0:0:
64,0,73557,1,0,0:0:0:0:
448,0,73557,1,0,0:0:0:0:
320,0,73615,1,0,0:0:0:0:
192,0,73673,1,0,0:0:0:0:
64,0,73731,1,0,0:0:0:0:
192,0,73790,1,0,0:0:0:0:
320,0,73848,1,0,0:0:0:0:
64,0,73905,1,0,0:0:0:0:
448,0,73905,1,0,0:0:0:0:
320,0,73964,1,0,0:0:0:0:
192,0,74022,1,0,0:0:0:0:
64,0,74080,1,0,0:0:0:0:
192,0,74138,1,0,0:0:0:0:
320,0,74196,1,0,0:0:0:0:
448,0,74255,1,0,0:0:0:0:
320,0,74313,1,0,0:0:0:0:
64,0,74370,1,0,0:0:0:0:
192,0,74370,1,0,0:0:0:0:
448,0,74429,1,0,0:0:0:0:
64,0,74487,1,0,0:0:0:0:
192,0,74487,1,0,0:0:0:0:
320,0,74487,1,0,0:0:0:0:
448,0,74545,1,0,0:0:0:0:
64,0,74603,1,0,0:0:0:0:
320,0,74603,1,0,0:0:0:0:
192,0,74661,1,0,0:0:0:0:
64,0,74720,1,0,0:0:0:0:
448,0,74720,1,0,0:0:0:0:
320,0,74778,1,0,0:0:0:0:
64,0,74835,1,0,0:0:0:0:
192,0,74835,1,0,0:0:0:0:
448,0,74894,1,0,0:0:0:0:
320,0,74952,1,0,0:0:0:0:
64,0,75010,1,0,0:0:0:0:
448,0,75069,1,0,0:0:0:0:
192,0,75126,1,0,0:0:0:0:
64,0,75185,1,0,0:0:0:0:
448,0,75185,1,0,0:0:0:0:
320,0,75243,1,0,0:0:0:0:
192,0,75301,1,0,0:0:0:0:
448,0,75359,1,0,0:0:0:0:
64,0,75417,1,0,0:0:0:0:
448,0,75475,1,0,0:0:0:0:
192,0,75534,1,0,0:0:0:0:
320,0,75591,1,0,0:0:0:0:
64,0,75650,1,0,0:0:0:0:
448,0,75650,1,0,0:0:0:0:
192,0,75708,1,0,0:0:0:0:
320,0,75766,1,0,0:0:0:0:
448,0,75766,1,0,0:0:0:0:
64,0,75824,1,0,0:0:0:0:
192,0,75882,1,0,0:0:0:0:
320,0,75882,1,0,0:0:0:0:
448,0,75940,1,0,0:0:0:0:
64,0,75999,1,0,0:0:0:0:
320,0,76056,1,0,0:0:0:0:
64,0,76115,1,0,0:0:0:0:
448,0,76115,1,0,0:0:0:0:
192,0,76173,1,0,0:0:0:0:
320,0,76231,1,0,0:0:0:0:
448,0,76231,1,0,0:0:0:0:
64,0,76289,1,0,0:0:0:0:
320,0,76347,1,0,0:0:0:0:
64,0,76405,1,0,0:0:0:0:
192,0,76405,1,0,0:0:0:0:
320,0,76464,1,0,0:0:0:0:
192,0,76521,1,0,0:0:0:0:
64,0,76580,1,0,0:0:0:0:
448,0,76580,1,0,0:0:0:0:
320,0,76638,1,0,0:0:0:0:
64,0,76696,1,0,0:0:0:0:
192,0,76696,1,0,0:0:0:0:
320,0,76754,1,0,0:0:0:0:
192,0,76812,1,0,0:0:0:0:
448,0,76870,1,0,0:0:0:0:
192,0,76929,1,0,0:0:0:0:
448,0,76986,1,0,0:0:0:0:
64,0,77045,1,0,0:0:0:0:
320,0,77045,1,0,0:0:0:0:
192,0,77103,1,0,0:0:0:0:
320,0,77161,1,0,0:0:0:0:
192,0,77219,1,0,0:0:0:0:
448,0,77277,1,0,0:0:0:0:
64,0,77335,1,0,0:0:0:0:
320,0,77394,1,0,0:0:0:0:
64,0,77451,1,0,0:0:0:0:
192,0,77510,1,0,0:0:0:0:
448,0,77510,1,0,0:0:0:0:
320,0,77568,1,0,0:0:0:0:
64,0,77626,1,0,0:0:0:0:
448,0,77626,1,0,0:0:0:0:
320,0,77684,1,0,0:0:0:0:
64,0,77742,1,0,0:0:0:0:
192,0,77742,1,0,0:0:0:0:
448,0,77800,1,0,0:0:0:0:
320,0,77859,1,0,0:0:0:0:
448,0,77916,1,0,0:0:0:0:
64,0,77975,1,0,0:0:0:0:
192,0,77975,1,0,0:0:0:0:
320,0,78033,1,0,0:0:0:0:
192,0,78091,1,0,0:0:0:0:
320,0,78149,1,0,0:0:0:0:
448,0,78149,1,0,0:0:0:0:
64,0,78207,1,0,0:0:0:0:
192,0,78207,1,0,0:0:0:0:
448,0,78265,1,0,0:0:0:0:
320,0,78324,1,0,0:0:0:0:
192,0,78381,1,0,0:0:0:0:
448,0,78381,1,0,0:0:0:0:
64,0,78440,1,0,0:0:0:0:
320,0,78440,1,0,0:0:0:0:
192,0,78498,1,0,0:0:0:0:
320,0,78556,1,0,0:0:0:0:
448,0,78614,1,0,0:0:0:0:
64,0,78672,1,0,0:0:0:0:
192,0,78730,1,0,0:0:0:0:
320,0,78789,1,0,0:0:0:0:
448,0,78789,1,0,0:0:0:0:
64,0,78846,1,0,0:0:0:0:
192,0,78905,1,0,0:0:0:0:
320,0,78905,1,0,0:0:0:0:
448,0,78963,1,0,0:0:0:0:
64,0,79021,1,0,0:0:0:0:
192,0,79079,1,0,0:0:0:0:
448,0,79137,1,0,0:0:0:0:
320,0,79195,1,0,0:0:0:0:
192,0,79254,1,0,0:0:0:0:
64,0,79312,1,0,0:0:0:0:
320,0,79370,1,0,0:0:0:0:
448,0,79370,1,0,0:0:0:0:
192,0,79428,1,0,0:0:0:0:
64,0,79486,1,0,0:0:0:0:
448,0,79545,1,0,0:0:0:0:
192,0,79602,1,0,0:0:0:0:
320,0,79602,1,0,0:0:0:0:
64,0,79660,1,0,0:0:0:0:
320,0,79719,1,0,0:0:0:0:
448,0,79719,1,0,0:0:0:0:
192,0,79777,1,0,0:0:0:0:
64,0,79835,1,0,0:0:0:0:
448,0,79835,1,0,0:0:0:0:
320,0,79893,1,0,0:0:0:0:
192,0,79951,1,0,0:0:0:0:
64,0,80010,1,0,0:0:0:0:
320,0,80067,1,0,0:0:0:0:
448,0,80067,1,0,0:0:0:0:
192,0,80125,1,0,0:0:0:0:
320,0,80184,1,0,0:0:0:0:
192,0,80242,1,0,0:0:0:0:
64,0,80300,1,0,0:0:0:0:
448,0,80300,1,0,0:0:0:0:
192,0,80358,1,0,0:0:0:0:
320,0,80416,1,0,0:0:0:0:
192,0,80475,1,0,0:0:0:0:
320,0,80532,1,0,0:0:0:0:
192,0,80590,1,0,0:0:0:0:
320,0,80649,1,0,0:0:0:0:
192,0,80707,1,0,0:0:0:0:
64,0,80765,1,0,0:0:0:0:
448,0,80765,1,0,0:0:0:0:
320,0,80823,1,0,0:0:0:0:
192,0,80881,1,0,0:0:0:0:
448,0,80940,1,0,0:0:0:0:
320,0,80997,1,0,0:0:0:0:
64,0,81055,1,0,0:0:0:0:
192,0,81114,1,0,0:0:0:0:
320,0,81172,1,0,0:0:0:0:
64,0,81230,1,0,0:0:0:0:
192,0,81230,1,0,0:0:0:0:
448,0,81288,1,0,0:0:0:0:
192,0,81346,1,0,0:0:0:0:
320,0,81346,1,0,0:0:0:0:
64,0,81405,1,0,0:0:0:0:
320,0,81462,1,0,0:0:0:0:
448,0,81462,1,0,0:0:0:0:
192,0,81520,1,0,0:0:0:0:
64,0,81579,1,0,0:0:0:0:
320,0,81637,1,0,0:0:0:0:
448,0,81637,1,0,0:0:0:0:
64,0,81695,1,0,0:0:0:0:
192,0,81695,1,0,0:0:0:0:
448,0,81753,1,0,0:0:0:0:
64,0,81811,1,0,0:0:0:0:
192,0,81811,1,0,0:0:0:0:
320,0,81870,1,0,0:0:0:0:
64,0,81927,1,0,0:0:0:0:
192,0,81927,1,0,0:0:0:0:
448,0,81927,1,0,0:0:0:0:
320,0,81985,1,0,0:0:0:0:
192,0,82044,1,0,0:0:0:0:
448,0,82102,1,0,0:0:0:0:
64,0,82160,1,0,0:0:0:0:
320,0,82160,1,0,0:0:0:0:
192,0,82218,1,0,0:0:0:0:
64,0,82276,1,0,0:0:0:0:
320,0,82276,1,0,0:0:0:0:
448,0,82335,1,0,0:0:0:0:
192,0,82392,1,0,0:0:0:0:
448,0,82450,1,0,0:0:0:0:
192,0,82509,1,0,0:0:0:0:
320,0,82567,1,0,0:0:0:0:
64,0,82625,1,0,0:0:0:0:
448,0,82625,1,0,0:0:0:0:
192,0,82683,1,0,0:0:0:0:
64,0,82741,1,0,0:0:0:0:
192,0,82800,1,0,0:0:0:0:
320,0,82857,1,0,0:0:0:0:
192,0,82915,1,0,0:0:0:0:
448,0,82974,1,0,0:0:0:0:
64,0,83032,1,0,0:0:0:0:
320,0,83090,1,0,0:0:0:0:
448,0,83090,1,0,0:0:0:0:
192,0,83148,1,0,0:0:0:0:
320,0,83206,1,0,0:0:0:0:
448,0,83206,1,0,0:0:0:0:
192,0,83265,1,0,0:0:0:0:
64,0,83322,1,0,0:0:0:0:
448,0,83322,1,0,0:0:0:0:
192,0,83380,1,0,0:0:0:0:
320,0,83439,1,0,0:0:0:0:
448,0,83497,1,0,0:0:0:0:
192,0,83555,1,0,0:0:0:0:
320,0,83555,1,0,0:0:0:0:
64,0,83613,1,0,0:0:0:0:
320,0,83671,1,0,0:0:0:0:
448,0,83671,1,0,0:0:0:0:
64,0,83730,1,0,0:0:0:0:
192,0,83788,1,0,0:0:0:0:
448,0,83788,1,0,0:0:0:0:
320,0,83845,1,0,0:0:0:0:
192,0,83904,1,0,0:0:0:0:
448,0,83904,1,0,0:0:0:0:
320,0,83962,1,0,0:0:0:0:
64,0,84020,1,0,0:0:0:0:
448,0,84020,1,0,0:0:0:0:
192,0,84078,1,0,0:0:0:0:
64,0,84136,1,0,0:0:0:0:
320,0,84136,1,0,0:0:0:0:
192,0,84195,1,0,0:0:0:0:
320,0,84253,1,0,0:0:0:0:
192,0,84310,1,0,0:0:0:0:
448,0,84369,1,0,0:0:0:0:
320,0,84427,1,0,0:0:0:0:
64,0,84485,1,0,0:0:0:0:
448,0,84485,1,0,0:0:0:0:
192,0,84543,1,0,0:0:0:0:
64,0,84601,1,0,0:0:0:0:
192,0,84660,1,0,0:0:0:0:
320,0,84718,1,0,0:0:0:0:
192,0,84775,1,0,0:0:0:0:
320,0,84834,1,0,0:0:0:0:
448,0,84892,1,0,0:0:0:0:
64,0,84950,1,0,0:0:0:0:
192,0,84950,1,0,0:0:0:0:
320,0,85008,1,0,0:0:0:0:
64,0,85066,1,0,0:0:0:0:
192,0,85066,1,0,0:0:0:0:
320,0,85125,1,0,0:0:0:0:
64,0,85183,1,0,0:0:0:0:
448,0,85183,1,0,0:0:0:0:
192,0,85240,1,0,0:0:0:0:
320,0,85299,1,0,0:0:0:0:
64,0,85357,1,0,0:0:0:0:
192,0,85357,1,0,0:0:0:0:
320,0,85415,1,0,0:0:0:0:
448,0,85415,1,0,0:0:0:0:
64,0,85473,1,0,0:0:0:0:
320,0,85531,1,0,0:0:0:0:
448,0,85531,1,0,0:0:0:0:
64,0,85590,1,0,0:0:0:0:
192,0,85648,1,0,0:0:0:0:
448,0,85648,1,0,0:0:0:0:
320,0,85705,1,0,0:0:0:0:
192,0,85764,1,0,0:0:0:0:
448,0,85764,1,0,0:0:0:0:
320,0,85822,1,0,0:0:0:0:
64,0,85880,1,0,0:0:0:0:
192,0,85880,1,0,0:0:0:0:
448,0,85938,1,0,0:0:0:0:
64,0,85996,1,0,0:0:0:0:
192,0,85996,1,0,0:0:0:0:
448,0,86055,1,0,0:0:0:0:
320,0,86113,1,0,0:0:0:0:
448,0,86170,1,0,0:0:0:0:
64,0,86229,1,0,0:0:0:0:
192,0,86287,1,0,0:0:0:0:
64,0,86345,1,0,0:0:0:0:
448,0,86345,1,0,0:0:0:0:
320,0,86403,1,0,0:0:0:0:
448,0,86461,1,0,0:0:0:0:
320,0,86520,1,0,0:0:0:0:
192,0,86578,1,0,0:0:0:0:
320,0,86635,1,0,0:0:0:0:
64,0,86694,1,0,0:0:0:0:
192,0,86752,1,0,0:0:0:0:
64,0,86810,1,0,0:0:0:0:
448,0,86810,1,0,0:0:0:0:
320,0,86868,1,0,0:0:0:0:
192,0,86926,1,0,0:0:0:0:
64,0,86985,1,0,0:0:0:0:
320,0,87043,1,0,0:0:0:0:
448,0,87043,1,0,0:0:0:0:
192,0,87100,1,0,0:0:0:0:
64,0,87159,1,0,0:0:0:0:
320,0,87159,1,0,0:0:0:0:
192,0,87217,1,0,0:0:0:0:
320,0,87275,1,0,0:0:0:0:
448,0,87275,1,0,0:0:0:0:
192,0,87333,1,0,0:0:0:0:
320,0,87391,1,0,0:0:0:0:
192,0,87450,1,0,0:0:0:0:
64,0,87508,1,0,0:0:0:0:
448,0,87508,1,0,0:0:0:0:
320,0,87566,1,0,0:0:0:0:
448,0,87624,1,0,0:0:0:0:
320,0,87682,1,0,0:0:0:0:
192,0,87740,1,0,0:0:0:0:
448,0,87740,1,0,0:0:0:0:
320,0,87799,1,0,0:0:0:0:
64,0,87856,1,0,0:0:0:0:
448,0,87856,1,0,0:0:0:0:
192,0,87915,1,0,0:0:0:0:
64,0,87973,1,0,0:0:0:0:
320,0,87973,1,0,0:0:0:0:
192,0,88031,1,0,0:0:0:0:
64,0,88089,1,0,0:0:0:0:
192,0,88147,1,0,0:0:0:0:
64,0,88205,1,0,0:0:0:0:
448,0,88205,1,0,0:0:0:0:
192,0,88264,1,0,0:0:0:0:
64,0,88321,1,0,0:0:0:0:
320,0,88321,1,0,0:0:0:0:
448,0,88380,1,0,0:0:0:0:
64,0,88438,1,0,0:0:0:0:
192,0,88438,1,0,0:0:0:0:
320,0,88438,1,0,0:0:0:0:
320,0,89019,1,0,0:0:0:0:
192,0,89077,1,0,0:0:0:0:
448,0,89077,1,0,0:0:0:0:
320,0,89135,1,0,0:0:0:0:
192,0,89194,1,0,0:0:0:0:
192,0,89310,1,0,0:0:0:0:
64,0,89368,1,0,0:0:0:0:
320,0,89368,1,0,0:0:0:0:
448,0,89368,1,0,0:0:0:0:
320,0,89600,128,0,89659:0:0:0:0:
448,0,89716,128,0,89775:0:0:0:0:
192,0,89833,1,0,0:0:0:0:
320,0,89833,128,0,89891:0:0:0:0:
448,0,89949,128,0,90007:0:0:0:0:
64,0,90065,128,0,90124:0:0:0:0:
192,0,90181,128,0,90240:0:0:0:0:
64,0,90298,1,0,0:0:0:0:
448,0,90298,1,0,0:0:0:0:
320,0,90414,128,0,90472:0:0:0:0:
192,0,90530,128,0,90589:0:0:0:0:
192,0,90763,128,0,90821:0:0:0:0:
448,0,90763,1,0,0:0:0:0:
320,0,90879,128,0,90937:0:0:0:0:
192,0,90995,128,0,91054:0:0:0:0:
64,0,91111,128,0,91170:0:0:0:0:
320,0,91228,1,0,0:0:0:0:
448,0,91228,1,0,0:0:0:0:
192,0,91344,128,0,91402:0:0:0:0:
320,0,91460,128,0,91519:0:0:0:0:
64,0,91693,128,0,91751:0:0:0:0:
448,0,91693,1,0,0:0:0:0:
192,0,91810,128,0,91867:0:0:0:0:
64,0,91925,1,0,0:0:0:0:
448,0,91925,128,0,91984:0:0:0:0:
320,0,92042,128,0,92100:0:0:0:0:
64,0,92158,1,0,0:0:0:0:
192,0,92158,1,0,0:0:0:0:
320,0,92275,128,0,92332:0:0:0:0:
192,0,92390,128,0,92449:0:0:0:0:
64,0,92623,1,0,0:0:0:0:
320,0,92623,128,0,92681:0:0:0:0:
320,0,92855,128,0,92914:0:0:0:0:
64,0,92972,1,0,0:0:0:0:
192,0,92972,128,0,93030:0:0:0:0:
64,0,93088,1,0,0:0:0:0:
448,0,93088,1,0,0:0:0:0:
64,0,93320,128,0,93379:0:0:0:0:
192,0,93437,128,0,93495:0:0:0:0:
320,0,93553,128,0,93611:0:0:0:0:
448,0,93553,1,0,0:0:0:0:
192,0,93670,128,0,93727:0:0:0:0:
64,0,93785,1,0,0:0:0:0:
448,0,93785,128,0,93844:0:0:0:0:
320,0,93902,128,0,93960:0:0:0:0:
64,0,94018,1,0,0:0:0:0:
448,0,94018,1,0,0:0:0:0:
192,0,94135,128,0,94192:0:0:0:0:
320,0,94250,128,0,94309:0:0:0:0:
64,0,94483,128,0,94541:0:0:0:0:
320,0,94600,128,0,94657:0:0:0:0:
192,0,94715,128,0,94774:0:0:0:0:
320,0,94832,128,0,94890:0:0:0:0:
448,0,94832,1,0,0:0:0:0:
192,0,95065,128,0,95122:0:0:0:0:
64,0,95180,1,0,0:0:0:0:
320,0,95180,128,0,95239:0:0:0:0:
64,0,95413,1,0,0:0:0:0:
192,0,95413,128,0,95471:0:0:0:0:
320,0,95530,128,0,95587:0:0:0:0:
64,0,95645,1,0,0:0:0:0:
448,0,95645,128,0,95704:0:0:0:0:
320,0,95762,128,0,95820:0:0:0:0:
64,0,95995,1,0,0:0:0:0:
192,0,95995,128,0,96053:0:0:0:0:
448,0,96110,128,0,96169:0:0:0:0:
448,0,96343,128,0,96401:0:0:0:0:
320,0,96460,128,0,96518:0:0:0:0:
448,0,96575,128,0,96634:0:0:0:0:
320,0,96692,128,0,96750:0:0:0:0:
64,0,96808,1,0,0:0:0:0:
192,0,96808,1,0,0:0:0:0:
448,0,96808,1,0,0:0:0:0:
320,0,97040,128,0,97099:0:0:0:0:
448,0,97157,128,0,97215:0:0:0:0:
192,0,97273,1,0,0:0:0:0:
320,0,97273,128,0,97331:0:0:0:0:
448,0,97390,128,0,97448:0:0:0:0:
64,0,97505,128,0,97564:0:0:0:0:
192,0,97622,128,0,97680:0:0:0:0:
64,0,97738,1,0,0:0:0:0:
448,0,97738,1,0,0:0:0:0:
320,0,97855,128,0,97913:0:0:0:0:
192,0,97970,128,0,98029:0:0:0:0:
64,0,98203,1,0,0:0:0:0:
448,0,98203,128,0,98261:0:0:0:0:
320,0,98320,128,0,98378:0:0:0:0:
64,0,98435,128,0,98494:0:0:0:0:
64,0,98552,128,0,98610:0:0:0:0:
320,0,98668,1,0,0:0:0:0:
448,0,98668,1,0,0:0:0:0:
192,0,98785,128,0,98843:0:0:0:0:
320,0,98900,128,0,98959:0:0:0:0:
64,0,99133,128,0,99191:0:0:0:0:
448,0,99133,1,0,0:0:0:0:
192,0,99250,128,0,99308:0:0:0:0:
64,0,99365,1,0,0:0:0:0:
448,0,99365,128,0,99424:0:0:0:0:
320,0,99482,128,0,99540:0:0:0:0:
64,0,99598,1,0,0:0:0:0:
192,0,99598,1,0,0:0:0:0:
320,0,99715,128,0,99773:0:0:0:0:
192,0,99830,128,0,99889:0:0:0:0:
64,0,100064,1,0,0:0:0:0:
320,0,100064,128,0,100121:0:0:0:0:
320,0,100296,128,0,100354:0:0:0:0:
64,0,100412,1,0,0:0:0:0:
320,0,100412,128,0,100470:0:0:0:0:
64,0,100529,1,0,0:0:0:0:
448,0,100529,1,0,0:0:0:0:
64,0,100761,128,0,100819:0:0:0:0:
192,0,100877,128,0,100935:0:0:0:0:
320,0,100994,128,0,101051:0:0:0:0:
448,0,100994,1,0,0:0:0:0:
192,0,101110,128,0,101168:0:0:0:0:
64,0,101226,1,0,0:0:0:0:
448,0,101226,128,0,101284:0:0:0:0:
320,0,101342,128,0,101400:0:0:0:0:
64,0,101459,1,0,0:0:0:0:
448,0,101459,1,0,0:0:0:0:
192,0,101575,128,0,101633:0:0:0:0:
320,0,101691,128,0,101749:0:0:0:0:
64,0,101924,128,0,101981:0:0:0:0:
320,0,102040,128,0,102098:0:0:0:0:
192,0,102156,128,0,102214:0:0:0:0:
320,0,102272,128,0,102330:0:0:0:0:
448,0,102272,1,0,0:0:0:0:
192,0,102505,128,0,102563:0:0:0:0:
64,0,102621,1,0,0:0:0:0:
320,0,102621,128,0,102679:0:0:0:0:
64,0,102854,1,0,0:0:0:0:
192,0,102854,128,0,102911:0:0:0:0:
320,0,102970,128,0,103028:0:0:0:0:
64,0,103086,1,0,0:0:0:0:
448,0,103086,128,0,103144:0:0:0:0:
320,0,103202,128,0,103260:0:0:0:0:
64,0,103435,1,0,0:0:0:0:
448,0,103435,128,0,104016:0:0:0:0:
64,0,104016,1,0,0:0:0:0:
192,0,104074,1,0,0:0:0:0:
320,0,104074,1,0,0:0:0:0:
448,0,104132,1,0,0:0:0:0:
64,0,104132,1,0,0:0:0:0:
192,0,104190,1,0,0:0:0:0:
320,0,104190,1,0,0:0:0:0:
448,0,104249,1,0,0:0:0:0:
64,0,104249,1,0,0:0:0:0:
192,0,104249,1,0,0:0:0:0:
192,0,104365,1,0,0:0:0:0:
320,0,104481,1,0,0:0:0:0:
448,0,104481,1,0,0:0:0:0:
192,0,104597,1,0,0:0:0:0:
320,0,104597,1,0,0:0:0:0:
64,0,104714,1,0,0:0:0:0:
192,0,104714,1,0,0:0:0:0:
64,0,104830,1,0,0:0:0:0:
448,0,104830,1,0,0:0:0:0:
320,0,104946,1,0,0:0:0:0:
448,0,104946,1,0,0:0:0:0:
320,0,105062,1,0,0:0:0:0:
448,0,105062,1,0,0:0:0:0:
64,0,105179,1,0,0:0:0:0:
192,0,105179,1,0,0:0:0:0:
320,0,105295,1,0,0:0:0:0:
448,0,105295,1,0,0:0:0:0:
192,0,105411,1,0,0:0:0:0:
320,0,105411,1,0,0:0:0:0:
64,0,105527,1,0,0:0:0:0:
192,0,105644,1,0,0:0:0:0:
320,0,105644,1,0,0:0:0:0:
320,0,105760,1,0,0:0:0:0:
448,0,105760,1,0,0:0:0:0:
64,0,105876,1,0,0:0:0:0:
448,0,105876,1,0,0:0:0:0:
64,0,105992,1,0,0:0:0:0:
448,0,105992,1,0,0:0:0:0:
192,0,106109,1,0,0:0:0:0:
320,0,106109,1,0,0:0:0:0:
64,0,106225,1,0,0:0:0:0:
448,0,106225,1,0,0:0:0:0:
64,0,106341,1,0,0:0:0:0:
192,0,106341,1,0,0:0:0:0:
320,0,106457,1,0,0:0:0:0:
64,0,106574,1,0,0:0:0:0:
192,0,106574,1,0,0:0:0:0:
192,0,106690,1,0,0:0:0:0:
320,0,106690,1,0,0:0:0:0:
320,0,106806,1,0,0:0:0:0:
448,0,106806,1,0,0:0:0:0:
64,0,106922,1,0,0:0:0:0:
448,0,106922,1,0,0:0:0:0:
192,0,107039,1,0,0:0:0:0:
320,0,107039,1,0,0:0:0:0:
64,0,107155,1,0,0:0:0:0:
448,0,107155,1,0,0:0:0:0:
64,0,107271,1,0,0:0:0:0:
192,0,107271,1,0,0:0:0:0:
320,0,107387,1,0,0:0:0:0:
64,0,107504,1,0,0:0:0:0:
192,0,107504,1,0,0:0:0:0:
320,0,107620,1,0,0:0:0:0:
64,0,107736,1,0,0:0:0:0:
192,0,107736,1,0,0:0:0:0:
64,0,107852,1,0,0:0:0:0:
192,0,107852,1,0,0:0:0:0:
64,0,107969,1,0,0:0:0:0:
192,0,107969,1,0,0:0:0:0:
448,0,107969,1,0,0:0:0:0:
320,0,108085,1,0,0:0:0:0:
448,0,108085,1,0,0:0:0:0:
192,0,108201,1,0,0:0:0:0:
320,0,108201,1,0,0:0:0:0:
192,0,108318,1,0,0:0:0:0:
320,0,108318,1,0,0:0:0:0:
64,0,108434,1,0,0:0:0:0:
192,0,108434,1,0,0:0:0:0:
192,0,108550,1,0,0:0:0:0:
320,0,108550,1,0,0:0:0:0:
64,0,108666,1,0,0:0:0:0:
448,0,108666,1,0,0:0:0:0:
64,0,108783,1,0,0:0:0:0:
448,0,108783,1,0,0:0:0:0:
320,0,108899,1,0,0:0:0:0:
448,0,108899,1,0,0:0:0:0:
64,0,109015,1,0,0:0:0:0:
192,0,109015,1,0,0:0:0:0:
64,0,109131,1,0,0:0:0:0:
192,0,109131,1,0,0:0:0:0:
192,0,109248,1,0,0:0:0:0:
320,0,109248,1,0,0:0:0:0:
64,0,109364,1,0,0:0:0:0:
448,0,109364,1,0,0:0:0:0:
64,0,109480,1,0,0:0:0:0:
448,0,109480,1,0,0:0:0:0:
320,0,109596,1,0,0:0:0:0:
448,0,109596,1,0,0:0:0:0:
320,0,109713,1,0,0:0:0:0:
448,0,109713,1,0,0:0:0:0:
64,0,109829,1,0,0:0:0:0:
192,0,109829,1,0,0:0:0:0:
320,0,109887,1,0,0:0:0:0:
448,0,109887,1,0,0:0:0:0:
64,0,109945,1,0,0:0:0:0:
192,0,109945,1,0,0:0:0:0:
320,0,110003,1,0,0:0:0:0:
448,0,110003,1,0,0:0:0:0:
64,0,110061,1,0,0:0:0:0:
192,0,110061,1,0,0:0:0:0:
320,0,110120,1,0,0:0:0:0:
448,0,110120,1,0,0:0:0:0:
64,0,110178,1,0,0:0:0:0:
192,0,110178,1,0,0:0:0:0:
320,0,110235,1,0,0:0:0:0:
448,0,110235,1,0,0:0:0:0:
64,0,110294,1,0,0:0:0:0:
192,0,110294,1,0,0:0:0:0:
320,0,110352,1,0,0:0:0:0:
448,0,110352,1,0,0:0:0:0:
64,0,110410,1,0,0:0:0:0:
192,0,110410,1,0,0:0:0:0:
320,0,110468,1,0,0:0:0:0:
448,0,110468,1,0,0:0:0:0:
64,0,110526,1,0,0:0:0:0:
192,0,110526,1,0,0:0:0:0:
320,0,110585,1,0,0:0:0:0:
448,0,110585,1,0,0:0:0:0:
64,0,110643,1,0,0:0:0:0:
192,0,110643,1,0,0:0:0:0:
320,0,110700,1,0,0:0:0:0:
448,0,110700,1,0,0:0:0:0:
64,0,110759,1,0,0:0:0:0:
192,0,110759,1,0,0:0:0:0:
320,0,110817,1,0,0:0:0:0:
448,0,110817,1,0,0:0:0:0:
64,0,110875,1,0,0:0:0:0:
192,0,110875,1,0,0:0:0:0:
320,0,110933,1,0,0:0:0:0:
448,0,110933,1,0,0:0:0:0:
64,0,110991,1,0,0:0:0:0:
192,0,110991,1,0,0:0:0:0:
320,0,111050,1,0,0:0:0:0:
448,0,111050,1,0,0:0:0:0:
64,0,111108,1,0,0:0:0:0:
192,0,111165,1,0,0:0:0:0:
320,0,111165,1,0,0:0:0:0:
64,0,111224,1,0,0:0:0:0:
448,0,111224,1,0,0:0:0:0:
192,0,111282,1,0,0:0:0:0:
320,0,111282,1,0,0:0:0:0:
448,0,111340,1,0,0:0:0:0:
64,0,111340,1,0,0:0:0:0:
192,0,111398,1,0,0:0:0:0:
320,0,111398,1,0,0:0:0:0:
448,0,111456,1,0,0:0:0:0:
64,0,111456,1,0,0:0:0:0:
192,0,111456,1,0,0:0:0:0:
64,0,111573,1,0,0:0:0:0:
320,0,111573,1,0,0:0:0:0:
64,0,111689,1,0,0:0:0:0:
192,0,111689,1,0,0:0:0:0:
448,0,111689,1,0,0:0:0:0:
320,0,111747,1,0,0:0:0:0:
192,0,111805,1,0,0:0:0:0:
64,0,111863,1,0,0:0:0:0:
320,0,111921,1,0,0:0:0:0:
448,0,111921,1,0,0:0:0:0:
192,0,111980,1,0,0:0:0:0:
64,0,112038,1,0,0:0:0:0:
448,0,112038,1,0,0:0:0:0:
320,0,112095,1,0,0:0:0:0:
64,0,112154,1,0,0:0:0:0:
192,0,112154,1,0,0:0:0:0:
448,0,112212,1,0,0:0:0:0:
192,0,112270,1,0,0:0:0:0:
320,0,112270,1,0,0:0:0:0:
64,0,112328,1,0,0:0:0:0:
192,0,112386,1,0,0:0:0:0:
448,0,112386,1,0,0:0:0:0:
64,0,112445,1,0,0:0:0:0:
192,0,112503,1,0,0:0:0:0:
448,0,112503,1,0,0:0:0:0:
320,0,112561,1,0,0:0:0:0:
64,0,112619,1,0,0:0:0:0:
192,0,112677,1,0,0:0:0:0:
64,0,112735,1,0,0:0:0:0:
448,0,112735,1,0,0:0:0:0:
320,0,112794,1,0,0:0:0:0:
64,0,112851,1,0,0:0:0:0:
448,0,112851,1,0,0:0:0:0:
192,0,112910,1,0,0:0:0:0:
320,0,112968,1,0,0:0:0:0:
448,0,113026,1,0,0:0:0:0:
64,0,113084,1,0,0:0:0:0:
192,0,113084,1,0,0:0:0:0:
320,0,113142,1,0,0:0:0:0:
64,0,113200,1,0,0:0:0:0:
192,0,113200,1,0,0:0:0:0:
320,0,113259,1,0,0:0:0:0:
64,0,113316,1,0,0:0:0:0:
448,0,113316,1,0,0:0:0:0:
192,0,113375,1,0,0:0:0:0:
64,0,113433,1,0,0:0:0:0:
448,0,113433,1,0,0:0:0:0:
192,0,113491,1,0,0:0:0:0:
320,0,113549,1,0,0:0:0:0:
448,0,113607,1,0,0:0:0:0:
64,0,113665,1,0,0:0:0:0:
192,0,113665,1,0,0:0:0:0:
320,0,113724,1,0,0:0:0:0:
64,0,113781,1,0,0:0:0:0:
192,0,113781,1,0,0:0:0:0:
320,0,113840,1,0,0:0:0:0:
448,0,113898,1,0,0:0:0:0:
64,0,113956,1,0,0:0:0:0:
192,0,114014,1,0,0:0:0:0:
448,0,114014,1,0,0:0:0:0:
320,0,114072,1,0,0:0:0:0:
192,0,114130,1,0,0:0:0:0:
448,0,114130,1,0,0:0:0:0:
320,0,114189,1,0,0:0:0:0:
64,0,114246,1,0,0:0:0:0:
192,0,114246,1,0,0:0:0:0:
448,0,114305,1,0,0:0:0:0:
64,0,114363,1,0,0:0:0:0:
192,0,114363,1,0,0:0:0:0:
448,0,114421,1,0,0:0:0:0:
320,0,114479,1,0,0:0:0:0:
192,0,114537,1,0,0:0:0:0:
64,0,114595,1,0,0:0:0:0:
448,0,114595,1,0,0:0:0:0:
320,0,114654,1,0,0:0:0:0:
64,0,114711,1,0,0:0:0:0:
448,0,114711,1,0,0:0:0:0:
320,0,114770,1,0,0:0:0:0:
192,0,114828,1,0,0:0:0:0:
64,0,114886,1,0,0:0:0:0:
192,0,114944,1,0,0:0:0:0:
320,0,114944,1,0,0:0:0:0:
448,0,115002,1,0,0:0:0:0:
64,0,115060,1,0,0:0:0:0:
320,0,115119,1,0,0:0:0:0:
192,0,115176,1,0,0:0:0:0:
448,0,115176,1,0,0:0:0:0:
64,0,115235,1,0,0:0:0:0:
192,0,115293,1,0,0:0:0:0:
448,0,115293,1,0,0:0:0:0:
64,0,115351,1,0,0:0:0:0:
192,0,115409,1,0,0:0:0:0:
320,0,115467,1,0,0:0:0:0:
64,0,115525,1,0,0:0:0:0:
448,0,115584,1,0,0:0:0:0:
64,0,115641,1,0,0:0:0:0:
192,0,115641,1,0,0:0:0:0:
320,0,115700,1,0,0:0:0:0:
64,0,115758,1,0,0:0:0:0:
448,0,115758,1,0,0:0:0:0:
192,0,115816,1,0,0:0:0:0:
320,0,115874,1,0,0:0:0:0:
448,0,115874,1,0,0:0:0:0:
64,0,115932,1,0,0:0:0:0:
192,0,115990,1,0,0:0:0:0:
320,0,115990,1,0,0:0:0:0:
448,0,116049,1,0,0:0:0:0:
64,0,116106,1,0,0:0:0:0:
192,0,116106,1,0,0:0:0:0:
320,0,116165,1,0,0:0:0:0:
64,0,116223,1,0,0:0:0:0:
448,0,116223,1,0,0:0:0:0:
192,0,116281,1,0,0:0:0:0:
320,0,116339,1,0,0:0:0:0:
448,0,116397,1,0,0:0:0:0:
64,0,116455,1,0,0:0:0:0:
192,0,116455,1,0,0:0:0:0:
320,0,116514,1,0,0:0:0:0:
64,0,116571,1,0,0:0:0:0:
192,0,116571,1,0,0:0:0:0:
320,0,116630,1,0,0:0:0:0:
448,0,116688,1,0,0:0:0:0:
192,0,116746,1,0,0:0:0:0:
64,0,116805,1,0,0:0:0:0:
320,0,116805,1,0,0:0:0:0:
448,0,116862,1,0,0:0:0:0:
64,0,116920,1,0,0:0:0:0:
320,0,116920,1,0,0:0:0:0:
448,0,116979,1,0,0:0:0:0:
64,0,117037,1,0,0:0:0:0:
192,0,117037,1,0,0:0:0:0:
320,0,117095,1,0,0:0:0:0:
64,0,117153,1,0,0:0:0:0:
192,0,117153,1,0,0:0:0:0:
320,0,117211,1,0,0:0:0:0:
448,0,117270,1,0,0:0:0:0:
192,0,117327,1,0,0:0:0:0:
64,0,117385,1,0,0:0:0:0:
448,0,117385,1,0,0:0:0:0:
320,0,117444,1,0,0:0:0:0:
64,0,117502,1,0,0:0:0:0:
448,0,117502,1,0,0:0:0:0:
320,0,117560,1,0,0:0:0:0:
192,0,117618,1,0,0:0:0:0:
64,0,117676,1,0,0:0:0:0:
320,0,117735,1,0,0:0:0:0:
448,0,117735,1,0,0:0:0:0:
192,0,117792,1,0,0:0:0:0:
320,0,117850,1,0,0:0:0:0:
448,0,117850,1,0,0:0:0:0:
192,0,117909,1,0,0:0:0:0:
64,0,117967,1,0,0:0:0:0:
320,0,117967,1,0,0:0:0:0:
448,0,118025,1,0,0:0:0:0:
64,0,118083,1,0,0:0:0:0:
320,0,118083,1,0,0:0:0:0:
448,0,118141,1,0,0:0:0:0:
192,0,118200,1,0,0:0:0:0:
64,0,118257,1,0,0:0:0:0:
320,0,118315,1,0,0:0:0:0:
448,0,118315,1,0,0:0:0:0:
192,0,118374,1,0,0:0:0:0:
64,0,118432,1,0,0:0:0:0:
448,0,118432,1,0,0:0:0:0:
192,0,118490,1,0,0:0:0:0:
320,0,118548,1,0,0:0:0:0:
448,0,118606,1,0,0:0:0:0:
64,0,118665,1,0,0:0:0:0:
192,0,118665,1,0,0:0:0:0:
320,0,118722,1,0,0:0:0:0:
64,0,118780,1,0,0:0:0:0:
192,0,118780,1,0,0:0:0:0:
320,0,118839,1,0,0:0:0:0:
448,0,118897,1,0,0:0:0:0:
64,0,118955,1,0,0:0:0:0:
320,0,119013,1,0,0:0:0:0:
448,0,119013,1,0,0:0:0:0:
192,0,119071,1,0,0:0:0:0:
64,0,119130,1,0,0:0:0:0:
320,0,119130,1,0,0:0:0:0:
448,0,119130,1,0,0:0:0:0:
192,0,119187,1,0,0:0:0:0:
320,0,119245,1,0,0:0:0:0:
448,0,119304,1,0,0:0:0:0:
64,0,119362,1,0,0:0:0:0:
192,0,119362,1,0,0:0:0:0:
320,0,119420,1,0,0:0:0:0:
64,0,119478,1,0,0:0:0:0:
448,0,119478,1,0,0:0:0:0:
192,0,119536,1,0,0:0:0:0:
320,0,119595,1,0,0:0:0:0:
448,0,119595,1,0,0:0:0:0:
64,0,119652,1,0,0:0:0:0:
192,0,119710,1,0,0:0:0:0:
320,0,119710,1,0,0:0:0:0:
448,0,119769,1,0,0:0:0:0:
64,0,119827,1,0,0:0:0:0:
192,0,119827,1,0,0:0:0:0:
448,0,119885,1,0,0:0:0:0:
64,0,119943,1,0,0:0:0:0:
192,0,119943,1,0,0:0:0:0:
320,0,120001,1,0,0:0:0:0:
448,0,120060,1,0,0:0:0:0:
192,0,120117,1,0,0:0:0:0:
64,0,120175,1,0,0:0:0:0:
448,0,120175,1,0,0:0:0:0:
192,0,120234,1,0,0:0:0:0:
64,0,120292,1,0,0:0:0:0:
448,0,120292,1,0,0:0:0:0:
320,0,120350,1,0,0:0:0:0:
192,0,120408,1,0,0:0:0:0:
64,0,120466,1,0,0:0:0:0:
320,0,120525,1,0,0:0:0:0:
448,0,120525,1,0,0:0:0:0:
192,0,120582,1,0,0:0:0:0:
320,0,120640,1,0,0:0:0:0:
448,0,120640,1,0,0:0:0:0:
192,0,120699,1,0,0:0:0:0:
64,0,120757,1,0,0:0:0:0:
448,0,120757,1,0,0:0:0:0:
320,0,120815,1,0,0:0:0:0:
64,0,120873,1,0,0:0:0:0:
448,0,120873,1,0,0:0:0:0:
320,0,120931,1,0,0:0:0:0:
192,0,120990,1,0,0:0:0:0:
64,0,121048,1,0,0:0:0:0:
320,0,121105,1,0,0:0:0:0:
448,0,121105,1,0,0:0:0:0:
192,0,121164,1,0,0:0:0:0:
320,0,121222,1,0,0:0:0:0:
448,0,121222,1,0,0:0:0:0:
192,0,121280,1,0,0:0:0:0:
64,0,121338,1,0,0:0:0:0:
448,0,121396,1,0,0:0:0:0:
64,0,121455,1,0,0:0:0:0:
320,0,121455,1,0,0:0:0:0:
192,0,121513,1,0,0:0:0:0:
64,0,121570,1,0,0:0:0:0:
320,0,121570,1,0,0:0:0:0:
192,0,121629,1,0,0:0:0:0:
320,0,121687,1,0,0:0:0:0:
448,0,121687,1,0,0:0:0:0:
64,0,121745,1,0,0:0:0:0:
320,0,121803,1,0,0:0:0:0:
448,0,121803,1,0,0:0:0:0:
64,0,121861,1,0,0:0:0:0:
192,0,121920,1,0,0:0:0:0:
320,0,121978,1,0,0:0:0:0:
64,0,122035,1,0,0:0:0:0:
448,0,122035,1,0,0:0:0:0:
192,0,122094,1,0,0:0:0:0:
64,0,122152,1,0,0:0:0:0:
448,0,122152,1,0,0:0:0:0:
192,0,122210,1,0,0:0:0:0:
320,0,122268,1,0,0:0:0:0:
448,0,122326,1,0,0:0:0:0:
64,0,122385,1,0,0:0:0:0:
192,0,122385,1,0,0:0:0:0:
320,0,122443,1,0,0:0:0:0:
448,0,122500,1,0,0:0:0:0:
64,0,122559,1,0,0:0:0:0:
192,0,122617,1,0,0:0:0:0:
320,0,122617,1,0,0:0:0:0:
448,0,122675,1,0,0:0:0:0:
192,0,122733,1,0,0:0:0:0:
320,0,122733,1,0,0:0:0:0:
448,0,122791,1,0,0:0:0:0:
64,0,122850,1,0,0:0:0:0:
192,0,122908,1,0,0:0:0:0:
320,0,122965,1,0,0:0:0:0:
64,0,123024,1,0,0:0:0:0:
320,0,123082,1,0,0:0:0:0:
448,0,123082,1,0,0:0:0:0:
192,0,123140,1,0,0:0:0:0:
64,0,123198,1,0,0:0:0:0:
448,0,123198,1,0,0:0:0:0:
320,0,123256,1,0,0:0:0:0:
64,0,123315,1,0,0:0:0:0:
192,0,123315,1,0,0:0:0:0:
448,0,123373,1,0,0:0:0:0:
192,0,123430,1,0,0:0:0:0:
320,0,123430,1,0,0:0:0:0:
64,0,123489,1,0,0:0:0:0:
320,0,123547,1,0,0:0:0:0:
448,0,123547,1,0,0:0:0:0:
192,0,123605,1,0,0:0:0:0:
64,0,123663,1,0,0:0:0:0:
448,0,123663,1,0,0:0:0:0:
320,0,123721,1,0,0:0:0:0:
192,0,123780,1,0,0:0:0:0:
64,0,123838,1,0,0:0:0:0:
320,0,123895,1,0,0:0:0:0:
448,0,123895,1,0,0:0:0:0:
192,0,123954,1,0,0:0:0:0:
320,0,124012,1,0,0:0:0:0:
448,0,124012,1,0,0:0:0:0:
192,0,124070,1,0,0:0:0:0:
64,0,124128,1,0,0:0:0:0:
320,0,124186,1,0,0:0:0:0:
192,0,124245,1,0,0:0:0:0:
448,0,124245,1,0,0:0:0:0:
64,0,124303,1,0,0:0:0:0:
192,0,124360,1,0,0:0:0:0:
448,0,124360,1,0,0:0:0:0:
64,0,124419,1,0,0:0:0:0:
320,0,124477,1,0,0:0:0:0:
448,0,124477,1,0,0:0:0:0:
192,0,124535,1,0,0:0:0:0:
320,0,124593,1,0,0:0:0:0:
448,0,124593,1,0,0:0:0:0:
192,0,124651,1,0,0:0:0:0:
64,0,124710,1,0,0:0:0:0:
320,0,124768,1,0,0:0:0:0:
64,0,124825,1,0,0:0:0:0:
448,0,124825,1,0,0:0:0:0:
192,0,124884,1,0,0:0:0:0:
64,0,124942,1,0,0:0:0:0:
448,0,124942,1,0,0:0:0:0:
192,0,125000,1,0,0:0:0:0:
320,0,125059,1,0,0:0:0:0:
448,0,125116,1,0,0:0:0:0:
64,0,125175,1,0,0:0:0:0:
192,0,125175,1,0,0:0:0:0:
320,0,125233,1,0,0:0:0:0:
64,0,125291,1,0,0:0:0:0:
192,0,125291,1,0,0:0:0:0:
320,0,125349,1,0,0:0:0:0:
192,0,125407,1,0,0:0:0:0:
448,0,125407,1,0,0:0:0:0:
64,0,125465,1,0,0:0:0:0:
192,0,125524,1,0,0:0:0:0:
448,0,125524,1,0,0:0:0:0:
320,0,125640,1,0,0:0:0:0:
64,0,125756,1,0,0:0:0:0:
192,0,125756,1,0,0:0:0:0:
64,0,125872,1,0,0:0:0:0:
448,0,125872,1,0,0:0:0:0:
320,0,125989,1,0,0:0:0:0:
192,0,126105,1,0,0:0:0:0:
448,0,126105,1,0,0:0:0:0:
192,0,126221,1,0,0:0:0:0:
448,0,126221,1,0,0:0:0:0:
320,0,126337,1,0,0:0:0:0:
64,0,126454,1,0,0:0:0:0:
448,0,126454,1,0,0:0:0:0:
64,0,126570,1,0,0:0:0:0:
320,0,126570,1,0,0:0:0:0:
448,0,126570,1,0,0:0:0:0:
192,0,126628,1,0,0:0:0:0:
320,0,126686,1,0,0:0:0:0:
448,0,126686,1,0,0:0:0:0:
192,0,126744,1,0,0:0:0:0:
320,0,126802,1,0,0:0:0:0:
448,0,126802,1,0,0:0:0:0:
192,0,126860,1,0,0:0:0:0:
320,0,126919,1,0,0:0:0:0:
448,0,126919,1,0,0:0:0:0:
192,0,126976,1,0,0:0:0:0:
64,0,127035,1,0,0:0:0:0:
448,0,127035,1,0,0:0:0:0:
320,0,127093,1,0,0:0:0:0:
192,0,127151,1,0,0:0:0:0:
64,0,127209,1,0,0:0:0:0:
320,0,127267,1,0,0:0:0:0:
448,0,127267,1,0,0:0:0:0:
64,0,127325,1,0,0:0:0:0:
192,0,127384,1,0,0:0:0:0:
320,0,127441,1,0,0:0:0:0:
64,0,127500,1,0,0:0:0:0:
448,0,127500,1,0,0:0:0:0:
192,0,127558,1,0,0:0:0:0:
64,0,127616,1,0,0:0:0:0:
448,0,127616,1,0,0:0:0:0:
192,0,127674,1,0,0:0:0:0:
64,0,127732,1,0,0:0:0:0:
448,0,127732,1,0,0:0:0:0:
192,0,127790,1,0,0:0:0:0:
64,0,127849,1,0,0:0:0:0:
448,0,127849,1,0,0:0:0:0:
192,0,127906,1,0,0:0:0:0:
320,0,127965,1,0,0:0:0:0:
448,0,127965,1,0,0:0:0:0:
64,0,128023,1,0,0:0:0:0:
192,0,128081,1,0,0:0:0:0:
448,0,128139,1,0,0:0:0:0:
64,0,128197,1,0,0:0:0:0:
192,0,128197,1,0,0:0:0:0:
320,0,128255,1,0,0:0:0:0:
448,0,128314,1,0,0:0:0:0:
64,0,128371,1,0,0:0:0:0:
192,0,128430,1,0,0:0:0:0:
320,0,128430,1,0,0:0:0:0:
448,0,128488,1,0,0:0:0:0:
192,0,128546,1,0,0:0:0:0:
320,0,128546,1,0,0:0:0:0:
448,0,128604,1,0,0:0:0:0:
192,0,128662,1,0,0:0:0:0:
320,0,128662,1,0,0:0:0:0:
448,0,128720,1,0,0:0:0:0:
192,0,128779,1,0,0:0:0:0:
320,0,128779,1,0,0:0:0:0:
448,0,128836,1,0,0:0:0:0:
64,0,128895,1,0,0:0:0:0:
192,0,128895,1,0,0:0:0:0:
320,0,128953,1,0,0:0:0:0:
448,0,129011,1,0,0:0:0:0:
192,0,129069,1,0,0:0:0:0:
64,0,129127,1,0,0:0:0:0:
448,0,129127,1,0,0:0:0:0:
320,0,129185,1,0,0:0:0:0:
64,0,129244,1,0,0:0:0:0:
192,0,129302,1,0,0:0:0:0:
320,0,129360,1,0,0:0:0:0:
448,0,129360,1,0,0:0:0:0:
64,0,129418,1,0,0:0:0:0:
320,0,129476,1,0,0:0:0:0:
448,0,129476,1,0,0:0:0:0:
64,0,129535,1,0,0:0:0:0:
320,0,129592,1,0,0:0:0:0:
448,0,129592,1,0,0:0:0:0:
64,0,129650,1,0,0:0:0:0:
320,0,129709,1,0,0:0:0:0:
448,0,129709,1,0,0:0:0:0:
64,0,129767,1,0,0:0:0:0:
192,0,129825,1,0,0:0:0:0:
320,0,129825,1,0,0:0:0:0:
448,0,129883,1,0,0:0:0:0:
192,0,129941,1,0,0:0:0:0:
64,0,130000,1,0,0:0:0:0:
320,0,130057,1,0,0:0:0:0:
448,0,130057,1,0,0:0:0:0:
192,0,130115,1,0,0:0:0:0:
64,0,130174,1,0,0:0:0:0:
448,0,130174,1,0,0:0:0:0:
320,0,130232,1,0,0:0:0:0:
64,0,130290,1,0,0:0:0:0:
192,0,130290,1,0,0:0:0:0:
448,0,130348,1,0,0:0:0:0:
64,0,130406,1,0,0:0:0:0:
192,0,130406,1,0,0:0:0:0:
448,0,130465,1,0,0:0:0:0:
64,0,130522,1,0,0:0:0:0:
192,0,130522,1,0,0:0:0:0:
448,0,130580,1,0,0:0:0:0:
64,0,130639,1,0,0:0:0:0:
192,0,130639,1,0,0:0:0:0:
448,0,130697,1,0,0:0:0:0:
64,0,130755,1,0,0:0:0:0:
320,0,130755,1,0,0:0:0:0:
192,0,130813,1,0,0:0:0:0:
448,0,130871,1,0,0:0:0:0:
320,0,130930,1,0,0:0:0:0:
64,0,130987,1,0,0:0:0:0:
448,0,130987,1,0,0:0:0:0:
192,0,131045,1,0,0:0:0:0:
64,0,131104,1,0,0:0:0:0:
448,0,131162,1,0,0:0:0:0:
192,0,131220,1,0,0:0:0:0:
320,0,131220,1,0,0:0:0:0:
64,0,131278,1,0,0:0:0:0:
192,0,131336,1,0,0:0:0:0:
320,0,131336,1,0,0:0:0:0:
64,0,131395,1,0,0:0:0:0:
192,0,131452,1,0,0:0:0:0:
320,0,131452,1,0,0:0:0:0:
64,0,131510,1,0,0:0:0:0:
192,0,131569,1,0,0:0:0:0:
320,0,131569,1,0,0:0:0:0:
64,0,131627,1,0,0:0:0:0:
320,0,131685,1,0,0:0:0:0:
448,0,131685,1,0,0:0:0:0:
192,0,131743,1,0,0:0:0:0:
64,0,131801,1,0,0:0:0:0:
192,0,131860,1,0,0:0:0:0:
320,0,131917,1,0,0:0:0:0:
448,0,131917,1,0,0:0:0:0:
64,0,131975,1,0,0:0:0:0:
192,0,132034,1,0,0:0:0:0:
320,0,132034,1,0,0:0:0:0:
448,0,132092,1,0,0:0:0:0:
64,0,132150,1,0,0:0:0:0:
192,0,132150,1,0,0:0:0:0:
320,0,132208,1,0,0:0:0:0:
448,0,132266,1,0,0:0:0:0:
320,0,132325,1,0,0:0:0:0:
64,0,132382,1,0,0:0:0:0:
192,0,132382,1,0,0:0:0:0:
448,0,132440,1,0,0:0:0:0:
320,0,132499,1,0,0:0:0:0:
448,0,132557,1,0,0:0:0:0:
64,0,132615,1,0,0:0:0:0:
192,0,132615,1,0,0:0:0:0:
320,0,132673,1,0,0:0:0:0:
448,0,132731,1,0,0:0:0:0:
192,0,132790,1,0,0:0:0:0:
320,0,132847,1,0,0:0:0:0:
448,0,132847,1,0,0:0:0:0:
192,0,132905,1,0,0:0:0:0:
320,0,132964,1,0,0:0:0:0:
192,0,133022,1,0,0:0:0:0:
64,0,133080,1,0,0:0:0:0:
448,0,133080,1,0,0:0:0:0:
320,0,133138,1,0,0:0:0:0:
64,0,133196,1,0,0:0:0:0:
192,0,133196,1,0,0:0:0:0:
320,0,133255,1,0,0:0:0:0:
64,0,133313,1,0,0:0:0:0:
192,0,133313,1,0,0:0:0:0:
320,0,133370,1,0,0:0:0:0:
192,0,133429,1,0,0:0:0:0:
64,0,133487,1,0,0:0:0:0:
320,0,133545,1,0,0:0:0:0:
448,0,133545,1,0,0:0:0:0:
64,0,133603,1,0,0:0:0:0:
192,0,133661,1,0,0:0:0:0:
320,0,133661,1,0,0:0:0:0:
448,0,133720,1,0,0:0:0:0:
320,0,133778,1,0,0:0:0:0:
192,0,133835,1,0,0:0:0:0:
64,0,133894,1,0,0:0:0:0:
448,0,133894,1,0,0:0:0:0:
320,0,133952,1,0,0:0:0:0:
64,0,134010,1,0,0:0:0:0:
192,0,134010,1,0,0:0:0:0:
448,0,134010,1,0,0:0:0:0:
320,0,134068,1,0,0:0:0:0:
64,0,134126,1,0,0:0:0:0:
192,0,134126,1,0,0:0:0:0:
320,0,134185,1,0,0:0:0:0:
64,0,134243,1,0,0:0:0:0:
192,0,134243,1,0,0:0:0:0:
320,0,134300,1,0,0:0:0:0:
64,0,134359,1,0,0:0:0:0:
192,0,134359,1,0,0:0:0:0:
320,0,134417,1,0,0:0:0:0:
64,0,134475,1,0,0:0:0:0:
448,0,134475,1,0,0:0:0:0:
192,0,134533,1,0,0:0:0:0:
320,0,134591,1,0,0:0:0:0:
448,0,134650,1,0,0:0:0:0:
64,0,134708,1,0,0:0:0:0:
192,0,134708,1,0,0:0:0:0:
448,0,134765,1,0,0:0:0:0:
64,0,134824,1,0,0:0:0:0:
320,0,134882,1,0,0:0:0:0:
192,0,134940,1,0,0:0:0:0:
448,0,134940,1,0,0:0:0:0:
64,0,134998,1,0,0:0:0:0:
192,0,135056,1,0,0:0:0:0:
448,0,135056,1,0,0:0:0:0:
64,0,135115,1,0,0:0:0:0:
192,0,135173,1,0,0:0:0:0:
448,0,135173,1,0,0:0:0:0:
64,0,135230,1,0,0:0:0:0:
192,0,135289,1,0,0:0:0:0:
448,0,135289,1,0,0:0:0:0:
64,0,135347,1,0,0:0:0:0:
320,0,135405,1,0,0:0:0:0:
448,0,135405,1,0,0:0:0:0:
192,0,135463,1,0,0:0:0:0:
64,0,135521,1,0,0:0:0:0:
320,0,135580,1,0,0:0:0:0:
192,0,135638,1,0,0:0:0:0:
448,0,135638,1,0,0:0:0:0:
320,0,135695,1,0,0:0:0:0:
64,0,135754,1,0,0:0:0:0:
448,0,135812,1,0,0:0:0:0:
192,0,135870,1,0,0:0:0:0:
320,0,135870,1,0,0:0:0:0:
64,0,135928,1,0,0:0:0:0:
192,0,135986,1,0,0:0:0:0:
320,0,135986,1,0,0:0:0:0:
64,0,136045,1,0,0:0:0:0:
192,0,136103,1,0,0:0:0:0:
320,0,136103,1,0,0:0:0:0:
64,0,136160,1,0,0:0:0:0:
192,0,136219,1,0,0:0:0:0:
320,0,136219,1,0,0:0:0:0:
64,0,136277,1,0,0:0:0:0:
320,0,136335,1,0,0:0:0:0:
448,0,136335,1,0,0:0:0:0:
192,0,136393,1,0,0:0:0:0:
64,0,136451,1,0,0:0:0:0:
320,0,136510,1,0,0:0:0:0:
64,0,136568,1,0,0:0:0:0:
448,0,136568,1,0,0:0:0:0:
192,0,136625,1,0,0:0:0:0:
448,0,136684,1,0,0:0:0:0:
320,0,136742,1,0,0:0:0:0:
64,0,136800,1,0,0:0:0:0:
192,0,136800,1,0,0:0:0:0:
448,0,136858,1,0,0:0:0:0:
64,0,136916,1,0,0:0:0:0:
192,0,136916,1,0,0:0:0:0:
448,0,136975,1,0,0:0:0:0:
64,0,137033,1,0,0:0:0:0:
192,0,137033,1,0,0:0:0:0:
448,0,137090,1,0,0:0:0:0:
64,0,137149,1,0,0:0:0:0:
192,0,137149,1,0,0:0:0:0:
448,0,137207,1,0,0:0:0:0:
192,0,137265,1,0,0:0:0:0:
320,0,137265,1,0,0:0:0:0:
64,0,137323,1,0,0:0:0:0:
320,0,137381,1,0,0:0:0:0:
448,0,137440,1,0,0:0:0:0:
64,0,137498,1,0,0:0:0:0:
192,0,137498,1,0,0:0:0:0:
320,0,137556,1,0,0:0:0:0:
64,0,137614,1,0,0:0:0:0:
448,0,137614,1,0,0:0:0:0:
192,0,137672,1,0,0:0:0:0:
320,0,137730,1,0,0:0:0:0:
448,0,137730,1,0,0:0:0:0:
64,0,137789,1,0,0:0:0:0:
192,0,137846,1,0,0:0:0:0:
64,0,137905,1,0,0:0:0:0:
320,0,137963,1,0,0:0:0:0:
448,0,137963,1,0,0:0:0:0:
64,0,138021,1,0,0:0:0:0:
192,0,138079,1,0,0:0:0:0:
64,0,138137,1,0,0:0:0:0:
192,0,138195,1,0,0:0:0:0:
448,0,138195,1,0,0:0:0:0:
320,0,138254,1,0,0:0:0:0:
64,0,138311,1,0,0:0:0:0:
192,0,138370,1,0,0:0:0:0:
64,0,138428,1,0,0:0:0:0:
448,0,138428,1,0,0:0:0:0:
320,0,138486,1,0,0:0:0:0:
448,0,138544,1,0,0:0:0:0:
64,0,138602,1,0,0:0:0:0:
192,0,138660,1,0,0:0:0:0:
320,0,138660,1,0,0:0:0:0:
448,0,138719,1,0,0:0:0:0:
64,0,138776,1,0,0:0:0:0:
448,0,138835,1,0,0:0:0:0:
192,0,138893,1,0,0:0:0:0:
320,0,138893,1,0,0:0:0:0:
448,0,138951,1,0,0:0:0:0:
64,0,139009,1,0,0:0:0:0:
448,0,139067,1,0,0:0:0:0:
64,0,139125,1,0,0:0:0:0:
192,0,139125,1,0,0:0:0:0:
320,0,139184,1,0,0:0:0:0:
448,0,139241,1,0,0:0:0:0:
320,0,139300,1,0,0:0:0:0:
64,0,139358,1,0,0:0:0:0:
192,0,139358,1,0,0:0:0:0:
448,0,139416,1,0,0:0:0:0:
192,0,139474,1,0,0:0:0:0:
320,0,139474,1,0,0:0:0:0:
64,0,139532,1,0,0:0:0:0:
320,0,139590,1,0,0:0:0:0:
448,0,139590,1,0,0:0:0:0:
192,0,139649,1,0,0:0:0:0:
64,0,139706,1,0,0:0:0:0:
192,0,139765,1,0,0:0:0:0:
320,0,139823,1,0,0:0:0:0:
448,0,139823,1,0,0:0:0:0:
192,0,139881,1,0,0:0:0:0:
64,0,139939,1,0,0:0:0:0:
192,0,139997,1,0,0:0:0:0:
320,0,140055,1,0,0:0:0:0:
448,0,140055,1,0,0:0:0:0:
192,0,140114,1,0,0:0:0:0:
320,0,140171,1,0,0:0:0:0:
192,0,140230,1,0,0:0:0:0:
320,0,140288,1,0,0:0:0:0:
448,0,140288,1,0,0:0:0:0:
192,0,140346,1,0,0:0:0:0:
320,0,140404,1,0,0:0:0:0:
192,0,140462,1,0,0:0:0:0:
64,0,140520,1,0,0:0:0:0:
448,0,140636,1,0,0:0:0:0:
320,0,140636,128,0,140985:0:0:0:0:
64,0,140985,128,0,141101:0:0:0:0:
448,0,141101,1,0,0:0:0:0:
320,0,141160,1,0,0:0:0:0:
192,0,141160,1,0,0:0:0:0:
64,0,141218,1,0,0:0:0:0:
192,0,141276,1,0,0:0:0:0:
448,0,141334,1,0,0:0:0:0:
320,0,141392,1,0,0:0:0:0:
64,0,141450,1,0,0:0:0:0:
192,0,141450,1,0,0:0:0:0:
448,0,141450,1,0,0:0:0:0:
320,0,141509,1,0,0:0:0:0:
64,0,141566,1,0,0:0:0:0:
192,0,141566,1,0,0:0:0:0:
320,0,141625,1,0,0:0:0:0:
64,0,141683,1,0,0:0:0:0:
192,0,141683,1,0,0:0:0:0:
320,0,141741,1,0,0:0:0:0:
448,0,141741,1,0,0:0:0:0:
64,0,141800,1,0,0:0:0:0:
192,0,141857,1,0,0:0:0:0:
320,0,141915,1,0,0:0:0:0:
448,0,141915,1,0,0:0:0:0:
64,0,141974,1,0,0:0:0:0:
192,0,142032,1,0,0:0:0:0:
320,0,142090,1,0,0:0:0:0:
64,0,142148,1,0,0:0:0:0:
448,0,142148,1,0,0:0:0:0:
192,0,142206,1,0,0:0:0:0:
320,0,142265,1,0,0:0:0:0:
448,0,142322,1,0,0:0:0:0:
64,0,142380,1,0,0:0:0:0:
192,0,142380,1,0,0:0:0:0:
320,0,142439,1,0,0:0:0:0:
64,0,142497,1,0,0:0:0:0:
448,0,142497,1,0,0:0:0:0:
192,0,142555,1,0,0:0:0:0:
320,0,142613,1,0,0:0:0:0:
448,0,142613,1,0,0:0:0:0:
64,0,142671,1,0,0:0:0:0:
192,0,142671,1,0,0:0:0:0:
320,0,142730,1,0,0:0:0:0:
448,0,142787,1,0,0:0:0:0:
64,0,142845,1,0,0:0:0:0:
192,0,142845,1,0,0:0:0:0:
320,0,142904,1,0,0:0:0:0:
448,0,142962,1,0,0:0:0:0:
64,0,143020,1,0,0:0:0:0:
320,0,143078,1,0,0:0:0:0:
448,0,143078,1,0,0:0:0:0:
64,0,143136,1,0,0:0:0:0:
192,0,143136,1,0,0:0:0:0:
320,0,143195,1,0,0:0:0:0:
448,0,143195,1,0,0:0:0:0:
192,0,143252,1,0,0:0:0:0:
64,0,143310,1,0,0:0:0:0:
448,0,143310,1,0,0:0:0:0:
320,0,143369,1,0,0:0:0:0:
192,0,143427,1,0,0:0:0:0:
448,0,143427,1,0,0:0:0:0:
320,0,143485,1,0,0:0:0:0:
64,0,143543,1,0,0:0:0:0:
192,0,143543,1,0,0:0:0:0:
320,0,143601,1,0,0:0:0:0:
448,0,143601,1,0,0:0:0:0:
64,0,143660,1,0,0:0:0:0:
192,0,143717,1,0,0:0:0:0:
320,0,143775,1,0,0:0:0:0:
448,0,143775,1,0,0:0:0:0:
64,0,143834,1,0,0:0:0:0:
192,0,143892,1,0,0:0:0:0:
320,0,143950,1,0,0:0:0:0:
64,0,144008,1,0,0:0:0:0:
448,0,144008,1,0,0:0:0:0:
192,0,144066,1,0,0:0:0:0:
320,0,144125,1,0,0:0:0:0:
448,0,144182,1,0,0:0:0:0:
192,0,144240,1,0,0:0:0:0:
448,0,144299,1,0,0:0:0:0:
64,0,144357,1,0,0:0:0:0:
192,0,144357,1,0,0:0:0:0:
320,0,144415,1,0,0:0:0:0:
64,0,144473,1,0,0:0:0:0:
192,0,144473,1,0,0:0:0:0:
320,0,144531,1,0,0:0:0:0:
448,0,144531,1,0,0:0:0:0:
64,0,144590,1,0,0:0:0:0:
192,0,144647,1,0,0:0:0:0:
320,0,144705,1,0,0:0:0:0:
448,0,144705,1,0,0:0:0:0:
64,0,144764,1,0,0:0:0:0:
192,0,144822,1,0,0:0:0:0:
320,0,144880,1,0,0:0:0:0:
64,0,144938,1,0,0:0:0:0:
448,0,144938,1,0,0:0:0:0:
192,0,144996,1,0,0:0:0:0:
320,0,144996,1,0,0:0:0:0:
64,0,145055,1,0,0:0:0:0:
448,0,145055,1,0,0:0:0:0:
320,0,145112,1,0,0:0:0:0:
64,0,145170,1,0,0:0:0:0:
192,0,145170,1,0,0:0:0:0:
448,0,145229,1,0,0:0:0:0:
64,0,145287,1,0,0:0:0:0:
320,0,145287,1,0,0:0:0:0:
448,0,145345,1,0,0:0:0:0:
64,0,145403,1,0,0:0:0:0:
320,0,145403,1,0,0:0:0:0:
192,0,145461,1,0,0:0:0:0:
448,0,145461,1,0,0:0:0:0:
320,0,145520,1,0,0:0:0:0:
64,0,145577,1,0,0:0:0:0:
192,0,145635,1,0,0:0:0:0:
448,0,145635,1,0,0:0:0:0:
320,0,145694,1,0,0:0:0:0:
448,0,145752,1,0,0:0:0:0:
64,0,145810,1,0,0:0:0:0:
192,0,145868,1,0,0:0:0:0:
448,0,145868,1,0,0:0:0:0:
320,0,145926,1,0,0:0:0:0:
64,0,145985,1,0,0:0:0:0:
448,0,146043,1,0,0:0:0:0:
64,0,146100,1,0,0:0:0:0:
192,0,146100,1,0,0:0:0:0:
320,0,146159,1,0,0:0:0:0:
64,0,146217,1,0,0:0:0:0:
448,0,146217,1,0,0:0:0:0:
192,0,146275,1,0,0:0:0:0:
64,0,146333,1,0,0:0:0:0:
448,0,146333,1,0,0:0:0:0:
192,0,146391,1,0,0:0:0:0:
320,0,146391,1,0,0:0:0:0:
448,0,146450,1,0,0:0:0:0:
320,0,146508,1,0,0:0:0:0:
64,0,146565,1,0,0:0:0:0:
448,0,146565,1,0,0:0:0:0:
192,0,146624,1,0,0:0:0:0:
320,0,146682,1,0,0:0:0:0:
64,0,146740,1,0,0:0:0:0:
320,0,146798,1,0,0:0:0:0:
448,0,146798,1,0,0:0:0:0:
64,0,146856,1,0,0:0:0:0:
192,0,146856,1,0,0:0:0:0:
320,0,146915,1,0,0:0:0:0:
448,0,146915,1,0,0:0:0:0:
192,0,146973,1,0,0:0:0:0:
64,0,147030,1,0,0:0:0:0:
448,0,147030,1,0,0:0:0:0:
320,0,147089,1,0,0:0:0:0:
64,0,147147,1,0,0:0:0:0:
192,0,147147,1,0,0:0:0:0:
320,0,147205,1,0,0:0:0:0:
64,0,147263,1,0,0:0:0:0:
448,0,147263,1,0,0:0:0:0:
192,0,147321,1,0,0:0:0:0:
320,0,147321,1,0,0:0:0:0:
448,0,147380,1,0,0:0:0:0:
64,0,147438,1,0,0:0:0:0:
320,0,147495,1,0,0:0:0:0:
448,0,147495,1,0,0:0:0:0:
64,0,147554,1,0,0:0:0:0:
192,0,147612,1,0,0:0:0:0:
448,0,147670,1,0,0:0:0:0:
192,0,147728,1,0,0:0:0:0:
320,0,147728,1,0,0:0:0:0:
448,0,147786,1,0,0:0:0:0:
64,0,147845,1,0,0:0:0:0:
192,0,147903,1,0,0:0:0:0:
64,0,147960,1,0,0:0:0:0:
448,0,147960,1,0,0:0:0:0:
192,0,148019,1,0,0:0:0:0:
320,0,148077,1,0,0:0:0:0:
448,0,148077,1,0,0:0:0:0:
64,0,148135,1,0,0:0:0:0:
192,0,148193,1,0,0:0:0:0:
320,0,148193,1,0,0:0:0:0:
64,0,148251,1,0,0:0:0:0:
448,0,148251,1,0,0:0:0:0:
320,0,148310,1,0,0:0:0:0:
192,0,148368,1,0,0:0:0:0:
64,0,148425,1,0,0:0:0:0:
448,0,148425,1,0,0:0:0:0:
320,0,148484,1,0,0:0:0:0:
192,0,148542,1,0,0:0:0:0:
320,0,148600,1,0,0:0:0:0:
64,0,148658,1,0,0:0:0:0:
448,0,148658,1,0,0:0:0:0:
192,0,148716,1,0,0:0:0:0:
320,0,148716,1,0,0:0:0:0:
64,0,148775,1,0,0:0:0:0:
448,0,148775,1,0,0:0:0:0:
192,0,148833,1,0,0:0:0:0:
64,0,148890,1,0,0:0:0:0:
320,0,148890,1,0,0:0:0:0:
448,0,148890,1,0,0:0:0:0:
320,0,149007,1,0,0:0:0:0:
448,0,149007,1,0,0:0:0:0:
192,0,149065,1,0,0:0:0:0:
320,0,149123,1,0,0:0:0:0:
448,0,149123,1,0,0:0:0:0:
64,0,149181,1,0,0:0:0:0:
192,0,149181,1,0,0:0:0:0:
448,0,149240,1,0,0:0:0:0:
320,0,149298,1,0,0:0:0:0:
64,0,149355,1,0,0:0:0:0:
192,0,149355,1,0,0:0:0:0:
448,0,149414,1,0,0:0:0:0:
320,0,149472,1,0,0:0:0:0:
192,0,149530,1,0,0:0:0:0:
64,0,149588,1,0,0:0:0:0:
448,0,149588,1,0,0:0:0:0:
320,0,149646,1,0,0:0:0:0:
192,0,149705,1,0,0:0:0:0:
64,0,149763,1,0,0:0:0:0:
320,0,149820,1,0,0:0:0:0:
448,0,149820,1,0,0:0:0:0:
192,0,149879,1,0,0:0:0:0:
64,0,149937,1,0,0:0:0:0:
448,0,149937,1,0,0:0:0:0:
320,0,149995,1,0,0:0:0:0:
64,0,150054,1,0,0:0:0:0:
192,0,150054,1,0,0:0:0:0:
320,0,150111,1,0,0:0:0:0:
448,0,150111,1,0,0:0:0:0:
192,0,150170,1,0,0:0:0:0:
64,0,150228,1,0,0:0:0:0:
320,0,150286,1,0,0:0:0:0:
448,0,150286,1,0,0:0:0:0:
192,0,150344,1,0,0:0:0:0:
64,0,150402,1,0,0:0:0:0:
448,0,150460,1,0,0:0:0:0:
64,0,150519,1,0,0:0:0:0:
192,0,150519,1,0,0:0:0:0:
320,0,150576,1,0,0:0:0:0:
448,0,150576,1,0,0:0:0:0:
64,0,150635,1,0,0:0:0:0:
192,0,150635,1,0,0:0:0:0:
320,0,150693,1,0,0:0:0:0:
64,0,150751,1,0,0:0:0:0:
448,0,150751,1,0,0:0:0:0:
192,0,150809,1,0,0:0:0:0:
64,0,150867,1,0,0:0:0:0:
320,0,150867,1,0,0:0:0:0:
192,0,150925,1,0,0:0:0:0:
320,0,150984,1,0,0:0:0:0:
448,0,150984,1,0,0:0:0:0:
64,0,151041,1,0,0:0:0:0:
192,0,151041,1,0,0:0:0:0:
448,0,151100,1,0,0:0:0:0:
320,0,151158,1,0,0:0:0:0:
64,0,151216,1,0,0:0:0:0:
192,0,151216,1,0,0:0:0:0:
448,0,151274,1,0,0:0:0:0:
320,0,151332,1,0,0:0:0:0:
192,0,151390,1,0,0:0:0:0:
64,0,151449,1,0,0:0:0:0:
448,0,151449,1,0,0:0:0:0:
320,0,151506,1,0,0:0:0:0:
192,0,151565,1,0,0:0:0:0:
64,0,151623,1,0,0:0:0:0:
320,0,151681,1,0,0:0:0:0:
64,0,151739,1,0,0:0:0:0:
320,0,151797,1,0,0:0:0:0:
448,0,151797,1,0,0:0:0:0:
192,0,151855,1,0,0:0:0:0:
320,0,151914,1,0,0:0:0:0:
448,0,151914,1,0,0:0:0:0:
64,0,151971,1,0,0:0:0:0:
192,0,151971,1,0,0:0:0:0:
448,0,152030,1,0,0:0:0:0:
320,0,152088,1,0,0:0:0:0:
64,0,152146,1,0,0:0:0:0:
192,0,152146,1,0,0:0:0:0:
448,0,152204,1,0,0:0:0:0:
320,0,152262,1,0,0:0:0:0:
192,0,152320,1,0,0:0:0:0:
64,0,152379,1,0,0:0:0:0:
448,0,152379,1,0,0:0:0:0:
192,0,152436,1,0,0:0:0:0:
320,0,152436,1,0,0:0:0:0:
64,0,152495,1,0,0:0:0:0:
448,0,152495,1,0,0:0:0:0:
192,0,152553,1,0,0:0:0:0:
320,0,152611,1,0,0:0:0:0:
448,0,152611,1,0,0:0:0:0:
64,0,152669,1,0,0:0:0:0:
192,0,152727,1,0,0:0:0:0:
448,0,152727,1,0,0:0:0:0:
64,0,152785,1,0,0:0:0:0:
192,0,152844,1,0,0:0:0:0:
448,0,152844,1,0,0:0:0:0:
64,0,152901,1,0,0:0:0:0:
320,0,152901,1,0,0:0:0:0:
192,0,152960,1,0,0:0:0:0:
448,0,153018,1,0,0:0:0:0:
64,0,153076,1,0,0:0:0:0:
320,0,153076,1,0,0:0:0:0:
192,0,153134,1,0,0:0:0:0:
64,0,153192,1,0,0:0:0:0:
448,0,153250,1,0,0:0:0:0:
64,0,153309,1,0,0:0:0:0:
320,0,153309,1,0,0:0:0:0:
192,0,153366,1,0,0:0:0:0:
448,0,153425,1,0,0:0:0:0:
64,0,153483,1,0,0:0:0:0:
320,0,153541,1,0,0:0:0:0:
448,0,153541,1,0,0:0:0:0:
192,0,153599,1,0,0:0:0:0:
64,0,153657,1,0,0:0:0:0:
448,0,153657,1,0,0:0:0:0:
320,0,153715,1,0,0:0:0:0:
64,0,153774,1,0,0:0:0:0:
448,0,153774,1,0,0:0:0:0:
192,0,153831,1,0,0:0:0:0:
320,0,153831,1,0,0:0:0:0:
64,0,153890,1,0,0:0:0:0:
192,0,153948,1,0,0:0:0:0:
64,0,154006,1,0,0:0:0:0:
448,0,154006,1,0,0:0:0:0:
320,0,154064,1,0,0:0:0:0:
192,0,154122,1,0,0:0:0:0:
448,0,154180,1,0,0:0:0:0:
64,0,154239,1,0,0:0:0:0:
192,0,154239,1,0,0:0:0:0:
320,0,154297,1,0,0:0:0:0:
448,0,154297,1,0,0:0:0:0:
64,0,154355,1,0,0:0:0:0:
192,0,154355,1,0,0:0:0:0:
320,0,154413,1,0,0:0:0:0:
64,0,154471,1,0,0:0:0:0:
448,0,154471,1,0,0:0:0:0:
192,0,154530,1,0,0:0:0:0:
320,0,154587,1,0,0:0:0:0:
448,0,154587,1,0,0:0:0:0:
192,0,154645,1,0,0:0:0:0:
64,0,154704,1,0,0:0:0:0:
448,0,154704,1,0,0:0:0:0:
192,0,154762,1,0,0:0:0:0:
320,0,154762,1,0,0:0:0:0:
64,0,154820,1,0,0:0:0:0:
448,0,154820,1,0,0:0:0:0:
320,0,154878,1,0,0:0:0:0:
64,0,154936,1,0,0:0:0:0:
192,0,154936,1,0,0:0:0:0:
448,0,154995,1,0,0:0:0:0:
192,0,155052,1,0,0:0:0:0:
320,0,155052,1,0,0:0:0:0:
64,0,155110,1,0,0:0:0:0:
320,0,155169,1,0,0:0:0:0:
448,0,155169,1,0,0:0:0:0:
64,0,155227,1,0,0:0:0:0:
192,0,155285,1,0,0:0:0:0:
448,0,155285,1,0,0:0:0:0:
320,0,155343,1,0,0:0:0:0:
64,0,155401,1,0,0:0:0:0:
448,0,155401,1,0,0:0:0:0:
192,0,155460,1,0,0:0:0:0:
320,0,155460,1,0,0:0:0:0:
448,0,155517,1,0,0:0:0:0:
64,0,155575,1,0,0:0:0:0:
192,0,155575,1,0,0:0:0:0:
320,0,155634,1,0,0:0:0:0:
448,0,155692,1,0,0:0:0:0:
64,0,155692,1,0,0:0:0:0:
192,0,155750,1,0,0:0:0:0:
320,0,155808,1,0,0:0:0:0:
448,0,155808,1,0,0:0:0:0:
64,0,155866,1,0,0:0:0:0:
192,0,155925,1,0,0:0:0:0:
320,0,155925,1,0,0:0:0:0:
448,0,155982,1,0,0:0:0:0:
64,0,156040,1,0,0:0:0:0:
192,0,156040,1,0,0:0:0:0:
320,0,156099,1,0,0:0:0:0:
448,0,156157,1,0,0:0:0:0:
64,0,156157,1,0,0:0:0:0:
192,0,156215,1,0,0:0:0:0:
320,0,156273,1,0,0:0:0:0:
448,0,156273,1,0,0:0:0:0:
