osu file format v14

[General]
AudioFilename: audio_1.1.mp3
AudioLeadIn: 0
PreviewTime: 0
Countdown: 1
SampleSet: Normal
StackLeniency: 0.7
Mode: 3
LetterboxInBreaks: 0
SpecialStyle: 0
WidescreenStoryboard: 0

[Editor]
DistanceSpacing: 1
BeatDivisor: 4
GridSize: 16
TimelineZoom: 1

[Metadata]
Title:Hymn (Gammer & G-Spencer Remix)
TitleUnicode:Hymn (Gammer & G-Spencer Remix)
Artist:Tina Cousins
ArtistUnicode:Tina Cousins
Creator:Insp1r3
Version:Challenge x1.1
Source:Yolomania Vol. 3
Tags:
BeatmapID:1786120
BeatmapSetID:854757

[Difficulty]
HPDrainRate:8
CircleSize:4
OverallDifficulty:5.5
ApproachRate:5
SliderMultiplier:1.4
SliderTickRate:1

[Events]
//Background and Video events
0,0,"hymn.png",0,0
//Break Periods
//Storyboard Layer 0 (Background)
//Storyboard Layer 1 (Fail)
//Storyboard Layer 2 (Pass)
//Storyboard Layer 3 (Foreground)
//Storyboard Sound Samples

[TimingPoints]
91,253.649058771755,4,1,0,15,1,0

[HitObjects]
192,192,28,5,0,0:0:0:0:
64,0,91,1,0,0:0:0:0:
448,0,91,128,0,471:0:0:0:0:
320,0,91,1,0,0:0:0:0:
448,0,599,1,0,0:0:0:0:
320,0,1106,128,0,1486:0:0:0:0:
320,0,1613,1,0,0:0:0:0:
192,0,2120,128,0,2500:0:0:0:0:
192,0,2628,1,0,0:0:0:0:
192,0,2881,1,0,0:0:0:0:
448,0,3135,128,0,3515:0:0:0:0:
448,0,3642,1,0,0:0:0:0:
320,0,4022,1,0,0:0:0:0:
320,0,4150,128,0,4530:0:0:0:0:
320,0,4657,1,0,0:0:0:0:
320,0,4910,1,0,0:0:0:0:
320,0,5164,128,0,5544:0:0:0:0:
448,0,6051,128,0,6305:0:0:0:0:
448,0,6432,128,0,6686:0:0:0:0:
64,0,6686,1,0,0:0:0:0:
64,0,6939,128,0,7193:0:0:0:0:
64,0,7319,128,0,7573:0:0:0:0:
64,0,7700,1,0,0:0:0:0:
320,0,7954,1,0,0:0:0:0:
192,0,8080,1,0,0:0:0:0:
64,0,8208,1,0,0:0:0:0:
448,0,8208,128,0,8588:0:0:0:0:
320,0,8715,1,0,0:0:0:0:
448,0,8715,1,0,0:0:0:0:
192,0,9222,1,0,0:0:0:0:
320,0,9222,128,0,9603:0:0:0:0:
64,0,9730,1,0,0:0:0:0:
320,0,9730,1,0,0:0:0:0:
320,0,9983,1,0,0:0:0:0:
192,0,10110,1,0,0:0:0:0:
64,0,10237,128,0,10618:0:0:0:0:
320,0,10237,1,0,0:0:0:0:
64,0,10744,1,0,0:0:0:0:
192,0,10744,1,0,0:0:0:0:
64,0,10998,1,0,0:0:0:0:
192,0,10998,1,0,0:0:0:0:
64,0,11251,1,0,0:0:0:0:
192,0,11251,128,0,11632:0:0:0:0:
64,0,11759,1,0,0:0:0:0:
192,0,11759,1,0,0:0:0:0:
192,0,12012,1,0,0:0:0:0:
64,0,12139,1,0,0:0:0:0:
448,0,12139,1,0,0:0:0:0:
192,0,12266,1,0,0:0:0:0:
448,0,12266,1,0,0:0:0:0:
320,0,12329,1,0,0:0:0:0:
192,0,12393,1,0,0:0:0:0:
64,0,12456,1,0,0:0:0:0:
448,0,12519,1,0,0:0:0:0:
192,0,12583,1,0,0:0:0:0:
320,0,12647,1,0,0:0:0:0:
448,0,12709,1,0,0:0:0:0:
64,0,12773,1,0,0:0:0:0:
192,0,12773,1,0,0:0:0:0:
448,0,12837,1,0,0:0:0:0:
320,0,12900,1,0,0:0:0:0:
192,0,12963,1,0,0:0:0:0:
64,0,13027,1,0,0:0:0:0:
448,0,13027,1,0,0:0:0:0:
192,0,13090,1,0,0:0:0:0:
320,0,13154,1,0,0:0:0:0:
448,0,13217,1,0,0:0:0:0:
64,0,13280,1,0,0:0:0:0:
192,0,13280,1,0,0:0:0:0:
320,0,13344,1,0,0:0:0:0:
192,0,13408,1,0,0:0:0:0:
320,0,13470,1,0,0:0:0:0:
192,0,13534,1,0,0:0:0:0:
320,0,13598,1,0,0:0:0:0:
192,0,13661,1,0,0:0:0:0:
320,0,13725,1,0,0:0:0:0:
192,0,13788,1,0,0:0:0:0:
320,0,13851,1,0,0:0:0:0:
448,0,13915,1,0,0:0:0:0:
64,0,13979,1,0,0:0:0:0:
192,0,14041,1,0,0:0:0:0:
320,0,14105,1,0,0:0:0:0:
64,0,14169,1,0,0:0:0:0:
448,0,14169,1,0,0:0:0:0:
192,0,14232,1,0,0:0:0:0:
320,0,14295,1,0,0:0:0:0:
448,0,14359,1,0,0:0:0:0:
320,0,14422,1,0,0:0:0:0:
192,0,14486,1,0,0:0:0:0:
64,0,14549,1,0,0:0:0:0:
448,0,14549,1,0,0:0:0:0:
192,0,14612,1,0,0:0:0:0:
320,0,14676,1,0,0:0:0:0:
192,0,14739,1,0,0:0:0:0:
64,0,14802,1,0,0:0:0:0:
448,0,14802,1,0,0:0:0:0:
320,0,14866,1,0,0:0:0:0:
192,0,14929,1,0,0:0:0:0:
320,0,14993,1,0,0:0:0:0:
64,0,15056,1,0,0:0:0:0:
448,0,15056,1,0,0:0:0:0:
192,0,15119,1,0,0:0:0:0:
320,0,15183,1,0,0:0:0:0:
448,0,15247,1,0,0:0:0:0:
64,0,15309,1,0,0:0:0:0:
192,0,15309,1,0,0:0:0:0:
64,0,15437,1,0,0:0:0:0:
448,0,15437,128,0,16198:0:0:0:0:
64,0,16324,1,0,0:0:0:0:
320,0,16324,1,0,0:0:0:0:
448,0,16324,1,0,0:0:0:0:
192,0,16451,1,0,0:0:0:0:
64,0,16578,1,0,0:0:0:0:
448,0,16578,1,0,0:0:0:0:
192,0,16705,1,0,0:0:0:0:
320,0,16705,1,0,0:0:0:0:
64,0,16831,1,0,0:0:0:0:
192,0,16831,1,0,0:0:0:0:
320,0,16959,1,0,0:0:0:0:
448,0,16959,1,0,0:0:0:0:
64,0,17085,1,0,0:0:0:0:
320,0,17085,1,0,0:0:0:0:
192,0,17212,1,0,0:0:0:0:
448,0,17212,1,0,0:0:0:0:
64,0,17339,1,0,0:0:0:0:
320,0,17466,1,0,0:0:0:0:
448,0,17466,1,0,0:0:0:0:
320,0,17592,1,0,0:0:0:0:
448,0,17592,1,0,0:0:0:0:
64,0,17720,1,0,0:0:0:0:
192,0,17846,1,0,0:0:0:0:
448,0,17846,1,0,0:0:0:0:
192,0,17973,1,0,0:0:0:0:
448,0,17973,1,0,0:0:0:0:
320,0,18100,1,0,0:0:0:0:
448,0,18100,1,0,0:0:0:0:
192,0,18227,1,0,0:0:0:0:
320,0,18227,1,0,0:0:0:0:
64,0,18354,1,0,0:0:0:0:
320,0,18480,1,0,0:0:0:0:
448,0,18480,1,0,0:0:0:0:
192,0,18608,1,0,0:0:0:0:
320,0,18608,1,0,0:0:0:0:
64,0,18734,1,0,0:0:0:0:
192,0,18861,1,0,0:0:0:0:
320,0,18861,1,0,0:0:0:0:
320,0,18988,1,0,0:0:0:0:
448,0,18988,1,0,0:0:0:0:
64,0,19115,1,0,0:0:0:0:
448,0,19115,1,0,0:0:0:0:
64,0,19241,1,0,0:0:0:0:
192,0,19241,1,0,0:0:0:0:
320,0,19369,1,0,0:0:0:0:
64,0,19495,1,0,0:0:0:0:
448,0,19495,1,0,0:0:0:0:
64,0,19622,1,0,0:0:0:0:
192,0,19622,1,0,0:0:0:0:
320,0,19749,1,0,0:0:0:0:
64,0,19876,1,0,0:0:0:0:
448,0,19876,1,0,0:0:0:0:
320,0,20002,1,0,0:0:0:0:
64,0,20130,1,0,0:0:0:0:
448,0,20130,1,0,0:0:0:0:
64,0,20256,1,0,0:0:0:0:
448,0,20256,1,0,0:0:0:0:
64,0,20383,1,0,0:0:0:0:
192,0,20383,1,0,0:0:0:0:
448,0,20383,1,0,0:0:0:0:
192,0,20510,1,0,0:0:0:0:
320,0,20637,1,0,0:0:0:0:
448,0,20637,1,0,0:0:0:0:
64,0,20763,1,0,0:0:0:0:
192,0,20763,1,0,0:0:0:0:
192,0,20890,1,0,0:0:0:0:
320,0,20890,1,0,0:0:0:0:
64,0,21017,1,0,0:0:0:0:
448,0,21017,1,0,0:0:0:0:
64,0,21144,1,0,0:0:0:0:
192,0,21144,1,0,0:0:0:0:
192,0,21270,1,0,0:0:0:0:
320,0,21270,1,0,0:0:0:0:
64,0,21398,1,0,0:0:0:0:
320,0,21524,1,0,0:0:0:0:
448,0,21524,1,0,0:0:0:0:
192,0,21651,1,0,0:0:0:0:
320,0,21651,1,0,0:0:0:0:
64,0,21778,1,0,0:0:0:0:
192,0,21905,1,0,0:0:0:0:
320,0,21905,1,0,0:0:0:0:
320,0,22031,1,0,0:0:0:0:
448,0,22031,1,0,0:0:0:0:
64,0,22159,1,0,0:0:0:0:
448,0,22159,1,0,0:0:0:0:
64,0,22285,1,0,0:0:0:0:
192,0,22285,1,0,0:0:0:0:
320,0,22412,1,0,0:0:0:0:
64,0,22539,1,0,0:0:0:0:
448,0,22539,1,0,0:0:0:0:
64,0,22666,1,0,0:0:0:0:
448,0,22666,1,0,0:0:0:0:
192,0,22792,1,0,0:0:0:0:
64,0,22919,1,0,0:0:0:0:
448,0,22919,1,0,0:0:0:0:
64,0,23046,1,0,0:0:0:0:
192,0,23046,1,0,0:0:0:0:
192,0,23173,1,0,0:0:0:0:
448,0,23173,1,0,0:0:0:0:
320,0,23299,1,0,0:0:0:0:
448,0,23299,1,0,0:0:0:0:
192,0,23427,1,0,0:0:0:0:
320,0,23553,1,0,0:0:0:0:
448,0,23553,1,0,0:0:0:0:
320,0,23680,1,0,0:0:0:0:
448,0,23680,1,0,0:0:0:0:
192,0,23807,1,0,0:0:0:0:
64,0,23934,1,0,0:0:0:0:
448,0,23934,1,0,0:0:0:0:
64,0,24060,1,0,0:0:0:0:
192,0,24060,1,0,0:0:0:0:
320,0,24188,1,0,0:0:0:0:
64,0,24314,1,0,0:0:0:0:
192,0,24314,1,0,0:0:0:0:
64,0,24441,1,0,0:0:0:0:
192,0,24441,1,0,0:0:0:0:
448,0,24441,1,0,0:0:0:0:
320,0,24505,1,0,0:0:0:0:
192,0,24568,1,0,0:0:0:0:
320,0,24631,1,0,0:0:0:0:
64,0,24695,1,0,0:0:0:0:
448,0,24695,1,0,0:0:0:0:
192,0,24759,1,0,0:0:0:0:
64,0,24821,1,0,0:0:0:0:
448,0,24821,1,0,0:0:0:0:
192,0,24885,1,0,0:0:0:0:
320,0,24949,1,0,0:0:0:0:
448,0,24949,1,0,0:0:0:0:
64,0,25012,1,0,0:0:0:0:
320,0,25075,1,0,0:0:0:0:
448,0,25075,1,0,0:0:0:0:
64,0,25139,1,0,0:0:0:0:
192,0,25202,1,0,0:0:0:0:
448,0,25202,1,0,0:0:0:0:
320,0,25266,1,0,0:0:0:0:
64,0,25329,1,0,0:0:0:0:
192,0,25329,1,0,0:0:0:0:
320,0,25392,1,0,0:0:0:0:
448,0,25456,1,0,0:0:0:0:
192,0,25519,1,0,0:0:0:0:
320,0,25582,1,0,0:0:0:0:
448,0,25582,1,0,0:0:0:0:
192,0,25646,1,0,0:0:0:0:
64,0,25709,1,0,0:0:0:0:
320,0,25709,1,0,0:0:0:0:
448,0,25773,1,0,0:0:0:0:
192,0,25836,1,0,0:0:0:0:
320,0,25899,1,0,0:0:0:0:
64,0,25963,1,0,0:0:0:0:
448,0,25963,1,0,0:0:0:0:
192,0,26027,1,0,0:0:0:0:
64,0,26089,1,0,0:0:0:0:
448,0,26089,1,0,0:0:0:0:
192,0,26153,1,0,0:0:0:0:
320,0,26217,1,0,0:0:0:0:
448,0,26217,1,0,0:0:0:0:
64,0,26280,1,0,0:0:0:0:
320,0,26343,1,0,0:0:0:0:
448,0,26343,1,0,0:0:0:0:
64,0,26407,1,0,0:0:0:0:
192,0,26470,1,0,0:0:0:0:
320,0,26534,1,0,0:0:0:0:
64,0,26597,1,0,0:0:0:0:
448,0,26597,1,0,0:0:0:0:
320,0,26660,1,0,0:0:0:0:
64,0,26724,1,0,0:0:0:0:
192,0,26724,1,0,0:0:0:0:
448,0,26788,1,0,0:0:0:0:
320,0,26850,1,0,0:0:0:0:
192,0,26914,1,0,0:0:0:0:
64,0,26978,1,0,0:0:0:0:
448,0,26978,1,0,0:0:0:0:
192,0,27041,1,0,0:0:0:0:
64,0,27104,1,0,0:0:0:0:
448,0,27104,1,0,0:0:0:0:
320,0,27168,1,0,0:0:0:0:
64,0,27231,1,0,0:0:0:0:
192,0,27231,1,0,0:0:0:0:
320,0,27295,1,0,0:0:0:0:
64,0,27359,1,0,0:0:0:0:
192,0,27359,1,0,0:0:0:0:
448,0,27421,1,0,0:0:0:0:
320,0,27485,1,0,0:0:0:0:
192,0,27549,1,0,0:0:0:0:
64,0,27612,1,0,0:0:0:0:
448,0,27612,1,0,0:0:0:0:
192,0,27675,1,0,0:0:0:0:
320,0,27739,1,0,0:0:0:0:
448,0,27739,1,0,0:0:0:0:
64,0,27802,1,0,0:0:0:0:
192,0,27866,1,0,0:0:0:0:
320,0,27929,1,0,0:0:0:0:
64,0,27992,1,0,0:0:0:0:
192,0,27992,1,0,0:0:0:0:
320,0,28056,1,0,0:0:0:0:
448,0,28119,1,0,0:0:0:0:
64,0,28182,1,0,0:0:0:0:
320,0,28246,1,0,0:0:0:0:
448,0,28246,1,0,0:0:0:0:
64,0,28309,1,0,0:0:0:0:
320,0,28373,1,0,0:0:0:0:
448,0,28373,1,0,0:0:0:0:
192,0,28436,1,0,0:0:0:0:
64,0,28499,1,0,0:0:0:0:
320,0,28499,1,0,0:0:0:0:
448,0,28499,1,0,0:0:0:0:
192,0,28563,1,0,0:0:0:0:
64,0,28627,1,0,0:0:0:0:
320,0,28627,1,0,0:0:0:0:
448,0,28689,1,0,0:0:0:0:
64,0,28753,1,0,0:0:0:0:
192,0,28753,1,0,0:0:0:0:
320,0,28817,1,0,0:0:0:0:
64,0,28880,1,0,0:0:0:0:
448,0,28880,1,0,0:0:0:0:
192,0,28943,1,0,0:0:0:0:
320,0,29007,1,0,0:0:0:0:
448,0,29007,1,0,0:0:0:0:
64,0,29070,1,0,0:0:0:0:
192,0,29134,1,0,0:0:0:0:
320,0,29134,1,0,0:0:0:0:
448,0,29197,1,0,0:0:0:0:
64,0,29260,1,0,0:0:0:0:
192,0,29260,1,0,0:0:0:0:
320,0,29324,1,0,0:0:0:0:
64,0,29388,1,0,0:0:0:0:
448,0,29388,1,0,0:0:0:0:
192,0,29450,1,0,0:0:0:0:
320,0,29514,1,0,0:0:0:0:
448,0,29514,1,0,0:0:0:0:
64,0,29578,1,0,0:0:0:0:
192,0,29641,1,0,0:0:0:0:
320,0,29641,1,0,0:0:0:0:
448,0,29704,1,0,0:0:0:0:
64,0,29768,1,0,0:0:0:0:
192,0,29768,1,0,0:0:0:0:
320,0,29831,1,0,0:0:0:0:
64,0,29895,1,0,0:0:0:0:
448,0,29895,1,0,0:0:0:0:
192,0,29958,1,0,0:0:0:0:
320,0,30021,1,0,0:0:0:0:
448,0,30021,1,0,0:0:0:0:
64,0,30085,1,0,0:0:0:0:
192,0,30149,1,0,0:0:0:0:
320,0,30149,1,0,0:0:0:0:
448,0,30211,1,0,0:0:0:0:
64,0,30275,1,0,0:0:0:0:
192,0,30275,1,0,0:0:0:0:
320,0,30339,1,0,0:0:0:0:
64,0,30402,1,0,0:0:0:0:
448,0,30402,1,0,0:0:0:0:
192,0,30465,1,0,0:0:0:0:
320,0,30529,1,0,0:0:0:0:
448,0,30529,1,0,0:0:0:0:
64,0,30592,1,0,0:0:0:0:
192,0,30592,1,0,0:0:0:0:
320,0,30656,1,0,0:0:0:0:
448,0,30656,1,0,0:0:0:0:
64,0,30719,1,0,0:0:0:0:
192,0,30719,1,0,0:0:0:0:
320,0,30782,1,0,0:0:0:0:
448,0,30782,1,0,0:0:0:0:
64,0,30846,1,0,0:0:0:0:
192,0,30846,1,0,0:0:0:0:
320,0,30909,1,0,0:0:0:0:
448,0,30909,1,0,0:0:0:0:
64,0,30972,1,0,0:0:0:0:
192,0,30972,1,0,0:0:0:0:
320,0,31036,1,0,0:0:0:0:
448,0,31036,1,0,0:0:0:0:
64,0,31099,1,0,0:0:0:0:
192,0,31099,1,0,0:0:0:0:
320,0,31163,1,0,0:0:0:0:
448,0,31163,1,0,0:0:0:0:
64,0,31226,1,0,0:0:0:0:
192,0,31226,1,0,0:0:0:0:
320,0,31289,1,0,0:0:0:0:
448,0,31289,1,0,0:0:0:0:
64,0,31353,1,0,0:0:0:0:
192,0,31353,1,0,0:0:0:0:
320,0,31417,1,0,0:0:0:0:
448,0,31417,1,0,0:0:0:0:
64,0,31479,1,0,0:0:0:0:
192,0,31479,1,0,0:0:0:0:
448,0,31543,1,0,0:0:0:0:
320,0,31607,1,0,0:0:0:0:
192,0,31607,1,0,0:0:0:0:
64,0,31670,1,0,0:0:0:0:
448,0,31670,1,0,0:0:0:0:
320,0,31733,1,0,0:0:0:0:
192,0,31733,1,0,0:0:0:0:
64,0,31797,1,0,0:0:0:0:
448,0,31797,1,0,0:0:0:0:
320,0,31860,1,0,0:0:0:0:
192,0,31860,1,0,0:0:0:0:
64,0,31924,1,0,0:0:0:0:
448,0,31924,1,0,0:0:0:0:
320,0,31988,1,0,0:0:0:0:
192,0,31988,1,0,0:0:0:0:
64,0,32050,1,0,0:0:0:0:
448,0,32050,1,0,0:0:0:0:
320,0,32114,1,0,0:0:0:0:
192,0,32114,1,0,0:0:0:0:
64,0,32178,1,0,0:0:0:0:
448,0,32178,1,0,0:0:0:0:
320,0,32241,1,0,0:0:0:0:
192,0,32241,1,0,0:0:0:0:
64,0,32304,1,0,0:0:0:0:
320,0,32304,1,0,0:0:0:0:
448,0,32304,1,0,0:0:0:0:
64,0,32368,1,0,0:0:0:0:
192,0,32368,1,0,0:0:0:0:
320,0,32431,1,0,0:0:0:0:
448,0,32431,1,0,0:0:0:0:
192,0,32495,1,0,0:0:0:0:
64,0,32558,1,0,0:0:0:0:
320,0,32558,1,0,0:0:0:0:
448,0,32558,1,0,0:0:0:0:
192,0,32621,1,0,0:0:0:0:
320,0,32685,1,0,0:0:0:0:
448,0,32749,1,0,0:0:0:0:
64,0,32811,1,0,0:0:0:0:
192,0,32811,1,0,0:0:0:0:
320,0,32875,1,0,0:0:0:0:
64,0,32939,1,0,0:0:0:0:
448,0,32939,1,0,0:0:0:0:
192,0,33002,1,0,0:0:0:0:
320,0,33065,1,0,0:0:0:0:
448,0,33065,1,0,0:0:0:0:
64,0,33129,1,0,0:0:0:0:
192,0,33192,1,0,0:0:0:0:
320,0,33192,1,0,0:0:0:0:
448,0,33256,1,0,0:0:0:0:
64,0,33319,1,0,0:0:0:0:
192,0,33319,1,0,0:0:0:0:
448,0,33382,1,0,0:0:0:0:
64,0,33446,1,0,0:0:0:0:
192,0,33446,1,0,0:0:0:0:
320,0,33510,1,0,0:0:0:0:
448,0,33572,1,0,0:0:0:0:
192,0,33636,1,0,0:0:0:0:
64,0,33700,1,0,0:0:0:0:
448,0,33700,1,0,0:0:0:0:
192,0,33763,1,0,0:0:0:0:
64,0,33826,1,0,0:0:0:0:
448,0,33826,1,0,0:0:0:0:
320,0,33890,1,0,0:0:0:0:
192,0,33953,1,0,0:0:0:0:
64,0,34017,1,0,0:0:0:0:
320,0,34080,1,0,0:0:0:0:
448,0,34080,1,0,0:0:0:0:
192,0,34143,1,0,0:0:0:0:
320,0,34207,1,0,0:0:0:0:
448,0,34207,1,0,0:0:0:0:
192,0,34270,1,0,0:0:0:0:
64,0,34333,1,0,0:0:0:0:
448,0,34333,1,0,0:0:0:0:
320,0,34397,1,0,0:0:0:0:
64,0,34460,1,0,0:0:0:0:
448,0,34460,1,0,0:0:0:0:
320,0,34524,1,0,0:0:0:0:
192,0,34587,1,0,0:0:0:0:
64,0,34650,1,0,0:0:0:0:
320,0,34714,1,0,0:0:0:0:
448,0,34714,1,0,0:0:0:0:
192,0,34778,1,0,0:0:0:0:
320,0,34840,1,0,0:0:0:0:
448,0,34840,1,0,0:0:0:0:
192,0,34904,1,0,0:0:0:0:
64,0,34968,1,0,0:0:0:0:
448,0,35031,1,0,0:0:0:0:
64,0,35094,1,0,0:0:0:0:
320,0,35094,1,0,0:0:0:0:
192,0,35158,1,0,0:0:0:0:
64,0,35221,1,0,0:0:0:0:
320,0,35221,1,0,0:0:0:0:
192,0,35285,1,0,0:0:0:0:
320,0,35348,1,0,0:0:0:0:
448,0,35348,1,0,0:0:0:0:
64,0,35411,1,0,0:0:0:0:
320,0,35475,1,0,0:0:0:0:
448,0,35475,1,0,0:0:0:0:
64,0,35539,1,0,0:0:0:0:
192,0,35601,1,0,0:0:0:0:
320,0,35665,1,0,0:0:0:0:
64,0,35729,1,0,0:0:0:0:
448,0,35729,1,0,0:0:0:0:
192,0,35792,1,0,0:0:0:0:
64,0,35855,1,0,0:0:0:0:
448,0,35855,1,0,0:0:0:0:
192,0,35919,1,0,0:0:0:0:
320,0,35982,1,0,0:0:0:0:
448,0,36046,1,0,0:0:0:0:
64,0,36109,1,0,0:0:0:0:
192,0,36109,1,0,0:0:0:0:
320,0,36172,1,0,0:0:0:0:
448,0,36236,1,0,0:0:0:0:
64,0,36300,1,0,0:0:0:0:
192,0,36362,1,0,0:0:0:0:
320,0,36362,1,0,0:0:0:0:
448,0,36426,1,0,0:0:0:0:
192,0,36490,1,0,0:0:0:0:
320,0,36490,1,0,0:0:0:0:
448,0,36553,1,0,0:0:0:0:
64,0,36617,1,0,0:0:0:0:
192,0,36680,1,0,0:0:0:0:
320,0,36743,1,0,0:0:0:0:
64,0,36807,1,0,0:0:0:0:
320,0,36870,1,0,0:0:0:0:
448,0,36870,1,0,0:0:0:0:
192,0,36933,1,0,0:0:0:0:
64,0,36997,1,0,0:0:0:0:
448,0,36997,1,0,0:0:0:0:
320,0,37060,1,0,0:0:0:0:
64,0,37124,1,0,0:0:0:0:
192,0,37124,1,0,0:0:0:0:
448,0,37187,1,0,0:0:0:0:
192,0,37250,1,0,0:0:0:0:
320,0,37250,1,0,0:0:0:0:
64,0,37314,1,0,0:0:0:0:
320,0,37378,1,0,0:0:0:0:
448,0,37378,1,0,0:0:0:0:
192,0,37440,1,0,0:0:0:0:
64,0,37504,1,0,0:0:0:0:
448,0,37504,1,0,0:0:0:0:
320,0,37568,1,0,0:0:0:0:
192,0,37631,1,0,0:0:0:0:
64,0,37694,1,0,0:0:0:0:
320,0,37758,1,0,0:0:0:0:
448,0,37758,1,0,0:0:0:0:
192,0,37821,1,0,0:0:0:0:
320,0,37885,1,0,0:0:0:0:
448,0,37885,1,0,0:0:0:0:
192,0,37948,1,0,0:0:0:0:
64,0,38011,1,0,0:0:0:0:
320,0,38075,1,0,0:0:0:0:
192,0,38139,1,0,0:0:0:0:
448,0,38139,1,0,0:0:0:0:
64,0,38201,1,0,0:0:0:0:
192,0,38265,1,0,0:0:0:0:
448,0,38265,1,0,0:0:0:0:
64,0,38329,1,0,0:0:0:0:
320,0,38392,1,0,0:0:0:0:
448,0,38392,1,0,0:0:0:0:
192,0,38455,1,0,0:0:0:0:
320,0,38519,1,0,0:0:0:0:
448,0,38519,1,0,0:0:0:0:
192,0,38582,1,0,0:0:0:0:
64,0,38646,1,0,0:0:0:0:
320,0,38709,1,0,0:0:0:0:
64,0,38772,1,0,0:0:0:0:
448,0,38772,1,0,0:0:0:0:
192,0,38836,1,0,0:0:0:0:
64,0,38900,1,0,0:0:0:0:
448,0,38900,1,0,0:0:0:0:
192,0,38962,1,0,0:0:0:0:
320,0,39026,1,0,0:0:0:0:
448,0,39090,1,0,0:0:0:0:
64,0,39153,1,0,0:0:0:0:
192,0,39153,1,0,0:0:0:0:
320,0,39216,1,0,0:0:0:0:
64,0,39280,1,0,0:0:0:0:
192,0,39280,1,0,0:0:0:0:
320,0,39343,1,0,0:0:0:0:
192,0,39407,1,0,0:0:0:0:
448,0,39407,1,0,0:0:0:0:
64,0,39470,1,0,0:0:0:0:
192,0,39533,1,0,0:0:0:0:
448,0,39533,1,0,0:0:0:0:
64,0,39597,1,0,0:0:0:0:
320,0,39660,1,0,0:0:0:0:
448,0,39723,1,0,0:0:0:0:
64,0,39787,1,0,0:0:0:0:
192,0,39787,1,0,0:0:0:0:
320,0,39850,1,0,0:0:0:0:
64,0,39914,1,0,0:0:0:0:
448,0,39914,1,0,0:0:0:0:
320,0,39977,1,0,0:0:0:0:
192,0,40040,1,0,0:0:0:0:
64,0,40104,1,0,0:0:0:0:
320,0,40168,1,0,0:0:0:0:
448,0,40168,1,0,0:0:0:0:
192,0,40230,1,0,0:0:0:0:
320,0,40294,1,0,0:0:0:0:
448,0,40294,1,0,0:0:0:0:
192,0,40358,1,0,0:0:0:0:
64,0,40421,1,0,0:0:0:0:
448,0,40484,1,0,0:0:0:0:
64,0,40548,1,0,0:0:0:0:
192,0,40548,1,0,0:0:0:0:
320,0,40611,1,0,0:0:0:0:
64,0,40675,1,0,0:0:0:0:
192,0,40675,1,0,0:0:0:0:
448,0,40675,1,0,0:0:0:0:
320,0,40738,1,0,0:0:0:0:
192,0,40801,1,0,0:0:0:0:
64,0,40865,1,0,0:0:0:0:
320,0,40929,1,0,0:0:0:0:
448,0,40929,1,0,0:0:0:0:
192,0,40992,1,0,0:0:0:0:
64,0,41055,1,0,0:0:0:0:
448,0,41055,1,0,0:0:0:0:
320,0,41119,1,0,0:0:0:0:
64,0,41182,1,0,0:0:0:0:
192,0,41182,1,0,0:0:0:0:
448,0,41246,1,0,0:0:0:0:
192,0,41309,1,0,0:0:0:0:
320,0,41309,1,0,0:0:0:0:
64,0,41372,1,0,0:0:0:0:
320,0,41436,1,0,0:0:0:0:
448,0,41436,1,0,0:0:0:0:
64,0,41500,1,0,0:0:0:0:
320,0,41562,1,0,0:0:0:0:
448,0,41562,1,0,0:0:0:0:
192,0,41626,1,0,0:0:0:0:
64,0,41690,1,0,0:0:0:0:
320,0,41753,1,0,0:0:0:0:
64,0,41816,1,0,0:0:0:0:
448,0,41816,1,0,0:0:0:0:
320,0,41880,1,0,0:0:0:0:
64,0,41943,1,0,0:0:0:0:
448,0,41943,1,0,0:0:0:0:
192,0,42007,1,0,0:0:0:0:
320,0,42070,1,0,0:0:0:0:
448,0,42133,1,0,0:0:0:0:
64,0,42197,1,0,0:0:0:0:
192,0,42197,1,0,0:0:0:0:
320,0,42260,1,0,0:0:0:0:
64,0,42323,1,0,0:0:0:0:
192,0,42323,1,0,0:0:0:0:
320,0,42387,1,0,0:0:0:0:
64,0,42450,1,0,0:0:0:0:
448,0,42450,1,0,0:0:0:0:
192,0,42514,1,0,0:0:0:0:
64,0,42577,1,0,0:0:0:0:
448,0,42577,1,0,0:0:0:0:
192,0,42640,1,0,0:0:0:0:
320,0,42704,1,0,0:0:0:0:
448,0,42768,1,0,0:0:0:0:
64,0,42830,1,0,0:0:0:0:
192,0,42830,1,0,0:0:0:0:
320,0,42894,1,0,0:0:0:0:
64,0,42958,1,0,0:0:0:0:
192,0,42958,1,0,0:0:0:0:
320,0,43021,1,0,0:0:0:0:
448,0,43084,1,0,0:0:0:0:
64,0,43148,1,0,0:0:0:0:
192,0,43211,1,0,0:0:0:0:
448,0,43211,1,0,0:0:0:0:
320,0,43275,1,0,0:0:0:0:
192,0,43338,1,0,0:0:0:0:
448,0,43338,1,0,0:0:0:0:
320,0,43401,1,0,0:0:0:0:
64,0,43465,1,0,0:0:0:0:
192,0,43465,1,0,0:0:0:0:
448,0,43529,1,0,0:0:0:0:
64,0,43591,1,0,0:0:0:0:
192,0,43591,1,0,0:0:0:0:
448,0,43655,1,0,0:0:0:0:
320,0,43719,1,0,0:0:0:0:
192,0,43782,1,0,0:0:0:0:
64,0,43845,1,0,0:0:0:0:
448,0,43845,1,0,0:0:0:0:
320,0,43909,1,0,0:0:0:0:
64,0,43972,1,0,0:0:0:0:
448,0,43972,1,0,0:0:0:0:
320,0,44036,1,0,0:0:0:0:
192,0,44099,1,0,0:0:0:0:
64,0,44162,1,0,0:0:0:0:
320,0,44226,1,0,0:0:0:0:
448,0,44226,1,0,0:0:0:0:
192,0,44290,1,0,0:0:0:0:
64,0,44352,1,0,0:0:0:0:
448,0,44416,1,0,0:0:0:0:
192,0,44480,1,0,0:0:0:0:
320,0,44480,1,0,0:0:0:0:
64,0,44543,1,0,0:0:0:0:
192,0,44606,1,0,0:0:0:0:
320,0,44606,1,0,0:0:0:0:
64,0,44670,1,0,0:0:0:0:
448,0,44733,1,0,0:0:0:0:
320,0,44797,1,0,0:0:0:0:
192,0,44860,1,0,0:0:0:0:
448,0,44923,1,0,0:0:0:0:
64,0,44987,1,0,0:0:0:0:
192,0,44987,1,0,0:0:0:0:
320,0,45050,1,0,0:0:0:0:
64,0,45113,1,0,0:0:0:0:
448,0,45113,1,0,0:0:0:0:
192,0,45177,1,0,0:0:0:0:
320,0,45240,1,0,0:0:0:0:
448,0,45240,1,0,0:0:0:0:
64,0,45304,1,0,0:0:0:0:
192,0,45367,1,0,0:0:0:0:
320,0,45367,1,0,0:0:0:0:
448,0,45430,1,0,0:0:0:0:
64,0,45494,1,0,0:0:0:0:
192,0,45494,1,0,0:0:0:0:
320,0,45558,1,0,0:0:0:0:
64,0,45621,1,0,0:0:0:0:
448,0,45621,1,0,0:0:0:0:
192,0,45684,1,0,0:0:0:0:
320,0,45748,1,0,0:0:0:0:
448,0,45811,1,0,0:0:0:0:
64,0,45875,1,0,0:0:0:0:
192,0,45875,1,0,0:0:0:0:
320,0,45938,1,0,0:0:0:0:
64,0,46001,1,0,0:0:0:0:
192,0,46001,1,0,0:0:0:0:
320,0,46065,1,0,0:0:0:0:
448,0,46129,1,0,0:0:0:0:
192,0,46191,1,0,0:0:0:0:
64,0,46255,1,0,0:0:0:0:
320,0,46255,1,0,0:0:0:0:
448,0,46319,1,0,0:0:0:0:
64,0,46382,1,0,0:0:0:0:
320,0,46382,1,0,0:0:0:0:
448,0,46445,1,0,0:0:0:0:
64,0,46509,1,0,0:0:0:0:
192,0,46509,1,0,0:0:0:0:
320,0,46572,1,0,0:0:0:0:
64,0,46636,1,0,0:0:0:0:
192,0,46636,1,0,0:0:0:0:
320,0,46699,1,0,0:0:0:0:
448,0,46762,1,0,0:0:0:0:
192,0,46826,1,0,0:0:0:0:
64,0,46889,1,0,0:0:0:0:
448,0,46889,1,0,0:0:0:0:
320,0,46952,1,0,0:0:0:0:
64,0,47016,1,0,0:0:0:0:
448,0,47016,1,0,0:0:0:0:
320,0,47079,1,0,0:0:0:0:
192,0,47143,1,0,0:0:0:0:
64,0,47206,1,0,0:0:0:0:
320,0,47269,1,0,0:0:0:0:
448,0,47269,1,0,0:0:0:0:
192,0,47333,1,0,0:0:0:0:
320,0,47397,1,0,0:0:0:0:
448,0,47397,1,0,0:0:0:0:
192,0,47459,1,0,0:0:0:0:
64,0,47523,1,0,0:0:0:0:
320,0,47523,1,0,0:0:0:0:
448,0,47587,1,0,0:0:0:0:
64,0,47650,1,0,0:0:0:0:
320,0,47650,1,0,0:0:0:0:
192,0,47777,1,0,0:0:0:0:
320,0,47904,1,0,0:0:0:0:
448,0,47904,1,0,0:0:0:0:
64,0,48030,1,0,0:0:0:0:
448,0,48030,1,0,0:0:0:0:
192,0,48158,1,0,0:0:0:0:
320,0,48284,1,0,0:0:0:0:
448,0,48284,1,0,0:0:0:0:
320,0,48411,1,0,0:0:0:0:
448,0,48411,1,0,0:0:0:0:
192,0,48538,1,0,0:0:0:0:
64,0,48665,1,0,0:0:0:0:
448,0,48665,1,0,0:0:0:0:
64,0,48791,1,0,0:0:0:0:
192,0,48791,1,0,0:0:0:0:
448,0,48791,1,0,0:0:0:0:
320,0,48855,1,0,0:0:0:0:
64,0,48919,1,0,0:0:0:0:
192,0,48919,1,0,0:0:0:0:
320,0,48981,1,0,0:0:0:0:
64,0,49045,1,0,0:0:0:0:
192,0,49045,1,0,0:0:0:0:
320,0,49109,1,0,0:0:0:0:
64,0,49172,1,0,0:0:0:0:
192,0,49172,1,0,0:0:0:0:
320,0,49235,1,0,0:0:0:0:
64,0,49299,1,0,0:0:0:0:
448,0,49299,1,0,0:0:0:0:
192,0,49362,1,0,0:0:0:0:
320,0,49426,1,0,0:0:0:0:
448,0,49489,1,0,0:0:0:0:
64,0,49552,1,0,0:0:0:0:
192,0,49552,1,0,0:0:0:0:
448,0,49616,1,0,0:0:0:0:
192,0,49679,1,0,0:0:0:0:
64,0,49742,1,0,0:0:0:0:
320,0,49806,1,0,0:0:0:0:
448,0,49806,1,0,0:0:0:0:
192,0,49869,1,0,0:0:0:0:
320,0,49933,1,0,0:0:0:0:
448,0,49933,1,0,0:0:0:0:
192,0,49996,1,0,0:0:0:0:
320,0,50059,1,0,0:0:0:0:
448,0,50059,1,0,0:0:0:0:
192,0,50123,1,0,0:0:0:0:
320,0,50187,1,0,0:0:0:0:
448,0,50187,1,0,0:0:0:0:
192,0,50250,1,0,0:0:0:0:
64,0,50313,1,0,0:0:0:0:
448,0,50313,1,0,0:0:0:0:
320,0,50377,1,0,0:0:0:0:
192,0,50440,1,0,0:0:0:0:
64,0,50504,1,0,0:0:0:0:
320,0,50567,1,0,0:0:0:0:
448,0,50567,1,0,0:0:0:0:
192,0,50630,1,0,0:0:0:0:
64,0,50694,1,0,0:0:0:0:
448,0,50758,1,0,0:0:0:0:
192,0,50820,1,0,0:0:0:0:
320,0,50820,1,0,0:0:0:0:
64,0,50884,1,0,0:0:0:0:
192,0,50948,1,0,0:0:0:0:
320,0,50948,1,0,0:0:0:0:
64,0,51011,1,0,0:0:0:0:
192,0,51074,1,0,0:0:0:0:
320,0,51074,1,0,0:0:0:0:
64,0,51138,1,0,0:0:0:0:
192,0,51201,1,0,0:0:0:0:
320,0,51201,1,0,0:0:0:0:
64,0,51265,1,0,0:0:0:0:
320,0,51328,1,0,0:0:0:0:
448,0,51328,1,0,0:0:0:0:
192,0,51391,1,0,0:0:0:0:
64,0,51455,1,0,0:0:0:0:
320,0,51519,1,0,0:0:0:0:
64,0,51581,1,0,0:0:0:0:
448,0,51581,1,0,0:0:0:0:
192,0,51645,1,0,0:0:0:0:
448,0,51709,1,0,0:0:0:0:
320,0,51772,1,0,0:0:0:0:
64,0,51835,1,0,0:0:0:0:
192,0,51835,1,0,0:0:0:0:
448,0,51899,1,0,0:0:0:0:
64,0,51962,1,0,0:0:0:0:
192,0,51962,1,0,0:0:0:0:
448,0,52026,1,0,0:0:0:0:
64,0,52089,1,0,0:0:0:0:
192,0,52089,1,0,0:0:0:0:
448,0,52152,1,0,0:0:0:0:
64,0,52216,1,0,0:0:0:0:
192,0,52216,1,0,0:0:0:0:
448,0,52279,1,0,0:0:0:0:
192,0,52342,1,0,0:0:0:0:
320,0,52342,1,0,0:0:0:0:
64,0,52406,1,0,0:0:0:0:
320,0,52469,1,0,0:0:0:0:
448,0,52533,1,0,0:0:0:0:
64,0,52596,1,0,0:0:0:0:
192,0,52596,1,0,0:0:0:0:
320,0,52659,1,0,0:0:0:0:
64,0,52723,1,0,0:0:0:0:
448,0,52723,1,0,0:0:0:0:
192,0,52787,1,0,0:0:0:0:
320,0,52849,1,0,0:0:0:0:
448,0,52849,1,0,0:0:0:0:
64,0,52913,1,0,0:0:0:0:
320,0,52977,1,0,0:0:0:0:
448,0,52977,1,0,0:0:0:0:
64,0,53040,1,0,0:0:0:0:
320,0,53103,1,0,0:0:0:0:
448,0,53103,1,0,0:0:0:0:
64,0,53167,1,0,0:0:0:0:
320,0,53230,1,0,0:0:0:0:
448,0,53230,1,0,0:0:0:0:
64,0,53294,1,0,0:0:0:0:
192,0,53357,1,0,0:0:0:0:
448,0,53357,1,0,0:0:0:0:
320,0,53420,1,0,0:0:0:0:
64,0,53484,1,0,0:0:0:0:
192,0,53548,1,0,0:0:0:0:
64,0,53610,1,0,0:0:0:0:
448,0,53610,1,0,0:0:0:0:
320,0,53674,1,0,0:0:0:0:
448,0,53738,1,0,0:0:0:0:
64,0,53801,1,0,0:0:0:0:
192,0,53864,1,0,0:0:0:0:
320,0,53864,1,0,0:0:0:0:
448,0,53928,1,0,0:0:0:0:
192,0,53991,1,0,0:0:0:0:
320,0,53991,1,0,0:0:0:0:
448,0,54055,1,0,0:0:0:0:
192,0,54118,1,0,0:0:0:0:
320,0,54118,1,0,0:0:0:0:
448,0,54181,1,0,0:0:0:0:
192,0,54245,1,0,0:0:0:0:
320,0,54245,1,0,0:0:0:0:
448,0,54309,1,0,0:0:0:0:
64,0,54371,1,0,0:0:0:0:
192,0,54371,1,0,0:0:0:0:
320,0,54435,1,0,0:0:0:0:
448,0,54499,1,0,0:0:0:0:
320,0,54562,1,0,0:0:0:0:
64,0,54626,1,0,0:0:0:0:
192,0,54626,1,0,0:0:0:0:
448,0,54689,1,0,0:0:0:0:
192,0,54752,1,0,0:0:0:0:
320,0,54752,1,0,0:0:0:0:
64,0,54816,1,0,0:0:0:0:
320,0,54879,1,0,0:0:0:0:
448,0,54879,1,0,0:0:0:0:
192,0,54942,1,0,0:0:0:0:
64,0,55006,1,0,0:0:0:0:
192,0,55069,1,0,0:0:0:0:
320,0,55133,1,0,0:0:0:0:
448,0,55133,1,0,0:0:0:0:
64,0,55196,1,0,0:0:0:0:
192,0,55259,1,0,0:0:0:0:
64,0,55323,1,0,0:0:0:0:
320,0,55387,1,0,0:0:0:0:
448,0,55387,1,0,0:0:0:0:
192,0,55449,1,0,0:0:0:0:
64,0,55513,1,0,0:0:0:0:
320,0,55577,1,0,0:0:0:0:
64,0,55640,1,0,0:0:0:0:
192,0,55640,1,0,0:0:0:0:
320,0,55703,1,0,0:0:0:0:
192,0,55767,1,0,0:0:0:0:
320,0,55830,1,0,0:0:0:0:
64,0,55894,1,0,0:0:0:0:
448,0,55894,1,0,0:0:0:0:
192,0,55957,1,0,0:0:0:0:
320,0,56020,1,0,0:0:0:0:
448,0,56020,1,0,0:0:0:0:
192,0,56084,1,0,0:0:0:0:
320,0,56148,1,0,0:0:0:0:
448,0,56148,1,0,0:0:0:0:
192,0,56210,1,0,0:0:0:0:
320,0,56274,1,0,0:0:0:0:
448,0,56338,1,0,0:0:0:0:
64,0,56401,1,0,0:0:0:0:
192,0,56401,1,0,0:0:0:0:
448,0,56464,1,0,0:0:0:0:
192,0,56528,1,0,0:0:0:0:
320,0,56528,1,0,0:0:0:0:
64,0,56591,1,0,0:0:0:0:
192,0,56655,1,0,0:0:0:0:
320,0,56718,1,0,0:0:0:0:
64,0,56781,1,0,0:0:0:0:
448,0,56781,1,0,0:0:0:0:
192,0,56845,1,0,0:0:0:0:
64,0,56909,1,0,0:0:0:0:
320,0,56909,1,0,0:0:0:0:
448,0,56909,1,0,0:0:0:0:
192,0,56971,1,0,0:0:0:0:
320,0,57035,1,0,0:0:0:0:
448,0,57035,1,0,0:0:0:0:
192,0,57099,1,0,0:0:0:0:
320,0,57162,1,0,0:0:0:0:
448,0,57162,1,0,0:0:0:0:
192,0,57225,1,0,0:0:0:0:
320,0,57289,1,0,0:0:0:0:
448,0,57289,1,0,0:0:0:0:
192,0,57352,1,0,0:0:0:0:
64,0,57416,1,0,0:0:0:0:
448,0,57416,1,0,0:0:0:0:
320,0,57479,1,0,0:0:0:0:
192,0,57542,1,0,0:0:0:0:
64,0,57606,1,0,0:0:0:0:
320,0,57669,1,0,0:0:0:0:
448,0,57669,1,0,0:0:0:0:
64,0,57732,1,0,0:0:0:0:
320,0,57796,1,0,0:0:0:0:
448,0,57859,1,0,0:0:0:0:
64,0,57923,1,0,0:0:0:0:
192,0,57923,1,0,0:0:0:0:
320,0,57986,1,0,0:0:0:0:
64,0,58049,1,0,0:0:0:0:
192,0,58049,1,0,0:0:0:0:
320,0,58113,1,0,0:0:0:0:
64,0,58177,1,0,0:0:0:0:
192,0,58177,1,0,0:0:0:0:
320,0,58239,1,0,0:0:0:0:
64,0,58303,1,0,0:0:0:0:
192,0,58303,1,0,0:0:0:0:
320,0,58367,1,0,0:0:0:0:
64,0,58430,1,0,0:0:0:0:
448,0,58430,1,0,0:0:0:0:
192,0,58493,1,0,0:0:0:0:
320,0,58557,1,0,0:0:0:0:
448,0,58620,1,0,0:0:0:0:
64,0,58684,1,0,0:0:0:0:
192,0,58684,1,0,0:0:0:0:
320,0,58747,1,0,0:0:0:0:
448,0,58810,1,0,0:0:0:0:
64,0,58874,1,0,0:0:0:0:
192,0,58938,1,0,0:0:0:0:
320,0,58938,1,0,0:0:0:0:
448,0,59000,1,0,0:0:0:0:
192,0,59064,1,0,0:0:0:0:
320,0,59064,1,0,0:0:0:0:
448,0,59128,1,0,0:0:0:0:
192,0,59191,1,0,0:0:0:0:
320,0,59191,1,0,0:0:0:0:
448,0,59255,1,0,0:0:0:0:
192,0,59318,1,0,0:0:0:0:
320,0,59318,1,0,0:0:0:0:
448,0,59381,1,0,0:0:0:0:
64,0,59445,1,0,0:0:0:0:
192,0,59445,1,0,0:0:0:0:
320,0,59509,1,0,0:0:0:0:
448,0,59571,1,0,0:0:0:0:
192,0,59635,1,0,0:0:0:0:
64,0,59699,1,0,0:0:0:0:
448,0,59699,1,0,0:0:0:0:
320,0,59762,1,0,0:0:0:0:
64,0,59825,1,0,0:0:0:0:
192,0,59889,1,0,0:0:0:0:
320,0,59952,1,0,0:0:0:0:
448,0,59952,1,0,0:0:0:0:
64,0,60016,1,0,0:0:0:0:
320,0,60079,1,0,0:0:0:0:
448,0,60079,1,0,0:0:0:0:
64,0,60142,1,0,0:0:0:0:
320,0,60206,1,0,0:0:0:0:
448,0,60206,1,0,0:0:0:0:
64,0,60269,1,0,0:0:0:0:
320,0,60332,1,0,0:0:0:0:
448,0,60332,1,0,0:0:0:0:
64,0,60396,1,0,0:0:0:0:
192,0,60459,1,0,0:0:0:0:
320,0,60459,1,0,0:0:0:0:
448,0,60523,1,0,0:0:0:0:
192,0,60586,1,0,0:0:0:0:
64,0,60649,1,0,0:0:0:0:
320,0,60713,1,0,0:0:0:0:
448,0,60713,1,0,0:0:0:0:
192,0,60777,1,0,0:0:0:0:
64,0,60839,1,0,0:0:0:0:
448,0,60839,1,0,0:0:0:0:
320,0,60903,1,0,0:0:0:0:
64,0,60967,1,0,0:0:0:0:
192,0,60967,1,0,0:0:0:0:
448,0,61030,1,0,0:0:0:0:
64,0,61093,1,0,0:0:0:0:
192,0,61093,1,0,0:0:0:0:
448,0,61157,1,0,0:0:0:0:
64,0,61220,1,0,0:0:0:0:
192,0,61220,1,0,0:0:0:0:
448,0,61284,1,0,0:0:0:0:
64,0,61347,1,0,0:0:0:0:
192,0,61347,1,0,0:0:0:0:
448,0,61410,1,0,0:0:0:0:
64,0,61474,1,0,0:0:0:0:
320,0,61474,1,0,0:0:0:0:
192,0,61538,1,0,0:0:0:0:
448,0,61600,1,0,0:0:0:0:
320,0,61664,1,0,0:0:0:0:
64,0,61728,1,0,0:0:0:0:
448,0,61728,1,0,0:0:0:0:
192,0,61791,1,0,0:0:0:0:
64,0,61854,1,0,0:0:0:0:
448,0,61918,1,0,0:0:0:0:
192,0,61981,1,0,0:0:0:0:
320,0,61981,1,0,0:0:0:0:
64,0,62045,1,0,0:0:0:0:
192,0,62108,1,0,0:0:0:0:
320,0,62108,1,0,0:0:0:0:
64,0,62171,1,0,0:0:0:0:
192,0,62235,1,0,0:0:0:0:
320,0,62235,1,0,0:0:0:0:
64,0,62299,1,0,0:0:0:0:
192,0,62361,1,0,0:0:0:0:
320,0,62361,1,0,0:0:0:0:
64,0,62425,1,0,0:0:0:0:
320,0,62489,1,0,0:0:0:0:
448,0,62489,1,0,0:0:0:0:
192,0,62552,1,0,0:0:0:0:
64,0,62615,1,0,0:0:0:0:
192,0,62679,1,0,0:0:0:0:
320,0,62742,1,0,0:0:0:0:
448,0,62742,1,0,0:0:0:0:
64,0,62806,1,0,0:0:0:0:
192,0,62869,1,0,0:0:0:0:
320,0,62869,1,0,0:0:0:0:
448,0,62932,1,0,0:0:0:0:
64,0,62996,1,0,0:0:0:0:
192,0,62996,1,0,0:0:0:0:
320,0,63059,1,0,0:0:0:0:
448,0,63122,1,0,0:0:0:0:
320,0,63186,1,0,0:0:0:0:
64,0,63249,1,0,0:0:0:0:
192,0,63249,1,0,0:0:0:0:
448,0,63313,1,0,0:0:0:0:
320,0,63376,1,0,0:0:0:0:
448,0,63439,1,0,0:0:0:0:
64,0,63503,1,0,0:0:0:0:
192,0,63503,1,0,0:0:0:0:
320,0,63567,1,0,0:0:0:0:
448,0,63629,1,0,0:0:0:0:
192,0,63693,1,0,0:0:0:0:
320,0,63757,1,0,0:0:0:0:
448,0,63757,1,0,0:0:0:0:
192,0,63820,1,0,0:0:0:0:
320,0,63884,1,0,0:0:0:0:
192,0,63947,1,0,0:0:0:0:
64,0,64010,1,0,0:0:0:0:
448,0,64010,1,0,0:0:0:0:
64,0,64138,1,0,0:0:0:0:
448,0,64138,128,0,64645:0:0:0:0:
64,0,64645,1,0,0:0:0:0:
192,0,64708,1,0,0:0:0:0:
320,0,64708,1,0,0:0:0:0:
448,0,64771,1,0,0:0:0:0:
320,0,64835,1,0,0:0:0:0:
320,0,64961,1,0,0:0:0:0:
64,0,65025,1,0,0:0:0:0:
192,0,65025,1,0,0:0:0:0:
448,0,65025,1,0,0:0:0:0:
320,0,65152,1,0,0:0:0:0:
64,0,65279,1,0,0:0:0:0:
448,0,65279,1,0,0:0:0:0:
320,0,65406,1,0,0:0:0:0:
192,0,65532,1,0,0:0:0:0:
320,0,65660,1,0,0:0:0:0:
64,0,65786,1,0,0:0:0:0:
448,0,65786,1,0,0:0:0:0:
320,0,65913,1,0,0:0:0:0:
192,0,66040,1,0,0:0:0:0:
320,0,66167,1,0,0:0:0:0:
64,0,66293,1,0,0:0:0:0:
448,0,66293,1,0,0:0:0:0:
320,0,66420,1,0,0:0:0:0:
192,0,66547,1,0,0:0:0:0:
320,0,66674,1,0,0:0:0:0:
64,0,66800,1,0,0:0:0:0:
448,0,66800,1,0,0:0:0:0:
320,0,66928,1,0,0:0:0:0:
192,0,67054,1,0,0:0:0:0:
448,0,67181,1,0,0:0:0:0:
64,0,67308,1,0,0:0:0:0:
320,0,67308,1,0,0:0:0:0:
448,0,67435,1,0,0:0:0:0:
192,0,67561,1,0,0:0:0:0:
448,0,67689,1,0,0:0:0:0:
64,0,67815,1,0,0:0:0:0:
320,0,67815,1,0,0:0:0:0:
448,0,67942,1,0,0:0:0:0:
192,0,68069,1,0,0:0:0:0:
448,0,68196,1,0,0:0:0:0:
64,0,68322,1,0,0:0:0:0:
320,0,68322,1,0,0:0:0:0:
448,0,68450,1,0,0:0:0:0:
192,0,68576,128,0,68640:0:0:0:0:
320,0,68576,128,0,68640:0:0:0:0:
192,0,68703,128,0,68767:0:0:0:0:
448,0,68703,128,0,68767:0:0:0:0:
64,0,68830,128,0,68893:0:0:0:0:
320,0,68830,128,0,68893:0:0:0:0:
320,0,68957,128,0,69020:0:0:0:0:
448,0,68957,128,0,69020:0:0:0:0:
64,0,69083,128,0,69147:0:0:0:0:
192,0,69083,128,0,69147:0:0:0:0:
448,0,69083,128,0,69147:0:0:0:0:
64,0,69210,128,0,69274:0:0:0:0:
192,0,69210,128,0,69274:0:0:0:0:
320,0,69337,128,0,69400:0:0:0:0:
448,0,69337,128,0,69400:0:0:0:0:
192,0,69464,1,0,0:0:0:0:
64,0,69590,1,0,0:0:0:0:
192,0,69718,1,0,0:0:0:0:
320,0,69844,1,0,0:0:0:0:
448,0,69844,1,0,0:0:0:0:
192,0,69971,1,0,0:0:0:0:
64,0,70098,1,0,0:0:0:0:
320,0,70098,1,0,0:0:0:0:
448,0,70098,1,0,0:0:0:0:
192,0,70225,1,0,0:0:0:0:
320,0,70351,1,0,0:0:0:0:
448,0,70351,1,0,0:0:0:0:
192,0,70479,1,0,0:0:0:0:
64,0,70605,1,0,0:0:0:0:
192,0,70732,1,0,0:0:0:0:
320,0,70859,1,0,0:0:0:0:
448,0,70859,1,0,0:0:0:0:
192,0,70986,1,0,0:0:0:0:
64,0,71112,1,0,0:0:0:0:
320,0,71112,1,0,0:0:0:0:
448,0,71112,1,0,0:0:0:0:
320,0,71240,1,0,0:0:0:0:
64,0,71366,1,0,0:0:0:0:
192,0,71366,1,0,0:0:0:0:
320,0,71493,1,0,0:0:0:0:
64,0,71620,1,0,0:0:0:0:
192,0,71620,1,0,0:0:0:0:
448,0,71620,1,0,0:0:0:0:
320,0,71747,1,0,0:0:0:0:
64,0,71873,1,0,0:0:0:0:
192,0,71873,1,0,0:0:0:0:
320,0,72000,1,0,0:0:0:0:
64,0,72127,1,0,0:0:0:0:
192,0,72127,1,0,0:0:0:0:
448,0,72127,1,0,0:0:0:0:
320,0,72254,1,0,0:0:0:0:
64,0,72380,1,0,0:0:0:0:
192,0,72380,1,0,0:0:0:0:
448,0,72380,1,0,0:0:0:0:
320,0,72508,1,0,0:0:0:0:
64,0,72634,128,0,72698:0:0:0:0:
192,0,72634,128,0,72698:0:0:0:0:
320,0,72634,128,0,72698:0:0:0:0:
64,0,72761,128,0,72825:0:0:0:0:
192,0,72761,128,0,72825:0:0:0:0:
448,0,72761,128,0,72825:0:0:0:0:
64,0,72889,128,0,72951:0:0:0:0:
320,0,72889,128,0,72951:0:0:0:0:
448,0,72889,128,0,72951:0:0:0:0:
192,0,73015,128,0,73079:0:0:0:0:
320,0,73015,128,0,73079:0:0:0:0:
448,0,73015,128,0,73079:0:0:0:0:
64,0,73142,128,0,73205:0:0:0:0:
192,0,73142,128,0,73205:0:0:0:0:
320,0,73205,1,0,0:0:0:0:
64,0,73269,128,0,73332:0:0:0:0:
448,0,73269,128,0,73332:0:0:0:0:
192,0,73332,1,0,0:0:0:0:
64,0,73396,128,0,73459:0:0:0:0:
320,0,73396,128,0,73459:0:0:0:0:
448,0,73396,128,0,73459:0:0:0:0:
192,0,73459,1,0,0:0:0:0:
320,0,73522,1,0,0:0:0:0:
64,0,73586,1,0,0:0:0:0:
192,0,73650,1,0,0:0:0:0:
448,0,73650,1,0,0:0:0:0:
320,0,73712,1,0,0:0:0:0:
64,0,73776,1,0,0:0:0:0:
192,0,73840,1,0,0:0:0:0:
64,0,73903,1,0,0:0:0:0:
320,0,73903,1,0,0:0:0:0:
448,0,73903,1,0,0:0:0:0:
192,0,73966,1,0,0:0:0:0:
448,0,74030,1,0,0:0:0:0:
320,0,74093,1,0,0:0:0:0:
64,0,74157,1,0,0:0:0:0:
192,0,74157,1,0,0:0:0:0:
320,0,74220,1,0,0:0:0:0:
448,0,74283,1,0,0:0:0:0:
192,0,74347,1,0,0:0:0:0:
64,0,74410,1,0,0:0:0:0:
320,0,74410,1,0,0:0:0:0:
448,0,74410,1,0,0:0:0:0:
192,0,74473,1,0,0:0:0:0:
64,0,74537,1,0,0:0:0:0:
448,0,74600,1,0,0:0:0:0:
192,0,74664,1,0,0:0:0:0:
320,0,74664,1,0,0:0:0:0:
448,0,74727,1,0,0:0:0:0:
64,0,74790,1,0,0:0:0:0:
192,0,74854,1,0,0:0:0:0:
64,0,74918,1,0,0:0:0:0:
320,0,74918,1,0,0:0:0:0:
448,0,74918,1,0,0:0:0:0:
192,0,74980,1,0,0:0:0:0:
320,0,75044,1,0,0:0:0:0:
448,0,75108,1,0,0:0:0:0:
64,0,75171,1,0,0:0:0:0:
192,0,75171,1,0,0:0:0:0:
448,0,75234,1,0,0:0:0:0:
64,0,75298,1,0,0:0:0:0:
320,0,75361,1,0,0:0:0:0:
64,0,75425,1,0,0:0:0:0:
192,0,75425,1,0,0:0:0:0:
448,0,75425,1,0,0:0:0:0:
320,0,75488,1,0,0:0:0:0:
192,0,75551,1,0,0:0:0:0:
64,0,75615,1,0,0:0:0:0:
320,0,75679,1,0,0:0:0:0:
448,0,75679,1,0,0:0:0:0:
64,0,75741,1,0,0:0:0:0:
192,0,75805,1,0,0:0:0:0:
448,0,75869,1,0,0:0:0:0:
64,0,75932,1,0,0:0:0:0:
192,0,75932,1,0,0:0:0:0:
320,0,75932,1,0,0:0:0:0:
448,0,75995,1,0,0:0:0:0:
64,0,76059,1,0,0:0:0:0:
320,0,76122,1,0,0:0:0:0:
192,0,76186,1,0,0:0:0:0:
448,0,76186,1,0,0:0:0:0:
320,0,76249,1,0,0:0:0:0:
64,0,76312,1,0,0:0:0:0:
192,0,76376,1,0,0:0:0:0:
64,0,76440,1,0,0:0:0:0:
320,0,76440,1,0,0:0:0:0:
448,0,76440,1,0,0:0:0:0:
192,0,76502,1,0,0:0:0:0:
320,0,76566,1,0,0:0:0:0:
448,0,76630,1,0,0:0:0:0:
64,0,76693,1,0,0:0:0:0:
192,0,76693,1,0,0:0:0:0:
448,0,76756,1,0,0:0:0:0:
320,0,76820,1,0,0:0:0:0:
64,0,76883,1,0,0:0:0:0:
192,0,76947,1,0,0:0:0:0:
320,0,76947,1,0,0:0:0:0:
448,0,76947,1,0,0:0:0:0:
64,0,77010,1,0,0:0:0:0:
192,0,77073,1,0,0:0:0:0:
448,0,77137,1,0,0:0:0:0:
64,0,77200,1,0,0:0:0:0:
320,0,77200,1,0,0:0:0:0:
448,0,77263,1,0,0:0:0:0:
192,0,77327,1,0,0:0:0:0:
320,0,77390,1,0,0:0:0:0:
64,0,77454,1,0,0:0:0:0:
192,0,77454,1,0,0:0:0:0:
448,0,77454,1,0,0:0:0:0:
320,0,77518,1,0,0:0:0:0:
64,0,77580,1,0,0:0:0:0:
192,0,77644,1,0,0:0:0:0:
320,0,77708,1,0,0:0:0:0:
448,0,77708,1,0,0:0:0:0:
192,0,77771,1,0,0:0:0:0:
64,0,77834,1,0,0:0:0:0:
448,0,77898,1,0,0:0:0:0:
64,0,77961,1,0,0:0:0:0:
192,0,77961,1,0,0:0:0:0:
320,0,77961,1,0,0:0:0:0:
448,0,78025,1,0,0:0:0:0:
192,0,78088,1,0,0:0:0:0:
64,0,78151,1,0,0:0:0:0:
320,0,78215,1,0,0:0:0:0:
448,0,78215,1,0,0:0:0:0:
192,0,78279,1,0,0:0:0:0:
64,0,78341,1,0,0:0:0:0:
320,0,78405,1,0,0:0:0:0:
64,0,78469,1,0,0:0:0:0:
192,0,78469,1,0,0:0:0:0:
448,0,78469,1,0,0:0:0:0:
320,0,78532,1,0,0:0:0:0:
192,0,78595,1,0,0:0:0:0:
448,0,78659,1,0,0:0:0:0:
64,0,78722,1,0,0:0:0:0:
320,0,78722,1,0,0:0:0:0:
192,0,78786,1,0,0:0:0:0:
448,0,78849,1,0,0:0:0:0:
320,0,78912,1,0,0:0:0:0:
64,0,78976,1,0,0:0:0:0:
192,0,78976,1,0,0:0:0:0:
448,0,78976,1,0,0:0:0:0:
320,0,79040,1,0,0:0:0:0:
64,0,79102,1,0,0:0:0:0:
192,0,79166,1,0,0:0:0:0:
320,0,79230,1,0,0:0:0:0:
448,0,79230,1,0,0:0:0:0:
192,0,79293,1,0,0:0:0:0:
320,0,79356,1,0,0:0:0:0:
192,0,79420,1,0,0:0:0:0:
64,0,79483,1,0,0:0:0:0:
320,0,79483,1,0,0:0:0:0:
448,0,79483,1,0,0:0:0:0:
192,0,79547,1,0,0:0:0:0:
320,0,79610,1,0,0:0:0:0:
192,0,79673,1,0,0:0:0:0:
320,0,79737,1,0,0:0:0:0:
448,0,79737,1,0,0:0:0:0:
192,0,79800,1,0,0:0:0:0:
320,0,79863,1,0,0:0:0:0:
192,0,79927,1,0,0:0:0:0:
64,0,79990,1,0,0:0:0:0:
320,0,79990,1,0,0:0:0:0:
448,0,79990,1,0,0:0:0:0:
192,0,80054,1,0,0:0:0:0:
320,0,80117,1,0,0:0:0:0:
448,0,80117,1,0,0:0:0:0:
192,0,80180,1,0,0:0:0:0:
64,0,80244,1,0,0:0:0:0:
448,0,80244,1,0,0:0:0:0:
320,0,80308,1,0,0:0:0:0:
192,0,80370,1,0,0:0:0:0:
64,0,80434,1,0,0:0:0:0:
192,0,80498,1,0,0:0:0:0:
320,0,80561,1,0,0:0:0:0:
64,0,80624,1,0,0:0:0:0:
448,0,80624,1,0,0:0:0:0:
320,0,80688,1,0,0:0:0:0:
192,0,80751,1,0,0:0:0:0:
64,0,80815,1,0,0:0:0:0:
192,0,80878,1,0,0:0:0:0:
320,0,80941,1,0,0:0:0:0:
448,0,81005,1,0,0:0:0:0:
320,0,81069,1,0,0:0:0:0:
64,0,81131,1,0,0:0:0:0:
192,0,81131,1,0,0:0:0:0:
448,0,81195,1,0,0:0:0:0:
64,0,81259,1,0,0:0:0:0:
192,0,81259,1,0,0:0:0:0:
320,0,81259,1,0,0:0:0:0:
448,0,81322,1,0,0:0:0:0:
64,0,81385,1,0,0:0:0:0:
320,0,81385,1,0,0:0:0:0:
192,0,81449,1,0,0:0:0:0:
64,0,81512,1,0,0:0:0:0:
448,0,81512,1,0,0:0:0:0:
320,0,81576,1,0,0:0:0:0:
64,0,81639,1,0,0:0:0:0:
192,0,81639,1,0,0:0:0:0:
448,0,81702,1,0,0:0:0:0:
320,0,81766,1,0,0:0:0:0:
64,0,81830,1,0,0:0:0:0:
448,0,81893,1,0,0:0:0:0:
192,0,81956,1,0,0:0:0:0:
64,0,82020,1,0,0:0:0:0:
448,0,82020,1,0,0:0:0:0:
320,0,82083,1,0,0:0:0:0:
192,0,82147,1,0,0:0:0:0:
448,0,82210,1,0,0:0:0:0:
64,0,82273,1,0,0:0:0:0:
448,0,82337,1,0,0:0:0:0:
192,0,82400,1,0,0:0:0:0:
320,0,82463,1,0,0:0:0:0:
64,0,82527,1,0,0:0:0:0:
448,0,82527,1,0,0:0:0:0:
192,0,82590,1,0,0:0:0:0:
320,0,82654,1,0,0:0:0:0:
448,0,82654,1,0,0:0:0:0:
64,0,82717,1,0,0:0:0:0:
192,0,82780,1,0,0:0:0:0:
320,0,82780,1,0,0:0:0:0:
448,0,82844,1,0,0:0:0:0:
64,0,82908,1,0,0:0:0:0:
320,0,82970,1,0,0:0:0:0:
64,0,83034,1,0,0:0:0:0:
448,0,83034,1,0,0:0:0:0:
192,0,83098,1,0,0:0:0:0:
320,0,83161,1,0,0:0:0:0:
448,0,83161,1,0,0:0:0:0:
64,0,83224,1,0,0:0:0:0:
320,0,83288,1,0,0:0:0:0:
64,0,83351,1,0,0:0:0:0:
192,0,83351,1,0,0:0:0:0:
320,0,83415,1,0,0:0:0:0:
192,0,83478,1,0,0:0:0:0:
64,0,83541,1,0,0:0:0:0:
448,0,83541,1,0,0:0:0:0:
320,0,83605,1,0,0:0:0:0:
64,0,83669,1,0,0:0:0:0:
192,0,83669,1,0,0:0:0:0:
320,0,83731,1,0,0:0:0:0:
192,0,83795,1,0,0:0:0:0:
448,0,83859,1,0,0:0:0:0:
192,0,83922,1,0,0:0:0:0:
448,0,83985,1,0,0:0:0:0:
64,0,84049,1,0,0:0:0:0:
320,0,84049,1,0,0:0:0:0:
192,0,84112,1,0,0:0:0:0:
320,0,84176,1,0,0:0:0:0:
192,0,84239,1,0,0:0:0:0:
448,0,84302,1,0,0:0:0:0:
64,0,84366,1,0,0:0:0:0:
320,0,84430,1,0,0:0:0:0:
64,0,84492,1,0,0:0:0:0:
192,0,84556,1,0,0:0:0:0:
448,0,84556,1,0,0:0:0:0:
320,0,84620,1,0,0:0:0:0:
64,0,84683,1,0,0:0:0:0:
448,0,84683,1,0,0:0:0:0:
320,0,84746,1,0,0:0:0:0:
64,0,84810,1,0,0:0:0:0:
192,0,84810,1,0,0:0:0:0:
448,0,84873,1,0,0:0:0:0:
320,0,84937,1,0,0:0:0:0:
448,0,85000,1,0,0:0:0:0:
64,0,85063,1,0,0:0:0:0:
192,0,85063,1,0,0:0:0:0:
320,0,85127,1,0,0:0:0:0:
192,0,85190,1,0,0:0:0:0:
320,0,85253,1,0,0:0:0:0:
448,0,85253,1,0,0:0:0:0:
64,0,85317,1,0,0:0:0:0:
192,0,85317,1,0,0:0:0:0:
448,0,85380,1,0,0:0:0:0:
320,0,85444,1,0,0:0:0:0:
192,0,85507,1,0,0:0:0:0:
448,0,85507,1,0,0:0:0:0:
64,0,85570,1,0,0:0:0:0:
320,0,85570,1,0,0:0:0:0:
192,0,85634,1,0,0:0:0:0:
320,0,85698,1,0,0:0:0:0:
448,0,85760,1,0,0:0:0:0:
64,0,85824,1,0,0:0:0:0:
192,0,85888,1,0,0:0:0:0:
320,0,85951,1,0,0:0:0:0:
448,0,85951,1,0,0:0:0:0:
64,0,86014,1,0,0:0:0:0:
192,0,86078,1,0,0:0:0:0:
320,0,86078,1,0,0:0:0:0:
448,0,86141,1,0,0:0:0:0:
64,0,86205,1,0,0:0:0:0:
192,0,86268,1,0,0:0:0:0:
448,0,86331,1,0,0:0:0:0:
320,0,86395,1,0,0:0:0:0:
192,0,86459,1,0,0:0:0:0:
64,0,86522,1,0,0:0:0:0:
320,0,86585,1,0,0:0:0:0:
448,0,86585,1,0,0:0:0:0:
192,0,86649,1,0,0:0:0:0:
64,0,86712,1,0,0:0:0:0:
448,0,86776,1,0,0:0:0:0:
192,0,86839,1,0,0:0:0:0:
320,0,86839,1,0,0:0:0:0:
64,0,86902,1,0,0:0:0:0:
320,0,86966,1,0,0:0:0:0:
448,0,86966,1,0,0:0:0:0:
192,0,87030,1,0,0:0:0:0:
64,0,87092,1,0,0:0:0:0:
448,0,87092,1,0,0:0:0:0:
320,0,87156,1,0,0:0:0:0:
192,0,87220,1,0,0:0:0:0:
64,0,87283,1,0,0:0:0:0:
320,0,87346,1,0,0:0:0:0:
448,0,87346,1,0,0:0:0:0:
192,0,87410,1,0,0:0:0:0:
320,0,87473,1,0,0:0:0:0:
192,0,87537,1,0,0:0:0:0:
64,0,87600,1,0,0:0:0:0:
448,0,87600,1,0,0:0:0:0:
192,0,87663,1,0,0:0:0:0:
320,0,87727,1,0,0:0:0:0:
192,0,87790,1,0,0:0:0:0:
320,0,87853,1,0,0:0:0:0:
192,0,87917,1,0,0:0:0:0:
320,0,87980,1,0,0:0:0:0:
192,0,88044,1,0,0:0:0:0:
64,0,88107,1,0,0:0:0:0:
448,0,88107,1,0,0:0:0:0:
320,0,88170,1,0,0:0:0:0:
192,0,88234,1,0,0:0:0:0:
448,0,88298,1,0,0:0:0:0:
320,0,88360,1,0,0:0:0:0:
64,0,88424,1,0,0:0:0:0:
192,0,88488,1,0,0:0:0:0:
320,0,88551,1,0,0:0:0:0:
64,0,88614,1,0,0:0:0:0:
192,0,88614,1,0,0:0:0:0:
448,0,88678,1,0,0:0:0:0:
192,0,88741,1,0,0:0:0:0:
320,0,88741,1,0,0:0:0:0:
64,0,88805,1,0,0:0:0:0:
320,0,88868,1,0,0:0:0:0:
448,0,88868,1,0,0:0:0:0:
192,0,88931,1,0,0:0:0:0:
64,0,88995,1,0,0:0:0:0:
320,0,89059,1,0,0:0:0:0:
448,0,89059,1,0,0:0:0:0:
64,0,89121,1,0,0:0:0:0:
192,0,89121,1,0,0:0:0:0:
448,0,89185,1,0,0:0:0:0:
64,0,89249,1,0,0:0:0:0:
192,0,89249,1,0,0:0:0:0:
320,0,89312,1,0,0:0:0:0:
64,0,89375,1,0,0:0:0:0:
192,0,89375,1,0,0:0:0:0:
448,0,89375,1,0,0:0:0:0:
320,0,89439,1,0,0:0:0:0:
192,0,89502,1,0,0:0:0:0:
448,0,89566,1,0,0:0:0:0:
64,0,89629,1,0,0:0:0:0:
320,0,89629,1,0,0:0:0:0:
192,0,89692,1,0,0:0:0:0:
64,0,89756,1,0,0:0:0:0:
320,0,89756,1,0,0:0:0:0:
448,0,89820,1,0,0:0:0:0:
192,0,89882,1,0,0:0:0:0:
448,0,89946,1,0,0:0:0:0:
192,0,90010,1,0,0:0:0:0:
320,0,90073,1,0,0:0:0:0:
64,0,90136,1,0,0:0:0:0:
448,0,90136,1,0,0:0:0:0:
192,0,90199,1,0,0:0:0:0:
64,0,90263,1,0,0:0:0:0:
192,0,90327,1,0,0:0:0:0:
320,0,90389,1,0,0:0:0:0:
192,0,90453,1,0,0:0:0:0:
448,0,90517,1,0,0:0:0:0:
64,0,90580,1,0,0:0:0:0:
320,0,90643,1,0,0:0:0:0:
448,0,90643,1,0,0:0:0:0:
192,0,90707,1,0,0:0:0:0:
320,0,90770,1,0,0:0:0:0:
448,0,90770,1,0,0:0:0:0:
192,0,90834,1,0,0:0:0:0:
64,0,90897,1,0,0:0:0:0:
448,0,90897,1,0,0:0:0:0:
192,0,90960,1,0,0:0:0:0:
320,0,91024,1,0,0:0:0:0:
448,0,91088,1,0,0:0:0:0:
192,0,91151,1,0,0:0:0:0:
320,0,91151,1,0,0:0:0:0:
64,0,91214,1,0,0:0:0:0:
320,0,91278,1,0,0:0:0:0:
448,0,91278,1,0,0:0:0:0:
64,0,91341,1,0,0:0:0:0:
192,0,91405,1,0,0:0:0:0:
448,0,91405,1,0,0:0:0:0:
320,0,91468,1,0,0:0:0:0:
192,0,91531,1,0,0:0:0:0:
448,0,91531,1,0,0:0:0:0:
320,0,91595,1,0,0:0:0:0:
64,0,91659,1,0,0:0:0:0:
448,0,91659,1,0,0:0:0:0:
192,0,91721,1,0,0:0:0:0:
64,0,91785,1,0,0:0:0:0:
320,0,91785,1,0,0:0:0:0:
192,0,91849,1,0,0:0:0:0:
320,0,91912,1,0,0:0:0:0:
192,0,91975,1,0,0:0:0:0:
448,0,92039,1,0,0:0:0:0:
320,0,92102,1,0,0:0:0:0:
64,0,92166,1,0,0:0:0:0:
448,0,92166,1,0,0:0:0:0:
192,0,92229,1,0,0:0:0:0:
64,0,92292,1,0,0:0:0:0:
192,0,92356,1,0,0:0:0:0:
320,0,92419,1,0,0:0:0:0:
192,0,92482,1,0,0:0:0:0:
320,0,92546,1,0,0:0:0:0:
448,0,92609,1,0,0:0:0:0:
64,0,92673,1,0,0:0:0:0:
192,0,92673,1,0,0:0:0:0:
320,0,92736,1,0,0:0:0:0:
64,0,92799,1,0,0:0:0:0:
192,0,92799,1,0,0:0:0:0:
320,0,92863,1,0,0:0:0:0:
64,0,92927,1,0,0:0:0:0:
448,0,92927,1,0,0:0:0:0:
192,0,92989,1,0,0:0:0:0:
320,0,93053,1,0,0:0:0:0:
64,0,93117,1,0,0:0:0:0:
192,0,93117,1,0,0:0:0:0:
320,0,93180,1,0,0:0:0:0:
448,0,93180,1,0,0:0:0:0:
64,0,93243,1,0,0:0:0:0:
320,0,93307,1,0,0:0:0:0:
448,0,93307,1,0,0:0:0:0:
64,0,93370,1,0,0:0:0:0:
192,0,93434,1,0,0:0:0:0:
448,0,93434,1,0,0:0:0:0:
320,0,93497,1,0,0:0:0:0:
192,0,93560,1,0,0:0:0:0:
448,0,93560,1,0,0:0:0:0:
320,0,93624,1,0,0:0:0:0:
64,0,93688,1,0,0:0:0:0:
192,0,93688,1,0,0:0:0:0:
448,0,93750,1,0,0:0:0:0:
64,0,93814,1,0,0:0:0:0:
192,0,93814,1,0,0:0:0:0:
448,0,93878,1,0,0:0:0:0:
320,0,93941,1,0,0:0:0:0:
448,0,94004,1,0,0:0:0:0:
64,0,94068,1,0,0:0:0:0:
192,0,94131,1,0,0:0:0:0:
64,0,94195,1,0,0:0:0:0:
448,0,94195,1,0,0:0:0:0:
320,0,94258,1,0,0:0:0:0:
448,0,94321,1,0,0:0:0:0:
320,0,94385,1,0,0:0:0:0:
192,0,94449,1,0,0:0:0:0:
320,0,94511,1,0,0:0:0:0:
64,0,94575,1,0,0:0:0:0:
192,0,94639,1,0,0:0:0:0:
64,0,94702,1,0,0:0:0:0:
448,0,94702,1,0,0:0:0:0:
320,0,94765,1,0,0:0:0:0:
192,0,94829,1,0,0:0:0:0:
64,0,94892,1,0,0:0:0:0:
320,0,94956,1,0,0:0:0:0:
448,0,94956,1,0,0:0:0:0:
192,0,95019,1,0,0:0:0:0:
64,0,95082,1,0,0:0:0:0:
320,0,95082,1,0,0:0:0:0:
192,0,95146,1,0,0:0:0:0:
320,0,95209,1,0,0:0:0:0:
448,0,95209,1,0,0:0:0:0:
192,0,95272,1,0,0:0:0:0:
320,0,95336,1,0,0:0:0:0:
192,0,95399,1,0,0:0:0:0:
64,0,95463,1,0,0:0:0:0:
448,0,95463,1,0,0:0:0:0:
320,0,95527,1,0,0:0:0:0:
448,0,95589,1,0,0:0:0:0:
320,0,95653,1,0,0:0:0:0:
192,0,95717,1,0,0:0:0:0:
448,0,95717,1,0,0:0:0:0:
320,0,95780,1,0,0:0:0:0:
64,0,95843,1,0,0:0:0:0:
448,0,95843,1,0,0:0:0:0:
192,0,95907,1,0,0:0:0:0:
64,0,95970,1,0,0:0:0:0:
320,0,95970,1,0,0:0:0:0:
192,0,96034,1,0,0:0:0:0:
64,0,96097,1,0,0:0:0:0:
192,0,96160,1,0,0:0:0:0:
64,0,96224,1,0,0:0:0:0:
448,0,96224,1,0,0:0:0:0:
192,0,96288,1,0,0:0:0:0:
64,0,96350,1,0,0:0:0:0:
320,0,96350,1,0,0:0:0:0:
448,0,96414,1,0,0:0:0:0:
64,0,96478,1,0,0:0:0:0:
192,0,96478,1,0,0:0:0:0:
320,0,96478,1,0,0:0:0:0:
320,0,97111,1,0,0:0:0:0:
192,0,97175,1,0,0:0:0:0:
448,0,97175,1,0,0:0:0:0:
320,0,97239,1,0,0:0:0:0:
192,0,97302,1,0,0:0:0:0:
192,0,97429,1,0,0:0:0:0:
64,0,97492,1,0,0:0:0:0:
320,0,97492,1,0,0:0:0:0:
448,0,97492,1,0,0:0:0:0:
320,0,97746,128,0,97809:0:0:0:0:
448,0,97872,128,0,97936:0:0:0:0:
192,0,97999,1,0,0:0:0:0:
320,0,97999,128,0,98063:0:0:0:0:
448,0,98126,128,0,98189:0:0:0:0:
64,0,98253,128,0,98317:0:0:0:0:
192,0,98379,128,0,98443:0:0:0:0:
64,0,98507,1,0,0:0:0:0:
448,0,98507,1,0,0:0:0:0:
320,0,98633,128,0,98697:0:0:0:0:
192,0,98760,128,0,98824:0:0:0:0:
192,0,99014,128,0,99078:0:0:0:0:
448,0,99014,1,0,0:0:0:0:
320,0,99140,128,0,99204:0:0:0:0:
192,0,99268,128,0,99331:0:0:0:0:
64,0,99394,128,0,99458:0:0:0:0:
320,0,99521,1,0,0:0:0:0:
448,0,99521,1,0,0:0:0:0:
192,0,99648,128,0,99711:0:0:0:0:
320,0,99775,128,0,99839:0:0:0:0:
64,0,100029,128,0,100092:0:0:0:0:
448,0,100029,1,0,0:0:0:0:
192,0,100156,128,0,100219:0:0:0:0:
64,0,100282,1,0,0:0:0:0:
448,0,100282,128,0,100346:0:0:0:0:
320,0,100409,128,0,100472:0:0:0:0:
64,0,100536,1,0,0:0:0:0:
192,0,100536,1,0,0:0:0:0:
320,0,100663,128,0,100726:0:0:0:0:
192,0,100789,128,0,100853:0:0:0:0:
64,0,101043,1,0,0:0:0:0:
320,0,101043,128,0,101107:0:0:0:0:
320,0,101297,128,0,101360:0:0:0:0:
64,0,101424,1,0,0:0:0:0:
192,0,101424,128,0,101487:0:0:0:0:
64,0,101550,1,0,0:0:0:0:
448,0,101550,1,0,0:0:0:0:
64,0,101804,128,0,101868:0:0:0:0:
192,0,101931,128,0,101994:0:0:0:0:
320,0,102058,128,0,102121:0:0:0:0:
448,0,102058,1,0,0:0:0:0:
192,0,102185,128,0,102248:0:0:0:0:
64,0,102311,1,0,0:0:0:0:
448,0,102311,128,0,102375:0:0:0:0:
320,0,102439,128,0,102501:0:0:0:0:
64,0,102565,1,0,0:0:0:0:
448,0,102565,1,0,0:0:0:0:
192,0,102692,128,0,102755:0:0:0:0:
320,0,102819,128,0,102882:0:0:0:0:
64,0,103072,128,0,103136:0:0:0:0:
320,0,103199,128,0,103262:0:0:0:0:
192,0,103326,128,0,103389:0:0:0:0:
320,0,103453,128,0,103516:0:0:0:0:
448,0,103453,1,0,0:0:0:0:
192,0,103707,128,0,103769:0:0:0:0:
64,0,103833,1,0,0:0:0:0:
320,0,103833,128,0,103897:0:0:0:0:
64,0,104087,1,0,0:0:0:0:
192,0,104087,128,0,104150:0:0:0:0:
320,0,104214,128,0,104277:0:0:0:0:
64,0,104340,1,0,0:0:0:0:
448,0,104340,128,0,104404:0:0:0:0:
320,0,104468,128,0,104530:0:0:0:0:
64,0,104721,1,0,0:0:0:0:
192,0,104721,128,0,104785:0:0:0:0:
448,0,104848,128,0,104911:0:0:0:0:
448,0,105101,128,0,105165:0:0:0:0:
320,0,105229,128,0,105292:0:0:0:0:
448,0,105355,128,0,105419:0:0:0:0:
320,0,105482,128,0,105546:0:0:0:0:
64,0,105609,1,0,0:0:0:0:
192,0,105609,1,0,0:0:0:0:
448,0,105609,1,0,0:0:0:0:
320,0,105862,128,0,105926:0:0:0:0:
448,0,105989,128,0,106053:0:0:0:0:
192,0,106116,1,0,0:0:0:0:
320,0,106116,128,0,106179:0:0:0:0:
448,0,106243,128,0,106307:0:0:0:0:
64,0,106369,128,0,106433:0:0:0:0:
192,0,106497,128,0,106560:0:0:0:0:
64,0,106623,1,0,0:0:0:0:
448,0,106623,1,0,0:0:0:0:
320,0,106750,128,0,106814:0:0:0:0:
192,0,106877,128,0,106940:0:0:0:0:
64,0,107130,1,0,0:0:0:0:
448,0,107130,128,0,107194:0:0:0:0:
320,0,107258,128,0,107321:0:0:0:0:
64,0,107384,128,0,107448:0:0:0:0:
64,0,107511,128,0,107575:0:0:0:0:
320,0,107638,1,0,0:0:0:0:
448,0,107638,1,0,0:0:0:0:
192,0,107765,128,0,107829:0:0:0:0:
320,0,107891,128,0,107955:0:0:0:0:
64,0,108145,128,0,108209:0:0:0:0:
448,0,108145,1,0,0:0:0:0:
192,0,108272,128,0,108336:0:0:0:0:
64,0,108399,1,0,0:0:0:0:
448,0,108399,128,0,108462:0:0:0:0:
320,0,108526,128,0,108589:0:0:0:0:
64,0,108652,1,0,0:0:0:0:
192,0,108652,1,0,0:0:0:0:
320,0,108779,128,0,108843:0:0:0:0:
192,0,108906,128,0,108969:0:0:0:0:
64,0,109160,1,0,0:0:0:0:
320,0,109160,128,0,109223:0:0:0:0:
320,0,109414,128,0,109477:0:0:0:0:
64,0,109540,1,0,0:0:0:0:
320,0,109540,128,0,109604:0:0:0:0:
64,0,109668,1,0,0:0:0:0:
448,0,109668,1,0,0:0:0:0:
64,0,109921,128,0,109984:0:0:0:0:
192,0,110048,128,0,110111:0:0:0:0:
320,0,110175,128,0,110238:0:0:0:0:
448,0,110175,1,0,0:0:0:0:
192,0,110301,128,0,110365:0:0:0:0:
64,0,110429,1,0,0:0:0:0:
448,0,110429,128,0,110491:0:0:0:0:
320,0,110555,128,0,110619:0:0:0:0:
64,0,110682,1,0,0:0:0:0:
448,0,110682,1,0,0:0:0:0:
192,0,110809,128,0,110872:0:0:0:0:
320,0,110936,128,0,110999:0:0:0:0:
64,0,111189,128,0,111252:0:0:0:0:
320,0,111316,128,0,111379:0:0:0:0:
192,0,111443,128,0,111506:0:0:0:0:
320,0,111569,128,0,111633:0:0:0:0:
448,0,111569,1,0,0:0:0:0:
192,0,111823,128,0,111887:0:0:0:0:
64,0,111950,1,0,0:0:0:0:
320,0,111950,128,0,112013:0:0:0:0:
64,0,112204,1,0,0:0:0:0:
192,0,112204,128,0,112267:0:0:0:0:
320,0,112330,128,0,112394:0:0:0:0:
64,0,112458,1,0,0:0:0:0:
448,0,112458,128,0,112520:0:0:0:0:
320,0,112584,128,0,112648:0:0:0:0:
64,0,112838,1,0,0:0:0:0:
448,0,112838,128,0,113472:0:0:0:0:
64,0,113472,1,0,0:0:0:0:
192,0,113535,1,0,0:0:0:0:
320,0,113535,1,0,0:0:0:0:
448,0,113599,1,0,0:0:0:0:
64,0,113599,1,0,0:0:0:0:
192,0,113662,1,0,0:0:0:0:
320,0,113662,1,0,0:0:0:0:
448,0,113726,1,0,0:0:0:0:
64,0,113726,1,0,0:0:0:0:
192,0,113726,1,0,0:0:0:0:
192,0,113852,1,0,0:0:0:0:
320,0,113979,1,0,0:0:0:0:
448,0,113979,1,0,0:0:0:0:
192,0,114106,1,0,0:0:0:0:
320,0,114106,1,0,0:0:0:0:
64,0,114233,1,0,0:0:0:0:
192,0,114233,1,0,0:0:0:0:
64,0,114359,1,0,0:0:0:0:
448,0,114359,1,0,0:0:0:0:
320,0,114487,1,0,0:0:0:0:
448,0,114487,1,0,0:0:0:0:
320,0,114613,1,0,0:0:0:0:
448,0,114613,1,0,0:0:0:0:
64,0,114740,1,0,0:0:0:0:
192,0,114740,1,0,0:0:0:0:
320,0,114867,1,0,0:0:0:0:
448,0,114867,1,0,0:0:0:0:
192,0,114994,1,0,0:0:0:0:
320,0,114994,1,0,0:0:0:0:
64,0,115120,1,0,0:0:0:0:
192,0,115248,1,0,0:0:0:0:
320,0,115248,1,0,0:0:0:0:
320,0,115374,1,0,0:0:0:0:
448,0,115374,1,0,0:0:0:0:
64,0,115501,1,0,0:0:0:0:
448,0,115501,1,0,0:0:0:0:
64,0,115628,1,0,0:0:0:0:
448,0,115628,1,0,0:0:0:0:
192,0,115755,1,0,0:0:0:0:
320,0,115755,1,0,0:0:0:0:
64,0,115881,1,0,0:0:0:0:
448,0,115881,1,0,0:0:0:0:
64,0,116009,1,0,0:0:0:0:
192,0,116009,1,0,0:0:0:0:
320,0,116135,1,0,0:0:0:0:
64,0,116262,1,0,0:0:0:0:
192,0,116262,1,0,0:0:0:0:
192,0,116389,1,0,0:0:0:0:
320,0,116389,1,0,0:0:0:0:
320,0,116516,1,0,0:0:0:0:
448,0,116516,1,0,0:0:0:0:
64,0,116642,1,0,0:0:0:0:
448,0,116642,1,0,0:0:0:0:
192,0,116769,1,0,0:0:0:0:
320,0,116769,1,0,0:0:0:0:
64,0,116896,1,0,0:0:0:0:
448,0,116896,1,0,0:0:0:0:
64,0,117023,1,0,0:0:0:0:
192,0,117023,1,0,0:0:0:0:
320,0,117149,1,0,0:0:0:0:
64,0,117277,1,0,0:0:0:0:
192,0,117277,1,0,0:0:0:0:
320,0,117403,1,0,0:0:0:0:
64,0,117530,1,0,0:0:0:0:
192,0,117530,1,0,0:0:0:0:
64,0,117657,1,0,0:0:0:0:
192,0,117657,1,0,0:0:0:0:
64,0,117784,1,0,0:0:0:0:
192,0,117784,1,0,0:0:0:0:
448,0,117784,1,0,0:0:0:0:
320,0,117910,1,0,0:0:0:0:
448,0,117910,1,0,0:0:0:0:
192,0,118038,1,0,0:0:0:0:
320,0,118038,1,0,0:0:0:0:
192,0,118165,1,0,0:0:0:0:
320,0,118165,1,0,0:0:0:0:
64,0,118291,1,0,0:0:0:0:
192,0,118291,1,0,0:0:0:0:
192,0,118419,1,0,0:0:0:0:
320,0,118419,1,0,0:0:0:0:
64,0,118545,1,0,0:0:0:0:
448,0,118545,1,0,0:0:0:0:
64,0,118672,1,0,0:0:0:0:
448,0,118672,1,0,0:0:0:0:
320,0,118799,1,0,0:0:0:0:
448,0,118799,1,0,0:0:0:0:
64,0,118926,1,0,0:0:0:0:
192,0,118926,1,0,0:0:0:0:
64,0,119052,1,0,0:0:0:0:
192,0,119052,1,0,0:0:0:0:
192,0,119179,1,0,0:0:0:0:
320,0,119179,1,0,0:0:0:0:
64,0,119306,1,0,0:0:0:0:
448,0,119306,1,0,0:0:0:0:
64,0,119433,1,0,0:0:0:0:
448,0,119433,1,0,0:0:0:0:
320,0,119559,1,0,0:0:0:0:
448,0,119559,1,0,0:0:0:0:
320,0,119687,1,0,0:0:0:0:
448,0,119687,1,0,0:0:0:0:
64,0,119813,1,0,0:0:0:0:
192,0,119813,1,0,0:0:0:0:
320,0,119877,1,0,0:0:0:0:
448,0,119877,1,0,0:0:0:0:
64,0,119940,1,0,0:0:0:0:
192,0,119940,1,0,0:0:0:0:
320,0,120003,1,0,0:0:0:0:
448,0,120003,1,0,0:0:0:0:
64,0,120067,1,0,0:0:0:0:
192,0,120067,1,0,0:0:0:0:
320,0,120130,1,0,0:0:0:0:
448,0,120130,1,0,0:0:0:0:
64,0,120194,1,0,0:0:0:0:
192,0,120194,1,0,0:0:0:0:
320,0,120257,1,0,0:0:0:0:
448,0,120257,1,0,0:0:0:0:
64,0,120320,1,0,0:0:0:0:
192,0,120320,1,0,0:0:0:0:
320,0,120384,1,0,0:0:0:0:
448,0,120384,1,0,0:0:0:0:
64,0,120448,1,0,0:0:0:0:
192,0,120448,1,0,0:0:0:0:
320,0,120510,1,0,0:0:0:0:
448,0,120510,1,0,0:0:0:0:
64,0,120574,1,0,0:0:0:0:
192,0,120574,1,0,0:0:0:0:
320,0,120638,1,0,0:0:0:0:
448,0,120638,1,0,0:0:0:0:
64,0,120701,1,0,0:0:0:0:
192,0,120701,1,0,0:0:0:0:
320,0,120764,1,0,0:0:0:0:
448,0,120764,1,0,0:0:0:0:
64,0,120828,1,0,0:0:0:0:
192,0,120828,1,0,0:0:0:0:
320,0,120891,1,0,0:0:0:0:
448,0,120891,1,0,0:0:0:0:
64,0,120955,1,0,0:0:0:0:
192,0,120955,1,0,0:0:0:0:
320,0,121018,1,0,0:0:0:0:
448,0,121018,1,0,0:0:0:0:
64,0,121081,1,0,0:0:0:0:
192,0,121081,1,0,0:0:0:0:
320,0,121145,1,0,0:0:0:0:
448,0,121145,1,0,0:0:0:0:
64,0,121209,1,0,0:0:0:0:
192,0,121271,1,0,0:0:0:0:
320,0,121271,1,0,0:0:0:0:
64,0,121335,1,0,0:0:0:0:
448,0,121335,1,0,0:0:0:0:
192,0,121399,1,0,0:0:0:0:
320,0,121399,1,0,0:0:0:0:
448,0,121462,1,0,0:0:0:0:
64,0,121462,1,0,0:0:0:0:
192,0,121525,1,0,0:0:0:0:
320,0,121525,1,0,0:0:0:0:
448,0,121589,1,0,0:0:0:0:
64,0,121589,1,0,0:0:0:0:
192,0,121589,1,0,0:0:0:0:
64,0,121716,1,0,0:0:0:0:
320,0,121716,1,0,0:0:0:0:
64,0,121842,1,0,0:0:0:0:
192,0,121842,1,0,0:0:0:0:
448,0,121842,1,0,0:0:0:0:
320,0,121906,1,0,0:0:0:0:
192,0,121969,1,0,0:0:0:0:
64,0,122032,1,0,0:0:0:0:
320,0,122096,1,0,0:0:0:0:
448,0,122096,1,0,0:0:0:0:
192,0,122159,1,0,0:0:0:0:
64,0,122223,1,0,0:0:0:0:
448,0,122223,1,0,0:0:0:0:
320,0,122286,1,0,0:0:0:0:
64,0,122349,1,0,0:0:0:0:
192,0,122349,1,0,0:0:0:0:
448,0,122413,1,0,0:0:0:0:
192,0,122477,1,0,0:0:0:0:
320,0,122477,1,0,0:0:0:0:
64,0,122539,1,0,0:0:0:0:
192,0,122603,1,0,0:0:0:0:
448,0,122603,1,0,0:0:0:0:
64,0,122667,1,0,0:0:0:0:
192,0,122730,1,0,0:0:0:0:
448,0,122730,1,0,0:0:0:0:
320,0,122794,1,0,0:0:0:0:
64,0,122857,1,0,0:0:0:0:
192,0,122920,1,0,0:0:0:0:
64,0,122984,1,0,0:0:0:0:
448,0,122984,1,0,0:0:0:0:
320,0,123048,1,0,0:0:0:0:
64,0,123110,1,0,0:0:0:0:
448,0,123110,1,0,0:0:0:0:
192,0,123174,1,0,0:0:0:0:
320,0,123238,1,0,0:0:0:0:
448,0,123301,1,0,0:0:0:0:
64,0,123364,1,0,0:0:0:0:
192,0,123364,1,0,0:0:0:0:
320,0,123428,1,0,0:0:0:0:
64,0,123491,1,0,0:0:0:0:
192,0,123491,1,0,0:0:0:0:
320,0,123555,1,0,0:0:0:0:
64,0,123618,1,0,0:0:0:0:
448,0,123618,1,0,0:0:0:0:
192,0,123681,1,0,0:0:0:0:
64,0,123745,1,0,0:0:0:0:
448,0,123745,1,0,0:0:0:0:
192,0,123809,1,0,0:0:0:0:
320,0,123871,1,0,0:0:0:0:
448,0,123935,1,0,0:0:0:0:
64,0,123999,1,0,0:0:0:0:
192,0,123999,1,0,0:0:0:0:
320,0,124062,1,0,0:0:0:0:
64,0,124125,1,0,0:0:0:0:
192,0,124125,1,0,0:0:0:0:
320,0,124189,1,0,0:0:0:0:
448,0,124252,1,0,0:0:0:0:
64,0,124316,1,0,0:0:0:0:
192,0,124379,1,0,0:0:0:0:
448,0,124379,1,0,0:0:0:0:
320,0,124442,1,0,0:0:0:0:
192,0,124506,1,0,0:0:0:0:
448,0,124506,1,0,0:0:0:0:
320,0,124569,1,0,0:0:0:0:
64,0,124632,1,0,0:0:0:0:
192,0,124632,1,0,0:0:0:0:
448,0,124696,1,0,0:0:0:0:
64,0,124759,1,0,0:0:0:0:
192,0,124759,1,0,0:0:0:0:
448,0,124823,1,0,0:0:0:0:
320,0,124886,1,0,0:0:0:0:
192,0,124949,1,0,0:0:0:0:
64,0,125013,1,0,0:0:0:0:
448,0,125013,1,0,0:0:0:0:
320,0,125077,1,0,0:0:0:0:
64,0,125139,1,0,0:0:0:0:
448,0,125139,1,0,0:0:0:0:
320,0,125203,1,0,0:0:0:0:
192,0,125267,1,0,0:0:0:0:
64,0,125330,1,0,0:0:0:0:
192,0,125393,1,0,0:0:0:0:
320,0,125393,1,0,0:0:0:0:
448,0,125457,1,0,0:0:0:0:
64,0,125520,1,0,0:0:0:0:
320,0,125584,1,0,0:0:0:0:
192,0,125647,1,0,0:0:0:0:
448,0,125647,1,0,0:0:0:0:
64,0,125710,1,0,0:0:0:0:
192,0,125774,1,0,0:0:0:0:
448,0,125774,1,0,0:0:0:0:
64,0,125838,1,0,0:0:0:0:
192,0,125900,1,0,0:0:0:0:
320,0,125964,1,0,0:0:0:0:
64,0,126028,1,0,0:0:0:0:
448,0,126091,1,0,0:0:0:0:
64,0,126154,1,0,0:0:0:0:
192,0,126154,1,0,0:0:0:0:
320,0,126218,1,0,0:0:0:0:
64,0,126281,1,0,0:0:0:0:
448,0,126281,1,0,0:0:0:0:
192,0,126345,1,0,0:0:0:0:
320,0,126408,1,0,0:0:0:0:
448,0,126408,1,0,0:0:0:0:
64,0,126471,1,0,0:0:0:0:
192,0,126535,1,0,0:0:0:0:
320,0,126535,1,0,0:0:0:0:
448,0,126599,1,0,0:0:0:0:
64,0,126661,1,0,0:0:0:0:
192,0,126661,1,0,0:0:0:0:
320,0,126725,1,0,0:0:0:0:
64,0,126789,1,0,0:0:0:0:
448,0,126789,1,0,0:0:0:0:
192,0,126852,1,0,0:0:0:0:
320,0,126915,1,0,0:0:0:0:
448,0,126979,1,0,0:0:0:0:
64,0,127042,1,0,0:0:0:0:
192,0,127042,1,0,0:0:0:0:
320,0,127106,1,0,0:0:0:0:
64,0,127169,1,0,0:0:0:0:
192,0,127169,1,0,0:0:0:0:
320,0,127232,1,0,0:0:0:0:
448,0,127296,1,0,0:0:0:0:
192,0,127359,1,0,0:0:0:0:
64,0,127423,1,0,0:0:0:0:
320,0,127423,1,0,0:0:0:0:
448,0,127486,1,0,0:0:0:0:
64,0,127549,1,0,0:0:0:0:
320,0,127549,1,0,0:0:0:0:
448,0,127613,1,0,0:0:0:0:
64,0,127677,1,0,0:0:0:0:
192,0,127677,1,0,0:0:0:0:
320,0,127739,1,0,0:0:0:0:
64,0,127803,1,0,0:0:0:0:
192,0,127803,1,0,0:0:0:0:
320,0,127867,1,0,0:0:0:0:
448,0,127930,1,0,0:0:0:0:
192,0,127993,1,0,0:0:0:0:
64,0,128057,1,0,0:0:0:0:
448,0,128057,1,0,0:0:0:0:
320,0,128120,1,0,0:0:0:0:
64,0,128184,1,0,0:0:0:0:
448,0,128184,1,0,0:0:0:0:
320,0,128247,1,0,0:0:0:0:
192,0,128310,1,0,0:0:0:0:
64,0,128374,1,0,0:0:0:0:
320,0,128438,1,0,0:0:0:0:
448,0,128438,1,0,0:0:0:0:
192,0,128500,1,0,0:0:0:0:
320,0,128564,1,0,0:0:0:0:
448,0,128564,1,0,0:0:0:0:
192,0,128628,1,0,0:0:0:0:
64,0,128691,1,0,0:0:0:0:
320,0,128691,1,0,0:0:0:0:
448,0,128754,1,0,0:0:0:0:
64,0,128818,1,0,0:0:0:0:
320,0,128818,1,0,0:0:0:0:
448,0,128881,1,0,0:0:0:0:
192,0,128945,1,0,0:0:0:0:
64,0,129008,1,0,0:0:0:0:
320,0,129071,1,0,0:0:0:0:
448,0,129071,1,0,0:0:0:0:
192,0,129135,1,0,0:0:0:0:
64,0,129199,1,0,0:0:0:0:
448,0,129199,1,0,0:0:0:0:
192,0,129261,1,0,0:0:0:0:
320,0,129325,1,0,0:0:0:0:
448,0,129389,1,0,0:0:0:0:
64,0,129452,1,0,0:0:0:0:
192,0,129452,1,0,0:0:0:0:
320,0,129515,1,0,0:0:0:0:
64,0,129579,1,0,0:0:0:0:
192,0,129579,1,0,0:0:0:0:
320,0,129642,1,0,0:0:0:0:
448,0,129706,1,0,0:0:0:0:
64,0,129769,1,0,0:0:0:0:
320,0,129832,1,0,0:0:0:0:
448,0,129832,1,0,0:0:0:0:
192,0,129896,1,0,0:0:0:0:
64,0,129959,1,0,0:0:0:0:
320,0,129959,1,0,0:0:0:0:
448,0,129959,1,0,0:0:0:0:
192,0,130022,1,0,0:0:0:0:
320,0,130086,1,0,0:0:0:0:
448,0,130149,1,0,0:0:0:0:
64,0,130213,1,0,0:0:0:0:
192,0,130213,1,0,0:0:0:0:
320,0,130276,1,0,0:0:0:0:
64,0,130339,1,0,0:0:0:0:
448,0,130339,1,0,0:0:0:0:
192,0,130403,1,0,0:0:0:0:
320,0,130467,1,0,0:0:0:0:
448,0,130467,1,0,0:0:0:0:
64,0,130529,1,0,0:0:0:0:
192,0,130593,1,0,0:0:0:0:
320,0,130593,1,0,0:0:0:0:
448,0,130657,1,0,0:0:0:0:
64,0,130720,1,0,0:0:0:0:
192,0,130720,1,0,0:0:0:0:
448,0,130783,1,0,0:0:0:0:
64,0,130847,1,0,0:0:0:0:
192,0,130847,1,0,0:0:0:0:
320,0,130910,1,0,0:0:0:0:
448,0,130974,1,0,0:0:0:0:
192,0,131037,1,0,0:0:0:0:
64,0,131100,1,0,0:0:0:0:
448,0,131100,1,0,0:0:0:0:
192,0,131164,1,0,0:0:0:0:
64,0,131228,1,0,0:0:0:0:
448,0,131228,1,0,0:0:0:0:
320,0,131290,1,0,0:0:0:0:
192,0,131354,1,0,0:0:0:0:
64,0,131418,1,0,0:0:0:0:
320,0,131481,1,0,0:0:0:0:
448,0,131481,1,0,0:0:0:0:
192,0,131544,1,0,0:0:0:0:
320,0,131608,1,0,0:0:0:0:
448,0,131608,1,0,0:0:0:0:
192,0,131671,1,0,0:0:0:0:
64,0,131735,1,0,0:0:0:0:
448,0,131735,1,0,0:0:0:0:
320,0,131799,1,0,0:0:0:0:
64,0,131861,1,0,0:0:0:0:
448,0,131861,1,0,0:0:0:0:
320,0,131925,1,0,0:0:0:0:
192,0,131989,1,0,0:0:0:0:
64,0,132052,1,0,0:0:0:0:
320,0,132115,1,0,0:0:0:0:
448,0,132115,1,0,0:0:0:0:
192,0,132179,1,0,0:0:0:0:
320,0,132242,1,0,0:0:0:0:
448,0,132242,1,0,0:0:0:0:
192,0,132306,1,0,0:0:0:0:
64,0,132369,1,0,0:0:0:0:
448,0,132432,1,0,0:0:0:0:
64,0,132496,1,0,0:0:0:0:
320,0,132496,1,0,0:0:0:0:
192,0,132560,1,0,0:0:0:0:
64,0,132622,1,0,0:0:0:0:
320,0,132622,1,0,0:0:0:0:
192,0,132686,1,0,0:0:0:0:
320,0,132750,1,0,0:0:0:0:
448,0,132750,1,0,0:0:0:0:
64,0,132813,1,0,0:0:0:0:
320,0,132876,1,0,0:0:0:0:
448,0,132876,1,0,0:0:0:0:
64,0,132940,1,0,0:0:0:0:
192,0,133003,1,0,0:0:0:0:
320,0,133067,1,0,0:0:0:0:
64,0,133130,1,0,0:0:0:0:
448,0,133130,1,0,0:0:0:0:
192,0,133193,1,0,0:0:0:0:
64,0,133257,1,0,0:0:0:0:
448,0,133257,1,0,0:0:0:0:
192,0,133320,1,0,0:0:0:0:
320,0,133383,1,0,0:0:0:0:
448,0,133447,1,0,0:0:0:0:
64,0,133510,1,0,0:0:0:0:
192,0,133510,1,0,0:0:0:0:
320,0,133574,1,0,0:0:0:0:
448,0,133637,1,0,0:0:0:0:
64,0,133700,1,0,0:0:0:0:
192,0,133764,1,0,0:0:0:0:
320,0,133764,1,0,0:0:0:0:
448,0,133828,1,0,0:0:0:0:
192,0,133890,1,0,0:0:0:0:
320,0,133890,1,0,0:0:0:0:
448,0,133954,1,0,0:0:0:0:
64,0,134018,1,0,0:0:0:0:
192,0,134081,1,0,0:0:0:0:
320,0,134144,1,0,0:0:0:0:
64,0,134208,1,0,0:0:0:0:
320,0,134271,1,0,0:0:0:0:
448,0,134271,1,0,0:0:0:0:
192,0,134335,1,0,0:0:0:0:
64,0,134398,1,0,0:0:0:0:
448,0,134398,1,0,0:0:0:0:
320,0,134461,1,0,0:0:0:0:
64,0,134525,1,0,0:0:0:0:
192,0,134525,1,0,0:0:0:0:
448,0,134589,1,0,0:0:0:0:
192,0,134651,1,0,0:0:0:0:
320,0,134651,1,0,0:0:0:0:
64,0,134715,1,0,0:0:0:0:
320,0,134779,1,0,0:0:0:0:
448,0,134779,1,0,0:0:0:0:
192,0,134842,1,0,0:0:0:0:
64,0,134905,1,0,0:0:0:0:
448,0,134905,1,0,0:0:0:0:
320,0,134969,1,0,0:0:0:0:
192,0,135032,1,0,0:0:0:0:
64,0,135096,1,0,0:0:0:0:
320,0,135159,1,0,0:0:0:0:
448,0,135159,1,0,0:0:0:0:
192,0,135222,1,0,0:0:0:0:
320,0,135286,1,0,0:0:0:0:
448,0,135286,1,0,0:0:0:0:
192,0,135350,1,0,0:0:0:0:
64,0,135412,1,0,0:0:0:0:
320,0,135476,1,0,0:0:0:0:
192,0,135540,1,0,0:0:0:0:
448,0,135540,1,0,0:0:0:0:
64,0,135603,1,0,0:0:0:0:
192,0,135666,1,0,0:0:0:0:
448,0,135666,1,0,0:0:0:0:
64,0,135730,1,0,0:0:0:0:
320,0,135793,1,0,0:0:0:0:
448,0,135793,1,0,0:0:0:0:
192,0,135857,1,0,0:0:0:0:
320,0,135920,1,0,0:0:0:0:
448,0,135920,1,0,0:0:0:0:
192,0,135983,1,0,0:0:0:0:
64,0,136047,1,0,0:0:0:0:
320,0,136110,1,0,0:0:0:0:
64,0,136173,1,0,0:0:0:0:
448,0,136173,1,0,0:0:0:0:
192,0,136237,1,0,0:0:0:0:
64,0,136300,1,0,0:0:0:0:
448,0,136300,1,0,0:0:0:0:
192,0,136364,1,0,0:0:0:0:
320,0,136428,1,0,0:0:0:0:
448,0,136490,1,0,0:0:0:0:
64,0,136554,1,0,0:0:0:0:
192,0,136554,1,0,0:0:0:0:
320,0,136618,1,0,0:0:0:0:
64,0,136681,1,0,0:0:0:0:
192,0,136681,1,0,0:0:0:0:
320,0,136744,1,0,0:0:0:0:
192,0,136808,1,0,0:0:0:0:
448,0,136808,1,0,0:0:0:0:
64,0,136871,1,0,0:0:0:0:
192,0,136935,1,0,0:0:0:0:
448,0,136935,1,0,0:0:0:0:
320,0,137061,1,0,0:0:0:0:
64,0,137189,1,0,0:0:0:0:
192,0,137189,1,0,0:0:0:0:
64,0,137315,1,0,0:0:0:0:
448,0,137315,1,0,0:0:0:0:
320,0,137442,1,0,0:0:0:0:
192,0,137569,1,0,0:0:0:0:
448,0,137569,1,0,0:0:0:0:
192,0,137696,1,0,0:0:0:0:
448,0,137696,1,0,0:0:0:0:
320,0,137822,1,0,0:0:0:0:
64,0,137950,1,0,0:0:0:0:
448,0,137950,1,0,0:0:0:0:
64,0,138076,1,0,0:0:0:0:
320,0,138076,1,0,0:0:0:0:
448,0,138076,1,0,0:0:0:0:
192,0,138140,1,0,0:0:0:0:
320,0,138203,1,0,0:0:0:0:
448,0,138203,1,0,0:0:0:0:
192,0,138266,1,0,0:0:0:0:
320,0,138330,1,0,0:0:0:0:
448,0,138330,1,0,0:0:0:0:
192,0,138393,1,0,0:0:0:0:
320,0,138457,1,0,0:0:0:0:
448,0,138457,1,0,0:0:0:0:
192,0,138520,1,0,0:0:0:0:
64,0,138583,1,0,0:0:0:0:
448,0,138583,1,0,0:0:0:0:
320,0,138647,1,0,0:0:0:0:
192,0,138710,1,0,0:0:0:0:
64,0,138773,1,0,0:0:0:0:
320,0,138837,1,0,0:0:0:0:
448,0,138837,1,0,0:0:0:0:
64,0,138900,1,0,0:0:0:0:
192,0,138964,1,0,0:0:0:0:
320,0,139027,1,0,0:0:0:0:
64,0,139090,1,0,0:0:0:0:
448,0,139090,1,0,0:0:0:0:
192,0,139154,1,0,0:0:0:0:
64,0,139218,1,0,0:0:0:0:
448,0,139218,1,0,0:0:0:0:
192,0,139280,1,0,0:0:0:0:
64,0,139344,1,0,0:0:0:0:
448,0,139344,1,0,0:0:0:0:
192,0,139408,1,0,0:0:0:0:
64,0,139471,1,0,0:0:0:0:
448,0,139471,1,0,0:0:0:0:
192,0,139534,1,0,0:0:0:0:
320,0,139598,1,0,0:0:0:0:
448,0,139598,1,0,0:0:0:0:
64,0,139661,1,0,0:0:0:0:
192,0,139725,1,0,0:0:0:0:
448,0,139788,1,0,0:0:0:0:
64,0,139851,1,0,0:0:0:0:
192,0,139851,1,0,0:0:0:0:
320,0,139915,1,0,0:0:0:0:
448,0,139979,1,0,0:0:0:0:
64,0,140041,1,0,0:0:0:0:
192,0,140105,1,0,0:0:0:0:
320,0,140105,1,0,0:0:0:0:
448,0,140169,1,0,0:0:0:0:
192,0,140232,1,0,0:0:0:0:
320,0,140232,1,0,0:0:0:0:
448,0,140295,1,0,0:0:0:0:
192,0,140359,1,0,0:0:0:0:
320,0,140359,1,0,0:0:0:0:
448,0,140422,1,0,0:0:0:0:
192,0,140486,1,0,0:0:0:0:
320,0,140486,1,0,0:0:0:0:
448,0,140549,1,0,0:0:0:0:
64,0,140612,1,0,0:0:0:0:
192,0,140612,1,0,0:0:0:0:
320,0,140676,1,0,0:0:0:0:
448,0,140740,1,0,0:0:0:0:
192,0,140802,1,0,0:0:0:0:
64,0,140866,1,0,0:0:0:0:
448,0,140866,1,0,0:0:0:0:
320,0,140930,1,0,0:0:0:0:
64,0,140993,1,0,0:0:0:0:
192,0,141057,1,0,0:0:0:0:
320,0,141120,1,0,0:0:0:0:
448,0,141120,1,0,0:0:0:0:
64,0,141183,1,0,0:0:0:0:
320,0,141247,1,0,0:0:0:0:
448,0,141247,1,0,0:0:0:0:
64,0,141310,1,0,0:0:0:0:
320,0,141373,1,0,0:0:0:0:
448,0,141373,1,0,0:0:0:0:
64,0,141437,1,0,0:0:0:0:
320,0,141500,1,0,0:0:0:0:
448,0,141500,1,0,0:0:0:0:
64,0,141564,1,0,0:0:0:0:
192,0,141627,1,0,0:0:0:0:
320,0,141627,1,0,0:0:0:0:
448,0,141690,1,0,0:0:0:0:
192,0,141754,1,0,0:0:0:0:
64,0,141818,1,0,0:0:0:0:
320,0,141880,1,0,0:0:0:0:
448,0,141880,1,0,0:0:0:0:
192,0,141944,1,0,0:0:0:0:
64,0,142008,1,0,0:0:0:0:
448,0,142008,1,0,0:0:0:0:
320,0,142071,1,0,0:0:0:0:
64,0,142134,1,0,0:0:0:0:
192,0,142134,1,0,0:0:0:0:
448,0,142198,1,0,0:0:0:0:
64,0,142261,1,0,0:0:0:0:
192,0,142261,1,0,0:0:0:0:
448,0,142325,1,0,0:0:0:0:
64,0,142388,1,0,0:0:0:0:
192,0,142388,1,0,0:0:0:0:
448,0,142451,1,0,0:0:0:0:
64,0,142515,1,0,0:0:0:0:
192,0,142515,1,0,0:0:0:0:
448,0,142579,1,0,0:0:0:0:
64,0,142641,1,0,0:0:0:0:
320,0,142641,1,0,0:0:0:0:
192,0,142705,1,0,0:0:0:0:
448,0,142769,1,0,0:0:0:0:
320,0,142832,1,0,0:0:0:0:
64,0,142895,1,0,0:0:0:0:
448,0,142895,1,0,0:0:0:0:
192,0,142959,1,0,0:0:0:0:
64,0,143022,1,0,0:0:0:0:
448,0,143086,1,0,0:0:0:0:
192,0,143149,1,0,0:0:0:0:
320,0,143149,1,0,0:0:0:0:
64,0,143212,1,0,0:0:0:0:
192,0,143276,1,0,0:0:0:0:
320,0,143276,1,0,0:0:0:0:
64,0,143340,1,0,0:0:0:0:
192,0,143402,1,0,0:0:0:0:
320,0,143402,1,0,0:0:0:0:
64,0,143466,1,0,0:0:0:0:
192,0,143530,1,0,0:0:0:0:
320,0,143530,1,0,0:0:0:0:
64,0,143593,1,0,0:0:0:0:
320,0,143656,1,0,0:0:0:0:
448,0,143656,1,0,0:0:0:0:
192,0,143720,1,0,0:0:0:0:
64,0,143783,1,0,0:0:0:0:
192,0,143847,1,0,0:0:0:0:
320,0,143910,1,0,0:0:0:0:
448,0,143910,1,0,0:0:0:0:
64,0,143973,1,0,0:0:0:0:
192,0,144037,1,0,0:0:0:0:
320,0,144037,1,0,0:0:0:0:
448,0,144100,1,0,0:0:0:0:
64,0,144163,1,0,0:0:0:0:
192,0,144163,1,0,0:0:0:0:
320,0,144227,1,0,0:0:0:0:
448,0,144290,1,0,0:0:0:0:
320,0,144354,1,0,0:0:0:0:
64,0,144417,1,0,0:0:0:0:
192,0,144417,1,0,0:0:0:0:
448,0,144480,1,0,0:0:0:0:
320,0,144544,1,0,0:0:0:0:
448,0,144608,1,0,0:0:0:0:
64,0,144670,1,0,0:0:0:0:
192,0,144670,1,0,0:0:0:0:
320,0,144734,1,0,0:0:0:0:
448,0,144798,1,0,0:0:0:0:
192,0,144861,1,0,0:0:0:0:
320,0,144924,1,0,0:0:0:0:
448,0,144924,1,0,0:0:0:0:
192,0,144988,1,0,0:0:0:0:
320,0,145051,1,0,0:0:0:0:
192,0,145115,1,0,0:0:0:0:
64,0,145178,1,0,0:0:0:0:
448,0,145178,1,0,0:0:0:0:
320,0,145241,1,0,0:0:0:0:
64,0,145305,1,0,0:0:0:0:
192,0,145305,1,0,0:0:0:0:
320,0,145369,1,0,0:0:0:0:
64,0,145432,1,0,0:0:0:0:
192,0,145432,1,0,0:0:0:0:
320,0,145495,1,0,0:0:0:0:
192,0,145559,1,0,0:0:0:0:
64,0,145622,1,0,0:0:0:0:
320,0,145686,1,0,0:0:0:0:
448,0,145686,1,0,0:0:0:0:
64,0,145749,1,0,0:0:0:0:
192,0,145812,1,0,0:0:0:0:
320,0,145812,1,0,0:0:0:0:
448,0,145876,1,0,0:0:0:0:
320,0,145940,1,0,0:0:0:0:
192,0,146002,1,0,0:0:0:0:
64,0,146066,1,0,0:0:0:0:
448,0,146066,1,0,0:0:0:0:
320,0,146130,1,0,0:0:0:0:
64,0,146193,1,0,0:0:0:0:
192,0,146193,1,0,0:0:0:0:
448,0,146193,1,0,0:0:0:0:
320,0,146256,1,0,0:0:0:0:
64,0,146320,1,0,0:0:0:0:
192,0,146320,1,0,0:0:0:0:
320,0,146383,1,0,0:0:0:0:
64,0,146447,1,0,0:0:0:0:
192,0,146447,1,0,0:0:0:0:
320,0,146510,1,0,0:0:0:0:
64,0,146573,1,0,0:0:0:0:
192,0,146573,1,0,0:0:0:0:
320,0,146637,1,0,0:0:0:0:
64,0,146700,1,0,0:0:0:0:
448,0,146700,1,0,0:0:0:0:
192,0,146763,1,0,0:0:0:0:
320,0,146827,1,0,0:0:0:0:
448,0,146890,1,0,0:0:0:0:
64,0,146954,1,0,0:0:0:0:
192,0,146954,1,0,0:0:0:0:
448,0,147017,1,0,0:0:0:0:
64,0,147080,1,0,0:0:0:0:
320,0,147144,1,0,0:0:0:0:
192,0,147208,1,0,0:0:0:0:
448,0,147208,1,0,0:0:0:0:
64,0,147270,1,0,0:0:0:0:
192,0,147334,1,0,0:0:0:0:
448,0,147334,1,0,0:0:0:0:
64,0,147398,1,0,0:0:0:0:
192,0,147461,1,0,0:0:0:0:
448,0,147461,1,0,0:0:0:0:
64,0,147524,1,0,0:0:0:0:
192,0,147588,1,0,0:0:0:0:
448,0,147588,1,0,0:0:0:0:
64,0,147651,1,0,0:0:0:0:
320,0,147715,1,0,0:0:0:0:
448,0,147715,1,0,0:0:0:0:
192,0,147778,1,0,0:0:0:0:
64,0,147841,1,0,0:0:0:0:
320,0,147905,1,0,0:0:0:0:
192,0,147969,1,0,0:0:0:0:
448,0,147969,1,0,0:0:0:0:
320,0,148031,1,0,0:0:0:0:
64,0,148095,1,0,0:0:0:0:
448,0,148159,1,0,0:0:0:0:
192,0,148222,1,0,0:0:0:0:
320,0,148222,1,0,0:0:0:0:
64,0,148285,1,0,0:0:0:0:
192,0,148349,1,0,0:0:0:0:
320,0,148349,1,0,0:0:0:0:
64,0,148412,1,0,0:0:0:0:
192,0,148476,1,0,0:0:0:0:
320,0,148476,1,0,0:0:0:0:
64,0,148539,1,0,0:0:0:0:
192,0,148602,1,0,0:0:0:0:
320,0,148602,1,0,0:0:0:0:
64,0,148666,1,0,0:0:0:0:
320,0,148730,1,0,0:0:0:0:
448,0,148730,1,0,0:0:0:0:
192,0,148792,1,0,0:0:0:0:
64,0,148856,1,0,0:0:0:0:
320,0,148920,1,0,0:0:0:0:
64,0,148983,1,0,0:0:0:0:
448,0,148983,1,0,0:0:0:0:
192,0,149046,1,0,0:0:0:0:
448,0,149110,1,0,0:0:0:0:
320,0,149173,1,0,0:0:0:0:
64,0,149237,1,0,0:0:0:0:
192,0,149237,1,0,0:0:0:0:
448,0,149300,1,0,0:0:0:0:
64,0,149363,1,0,0:0:0:0:
192,0,149363,1,0,0:0:0:0:
448,0,149427,1,0,0:0:0:0:
64,0,149490,1,0,0:0:0:0:
192,0,149490,1,0,0:0:0:0:
448,0,149553,1,0,0:0:0:0:
64,0,149617,1,0,0:0:0:0:
192,0,149617,1,0,0:0:0:0:
448,0,149680,1,0,0:0:0:0:
192,0,149744,1,0,0:0:0:0:
320,0,149744,1,0,0:0:0:0:
64,0,149807,1,0,0:0:0:0:
320,0,149870,1,0,0:0:0:0:
448,0,149934,1,0,0:0:0:0:
64,0,149998,1,0,0:0:0:0:
192,0,149998,1,0,0:0:0:0:
320,0,150061,1,0,0:0:0:0:
64,0,150124,1,0,0:0:0:0:
448,0,150124,1,0,0:0:0:0:
192,0,150188,1,0,0:0:0:0:
320,0,150251,1,0,0:0:0:0:
448,0,150251,1,0,0:0:0:0:
64,0,150315,1,0,0:0:0:0:
192,0,150378,1,0,0:0:0:0:
64,0,150441,1,0,0:0:0:0:
320,0,150505,1,0,0:0:0:0:
448,0,150505,1,0,0:0:0:0:
64,0,150569,1,0,0:0:0:0:
192,0,150631,1,0,0:0:0:0:
64,0,150695,1,0,0:0:0:0:
192,0,150759,1,0,0:0:0:0:
448,0,150759,1,0,0:0:0:0:
320,0,150822,1,0,0:0:0:0:
64,0,150885,1,0,0:0:0:0:
192,0,150949,1,0,0:0:0:0:
64,0,151012,1,0,0:0:0:0:
448,0,151012,1,0,0:0:0:0:
320,0,151076,1,0,0:0:0:0:
448,0,151139,1,0,0:0:0:0:
64,0,151202,1,0,0:0:0:0:
192,0,151266,1,0,0:0:0:0:
320,0,151266,1,0,0:0:0:0:
448,0,151330,1,0,0:0:0:0:
64,0,151392,1,0,0:0:0:0:
448,0,151456,1,0,0:0:0:0:
192,0,151520,1,0,0:0:0:0:
320,0,151520,1,0,0:0:0:0:
448,0,151583,1,0,0:0:0:0:
64,0,151646,1,0,0:0:0:0:
448,0,151710,1,0,0:0:0:0:
64,0,151773,1,0,0:0:0:0:
192,0,151773,1,0,0:0:0:0:
320,0,151837,1,0,0:0:0:0:
448,0,151900,1,0,0:0:0:0:
320,0,151963,1,0,0:0:0:0:
64,0,152027,1,0,0:0:0:0:
192,0,152027,1,0,0:0:0:0:
448,0,152090,1,0,0:0:0:0:
192,0,152153,1,0,0:0:0:0:
320,0,152153,1,0,0:0:0:0:
64,0,152217,1,0,0:0:0:0:
320,0,152280,1,0,0:0:0:0:
448,0,152280,1,0,0:0:0:0:
192,0,152344,1,0,0:0:0:0:
64,0,152407,1,0,0:0:0:0:
192,0,152470,1,0,0:0:0:0:
320,0,152534,1,0,0:0:0:0:
448,0,152534,1,0,0:0:0:0:
192,0,152598,1,0,0:0:0:0:
64,0,152660,1,0,0:0:0:0:
192,0,152724,1,0,0:0:0:0:
320,0,152788,1,0,0:0:0:0:
448,0,152788,1,0,0:0:0:0:
192,0,152851,1,0,0:0:0:0:
320,0,152914,1,0,0:0:0:0:
192,0,152978,1,0,0:0:0:0:
320,0,153041,1,0,0:0:0:0:
448,0,153041,1,0,0:0:0:0:
192,0,153105,1,0,0:0:0:0:
320,0,153168,1,0,0:0:0:0:
192,0,153231,1,0,0:0:0:0:
64,0,153295,1,0,0:0:0:0:
448,0,153421,1,0,0:0:0:0:
320,0,153421,128,0,153802:0:0:0:0:
64,0,153802,128,0,153929:0:0:0:0:
448,0,153929,1,0,0:0:0:0:
320,0,153992,1,0,0:0:0:0:
192,0,153992,1,0,0:0:0:0:
64,0,154056,1,0,0:0:0:0:
192,0,154120,1,0,0:0:0:0:
448,0,154182,1,0,0:0:0:0:
320,0,154246,1,0,0:0:0:0:
64,0,154310,1,0,0:0:0:0:
192,0,154310,1,0,0:0:0:0:
448,0,154310,1,0,0:0:0:0:
320,0,154373,1,0,0:0:0:0:
64,0,154436,1,0,0:0:0:0:
192,0,154436,1,0,0:0:0:0:
320,0,154500,1,0,0:0:0:0:
64,0,154563,1,0,0:0:0:0:
192,0,154563,1,0,0:0:0:0:
320,0,154627,1,0,0:0:0:0:
448,0,154627,1,0,0:0:0:0:
64,0,154690,1,0,0:0:0:0:
192,0,154753,1,0,0:0:0:0:
320,0,154817,1,0,0:0:0:0:
448,0,154817,1,0,0:0:0:0:
64,0,154880,1,0,0:0:0:0:
192,0,154944,1,0,0:0:0:0:
320,0,155007,1,0,0:0:0:0:
64,0,155070,1,0,0:0:0:0:
448,0,155070,1,0,0:0:0:0:
192,0,155134,1,0,0:0:0:0:
320,0,155198,1,0,0:0:0:0:
448,0,155260,1,0,0:0:0:0:
64,0,155324,1,0,0:0:0:0:
192,0,155324,1,0,0:0:0:0:
320,0,155388,1,0,0:0:0:0:
64,0,155451,1,0,0:0:0:0:
448,0,155451,1,0,0:0:0:0:
192,0,155514,1,0,0:0:0:0:
320,0,155578,1,0,0:0:0:0:
448,0,155578,1,0,0:0:0:0:
64,0,155641,1,0,0:0:0:0:
192,0,155641,1,0,0:0:0:0:
320,0,155705,1,0,0:0:0:0:
448,0,155768,1,0,0:0:0:0:
64,0,155831,1,0,0:0:0:0:
192,0,155831,1,0,0:0:0:0:
320,0,155895,1,0,0:0:0:0:
448,0,155959,1,0,0:0:0:0:
64,0,156021,1,0,0:0:0:0:
320,0,156085,1,0,0:0:0:0:
448,0,156085,1,0,0:0:0:0:
64,0,156149,1,0,0:0:0:0:
192,0,156149,1,0,0:0:0:0:
320,0,156212,1,0,0:0:0:0:
448,0,156212,1,0,0:0:0:0:
192,0,156275,1,0,0:0:0:0:
64,0,156339,1,0,0:0:0:0:
448,0,156339,1,0,0:0:0:0:
320,0,156402,1,0,0:0:0:0:
192,0,156466,1,0,0:0:0:0:
448,0,156466,1,0,0:0:0:0:
320,0,156529,1,0,0:0:0:0:
64,0,156592,1,0,0:0:0:0:
192,0,156592,1,0,0:0:0:0:
320,0,156656,1,0,0:0:0:0:
448,0,156656,1,0,0:0:0:0:
64,0,156720,1,0,0:0:0:0:
192,0,156782,1,0,0:0:0:0:
320,0,156846,1,0,0:0:0:0:
448,0,156846,1,0,0:0:0:0:
64,0,156910,1,0,0:0:0:0:
192,0,156973,1,0,0:0:0:0:
320,0,157036,1,0,0:0:0:0:
64,0,157100,1,0,0:0:0:0:
448,0,157100,1,0,0:0:0:0:
192,0,157163,1,0,0:0:0:0:
320,0,157227,1,0,0:0:0:0:
448,0,157290,1,0,0:0:0:0:
192,0,157353,1,0,0:0:0:0:
448,0,157417,1,0,0:0:0:0:
64,0,157480,1,0,0:0:0:0:
192,0,157480,1,0,0:0:0:0:
320,0,157543,1,0,0:0:0:0:
64,0,157607,1,0,0:0:0:0:
192,0,157607,1,0,0:0:0:0:
320,0,157670,1,0,0:0:0:0:
448,0,157670,1,0,0:0:0:0:
64,0,157734,1,0,0:0:0:0:
192,0,157797,1,0,0:0:0:0:
320,0,157860,1,0,0:0:0:0:
448,0,157860,1,0,0:0:0:0:
64,0,157924,1,0,0:0:0:0:
192,0,157988,1,0,0:0:0:0:
320,0,158050,1,0,0:0:0:0:
64,0,158114,1,0,0:0:0:0:
448,0,158114,1,0,0:0:0:0:
192,0,158178,1,0,0:0:0:0:
320,0,158178,1,0,0:0:0:0:
64,0,158241,1,0,0:0:0:0:
448,0,158241,1,0,0:0:0:0:
320,0,158304,1,0,0:0:0:0:
64,0,158368,1,0,0:0:0:0:
192,0,158368,1,0,0:0:0:0:
448,0,158431,1,0,0:0:0:0:
64,0,158495,1,0,0:0:0:0:
320,0,158495,1,0,0:0:0:0:
448,0,158558,1,0,0:0:0:0:
64,0,158621,1,0,0:0:0:0:
320,0,158621,1,0,0:0:0:0:
192,0,158685,1,0,0:0:0:0:
448,0,158685,1,0,0:0:0:0:
320,0,158749,1,0,0:0:0:0:
64,0,158811,1,0,0:0:0:0:
192,0,158875,1,0,0:0:0:0:
448,0,158875,1,0,0:0:0:0:
320,0,158939,1,0,0:0:0:0:
448,0,159002,1,0,0:0:0:0:
64,0,159066,1,0,0:0:0:0:
192,0,159129,1,0,0:0:0:0:
448,0,159129,1,0,0:0:0:0:
320,0,159192,1,0,0:0:0:0:
64,0,159256,1,0,0:0:0:0:
448,0,159320,1,0,0:0:0:0:
64,0,159382,1,0,0:0:0:0:
192,0,159382,1,0,0:0:0:0:
320,0,159446,1,0,0:0:0:0:
64,0,159510,1,0,0:0:0:0:
448,0,159510,1,0,0:0:0:0:
192,0,159573,1,0,0:0:0:0:
64,0,159636,1,0,0:0:0:0:
448,0,159636,1,0,0:0:0:0:
192,0,159700,1,0,0:0:0:0:
320,0,159700,1,0,0:0:0:0:
448,0,159763,1,0,0:0:0:0:
320,0,159827,1,0,0:0:0:0:
64,0,159890,1,0,0:0:0:0:
448,0,159890,1,0,0:0:0:0:
192,0,159953,1,0,0:0:0:0:
320,0,160017,1,0,0:0:0:0:
64,0,160080,1,0,0:0:0:0:
320,0,160143,1,0,0:0:0:0:
448,0,160143,1,0,0:0:0:0:
64,0,160207,1,0,0:0:0:0:
192,0,160207,1,0,0:0:0:0:
320,0,160270,1,0,0:0:0:0:
448,0,160270,1,0,0:0:0:0:
192,0,160334,1,0,0:0:0:0:
64,0,160397,1,0,0:0:0:0:
448,0,160397,1,0,0:0:0:0:
320,0,160460,1,0,0:0:0:0:
64,0,160524,1,0,0:0:0:0:
192,0,160524,1,0,0:0:0:0:
320,0,160588,1,0,0:0:0:0:
64,0,160650,1,0,0:0:0:0:
448,0,160650,1,0,0:0:0:0:
192,0,160714,1,0,0:0:0:0:
320,0,160714,1,0,0:0:0:0:
448,0,160778,1,0,0:0:0:0:
64,0,160841,1,0,0:0:0:0:
320,0,160904,1,0,0:0:0:0:
448,0,160904,1,0,0:0:0:0:
64,0,160968,1,0,0:0:0:0:
192,0,161031,1,0,0:0:0:0:
448,0,161095,1,0,0:0:0:0:
192,0,161158,1,0,0:0:0:0:
320,0,161158,1,0,0:0:0:0:
448,0,161221,1,0,0:0:0:0:
64,0,161285,1,0,0:0:0:0:
192,0,161349,1,0,0:0:0:0:
64,0,161411,1,0,0:0:0:0:
448,0,161411,1,0,0:0:0:0:
192,0,161475,1,0,0:0:0:0:
320,0,161539,1,0,0:0:0:0:
448,0,161539,1,0,0:0:0:0:
64,0,161602,1,0,0:0:0:0:
192,0,161665,1,0,0:0:0:0:
320,0,161665,1,0,0:0:0:0:
64,0,161729,1,0,0:0:0:0:
448,0,161729,1,0,0:0:0:0:
320,0,161792,1,0,0:0:0:0:
192,0,161856,1,0,0:0:0:0:
64,0,161919,1,0,0:0:0:0:
448,0,161919,1,0,0:0:0:0:
320,0,161982,1,0,0:0:0:0:
192,0,162046,1,0,0:0:0:0:
320,0,162110,1,0,0:0:0:0:
64,0,162172,1,0,0:0:0:0:
448,0,162172,1,0,0:0:0:0:
192,0,162236,1,0,0:0:0:0:
320,0,162236,1,0,0:0:0:0:
64,0,162300,1,0,0:0:0:0:
448,0,162300,1,0,0:0:0:0:
192,0,162363,1,0,0:0:0:0:
64,0,162426,1,0,0:0:0:0:
320,0,162426,1,0,0:0:0:0:
448,0,162426,1,0,0:0:0:0:
320,0,162553,1,0,0:0:0:0:
448,0,162553,1,0,0:0:0:0:
192,0,162617,1,0,0:0:0:0:
320,0,162680,1,0,0:0:0:0:
448,0,162680,1,0,0:0:0:0:
64,0,162743,1,0,0:0:0:0:
192,0,162743,1,0,0:0:0:0:
448,0,162807,1,0,0:0:0:0:
320,0,162870,1,0,0:0:0:0:
64,0,162933,1,0,0:0:0:0:
192,0,162933,1,0,0:0:0:0:
448,0,162997,1,0,0:0:0:0:
320,0,163060,1,0,0:0:0:0:
192,0,163124,1,0,0:0:0:0:
64,0,163187,1,0,0:0:0:0:
448,0,163187,1,0,0:0:0:0:
320,0,163250,1,0,0:0:0:0:
192,0,163314,1,0,0:0:0:0:
64,0,163378,1,0,0:0:0:0:
320,0,163440,1,0,0:0:0:0:
448,0,163440,1,0,0:0:0:0:
192,0,163504,1,0,0:0:0:0:
64,0,163568,1,0,0:0:0:0:
448,0,163568,1,0,0:0:0:0:
320,0,163631,1,0,0:0:0:0:
64,0,163695,1,0,0:0:0:0:
192,0,163695,1,0,0:0:0:0:
320,0,163758,1,0,0:0:0:0:
448,0,163758,1,0,0:0:0:0:
192,0,163821,1,0,0:0:0:0:
64,0,163885,1,0,0:0:0:0:
320,0,163949,1,0,0:0:0:0:
448,0,163949,1,0,0:0:0:0:
192,0,164011,1,0,0:0:0:0:
64,0,164075,1,0,0:0:0:0:
448,0,164139,1,0,0:0:0:0:
64,0,164202,1,0,0:0:0:0:
192,0,164202,1,0,0:0:0:0:
320,0,164265,1,0,0:0:0:0:
448,0,164265,1,0,0:0:0:0:
64,0,164329,1,0,0:0:0:0:
192,0,164329,1,0,0:0:0:0:
320,0,164392,1,0,0:0:0:0:
64,0,164456,1,0,0:0:0:0:
448,0,164456,1,0,0:0:0:0:
192,0,164519,1,0,0:0:0:0:
64,0,164582,1,0,0:0:0:0:
320,0,164582,1,0,0:0:0:0:
192,0,164646,1,0,0:0:0:0:
320,0,164710,1,0,0:0:0:0:
448,0,164710,1,0,0:0:0:0:
64,0,164772,1,0,0:0:0:0:
192,0,164772,1,0,0:0:0:0:
448,0,164836,1,0,0:0:0:0:
320,0,164900,1,0,0:0:0:0:
64,0,164963,1,0,0:0:0:0:
192,0,164963,1,0,0:0:0:0:
448,0,165026,1,0,0:0:0:0:
320,0,165090,1,0,0:0:0:0:
192,0,165153,1,0,0:0:0:0:
64,0,165217,1,0,0:0:0:0:
448,0,165217,1,0,0:0:0:0:
320,0,165280,1,0,0:0:0:0:
192,0,165343,1,0,0:0:0:0:
64,0,165407,1,0,0:0:0:0:
320,0,165470,1,0,0:0:0:0:
64,0,165533,1,0,0:0:0:0:
320,0,165597,1,0,0:0:0:0:
448,0,165597,1,0,0:0:0:0:
192,0,165660,1,0,0:0:0:0:
320,0,165724,1,0,0:0:0:0:
448,0,165724,1,0,0:0:0:0:
64,0,165787,1,0,0:0:0:0:
192,0,165787,1,0,0:0:0:0:
448,0,165850,1,0,0:0:0:0:
320,0,165914,1,0,0:0:0:0:
64,0,165978,1,0,0:0:0:0:
192,0,165978,1,0,0:0:0:0:
448,0,166040,1,0,0:0:0:0:
320,0,166104,1,0,0:0:0:0:
192,0,166168,1,0,0:0:0:0:
64,0,166231,1,0,0:0:0:0:
448,0,166231,1,0,0:0:0:0:
192,0,166294,1,0,0:0:0:0:
320,0,166294,1,0,0:0:0:0:
64,0,166358,1,0,0:0:0:0:
448,0,166358,1,0,0:0:0:0:
192,0,166421,1,0,0:0:0:0:
320,0,166485,1,0,0:0:0:0:
448,0,166485,1,0,0:0:0:0:
64,0,166548,1,0,0:0:0:0:
192,0,166611,1,0,0:0:0:0:
448,0,166611,1,0,0:0:0:0:
64,0,166675,1,0,0:0:0:0:
192,0,166739,1,0,0:0:0:0:
448,0,166739,1,0,0:0:0:0:
64,0,166801,1,0,0:0:0:0:
320,0,166801,1,0,0:0:0:0:
192,0,166865,1,0,0:0:0:0:
448,0,166929,1,0,0:0:0:0:
64,0,166992,1,0,0:0:0:0:
320,0,166992,1,0,0:0:0:0:
192,0,167055,1,0,0:0:0:0:
64,0,167119,1,0,0:0:0:0:
448,0,167182,1,0,0:0:0:0:
64,0,167246,1,0,0:0:0:0:
320,0,167246,1,0,0:0:0:0:
192,0,167309,1,0,0:0:0:0:
448,0,167372,1,0,0:0:0:0:
64,0,167436,1,0,0:0:0:0:
320,0,167500,1,0,0:0:0:0:
448,0,167500,1,0,0:0:0:0:
192,0,167562,1,0,0:0:0:0:
64,0,167626,1,0,0:0:0:0:
448,0,167626,1,0,0:0:0:0:
320,0,167690,1,0,0:0:0:0:
64,0,167753,1,0,0:0:0:0:
448,0,167753,1,0,0:0:0:0:
192,0,167816,1,0,0:0:0:0:
320,0,167816,1,0,0:0:0:0:
64,0,167880,1,0,0:0:0:0:
192,0,167943,1,0,0:0:0:0:
64,0,168007,1,0,0:0:0:0:
448,0,168007,1,0,0:0:0:0:
320,0,168070,1,0,0:0:0:0:
192,0,168133,1,0,0:0:0:0:
448,0,168197,1,0,0:0:0:0:
64,0,168260,1,0,0:0:0:0:
192,0,168260,1,0,0:0:0:0:
320,0,168324,1,0,0:0:0:0:
448,0,168324,1,0,0:0:0:0:
64,0,168387,1,0,0:0:0:0:
192,0,168387,1,0,0:0:0:0:
320,0,168450,1,0,0:0:0:0:
64,0,168514,1,0,0:0:0:0:
448,0,168514,1,0,0:0:0:0:
192,0,168578,1,0,0:0:0:0:
320,0,168640,1,0,0:0:0:0:
448,0,168640,1,0,0:0:0:0:
192,0,168704,1,0,0:0:0:0:
64,0,168768,1,0,0:0:0:0:
448,0,168768,1,0,0:0:0:0:
192,0,168831,1,0,0:0:0:0:
320,0,168831,1,0,0:0:0:0:
64,0,168894,1,0,0:0:0:0:
448,0,168894,1,0,0:0:0:0:
320,0,168958,1,0,0:0:0:0:
64,0,169021,1,0,0:0:0:0:
192,0,169021,1,0,0:0:0:0:
448,0,169085,1,0,0:0:0:0:
192,0,169148,1,0,0:0:0:0:
320,0,169148,1,0,0:0:0:0:
64,0,169211,1,0,0:0:0:0:
320,0,169275,1,0,0:0:0:0:
448,0,169275,1,0,0:0:0:0:
64,0,169339,1,0,0:0:0:0:
192,0,169401,1,0,0:0:0:0:
448,0,169401,1,0,0:0:0:0:
320,0,169465,1,0,0:0:0:0:
64,0,169529,1,0,0:0:0:0:
448,0,169529,1,0,0:0:0:0:
192,0,169592,1,0,0:0:0:0:
320,0,169592,1,0,0:0:0:0:
448,0,169655,1,0,0:0:0:0:
64,0,169719,1,0,0:0:0:0:
192,0,169719,1,0,0:0:0:0:
320,0,169782,1,0,0:0:0:0:
448,0,169846,1,0,0:0:0:0:
64,0,169846,1,0,0:0:0:0:
192,0,169909,1,0,0:0:0:0:
320,0,169972,1,0,0:0:0:0:
448,0,169972,1,0,0:0:0:0:
64,0,170036,1,0,0:0:0:0:
192,0,170100,1,0,0:0:0:0:
320,0,170100,1,0,0:0:0:0:
448,0,170162,1,0,0:0:0:0:
64,0,170226,1,0,0:0:0:0:
192,0,170226,1,0,0:0:0:0:
320,0,170290,1,0,0:0:0:0:
448,0,170353,1,0,0:0:0:0:
64,0,170353,1,0,0:0:0:0:
192,0,170416,1,0,0:0:0:0:
320,0,170480,1,0,0:0:0:0:
448,0,170480,1,0,0:0:0:0:
