osu file format v14

[General]
AudioFilename: audio.mp3
AudioLeadIn: 0
PreviewTime: 169644
Countdown: 0
SampleSet: Normal
StackLeniency: 0.7
Mode: 3
LetterboxInBreaks: 0
SpecialStyle: 0
WidescreenStoryboard: 0

[Editor]
Bookmarks: 56044,81644,94444,176044
DistanceSpacing: 0.8
BeatDivisor: 4
GridSize: 8
TimelineZoom: 1.4

[Metadata]
Title:Rockstar (with Sub Zero Project feat. DV8)
TitleUnicode:Rockstar (with Sub Zero Project feat. DV8)
Artist:Timmy Trumpet
ArtistUnicode:Timmy Trumpet
Creator:SitekX
Version:Party
Source:
Tags:hardstyle quadstream quad stream jack technical
BeatmapID:2157691
BeatmapSetID:915431

[Difficulty]
HPDrainRate:8
CircleSize:4
OverallDifficulty:8
ApproachRate:5
SliderMultiplier:1.4
SliderTickRate:1

[Events]
//Background and Video events
0,0,"6852111-party-wallpaper.jpg",0,0
//Break Periods
//Storyboard Layer 0 (Background)
//Storyboard Layer 1 (Fail)
//Storyboard Layer 2 (Pass)
//Storyboard Layer 3 (Foreground)
//Storyboard Layer 4 (Overlay)
//Storyboard Sound Samples

[TimingPoints]
4844,400,4,1,0,20,1,0
114177,468.75,4,1,0,20,1,0
114177,-85.4700854700855,4,1,0,20,0,0
159177,461.538461538462,4,1,0,20,1,0
159177,-86.9565217391304,4,1,0,20,0,0
161023,447.761194029851,4,1,0,20,1,0
161023,-89.2857142857143,4,1,0,20,0,0
162814,434.782608695652,4,1,0,20,1,0
162814,-91.743119266055,4,1,0,20,0,0
164553,422.535211267606,4,1,0,20,1,0
164553,-94.3396226415094,4,1,0,20,0,0
166243,413.793103448276,4,1,0,20,1,0
166243,-97.0873786407767,4,1,0,20,0,0
167898,408.163265306122,4,1,0,20,1,0
167898,-98.0392156862745,4,1,0,20,0,0
169530,402.684563758389,4,1,0,20,1,0
169530,-99.009900990099,4,1,0,20,0,0
175972,400,4,1,0,20,1,0
175972,-100,4,1,0,20,0,1
201572,-100,4,1,0,20,0,0

[HitObjects]
64,192,4844,5,0,0:0:0:0:
192,192,4944,1,0,0:0:0:0:
448,192,5044,1,0,0:0:0:0:
448,192,5144,1,0,0:0:0:0:
192,192,5244,1,0,0:0:0:0:
448,192,5344,1,0,0:0:0:0:
448,192,5444,1,0,0:0:0:0:
320,192,5544,1,0,0:0:0:0:
64,192,5644,1,0,0:0:0:0:
192,192,5744,1,0,0:0:0:0:
64,192,5844,1,0,0:0:0:0:
448,192,5944,1,0,0:0:0:0:
64,192,6044,1,0,0:0:0:0:
320,192,6144,1,0,0:0:0:0:
64,192,6244,1,0,0:0:0:0:
192,192,6344,1,0,0:0:0:0:
448,192,6444,1,0,0:0:0:0:
64,192,6544,1,0,0:0:0:0:
320,192,6644,1,0,0:0:0:0:
320,192,6744,1,0,0:0:0:0:
192,192,6844,1,0,0:0:0:0:
320,192,6944,1,0,0:0:0:0:
320,192,7044,1,0,0:0:0:0:
448,192,7144,1,0,0:0:0:0:
64,192,7244,1,0,0:0:0:0:
192,192,7344,1,0,0:0:0:0:
64,192,7444,1,0,0:0:0:0:
320,192,7544,1,0,0:0:0:0:
64,192,7644,1,0,0:0:0:0:
448,192,7744,1,0,0:0:0:0:
64,192,7844,1,0,0:0:0:0:
192,192,7944,1,0,0:0:0:0:
320,192,8044,1,0,0:0:0:0:
64,192,8144,1,0,0:0:0:0:
448,192,8244,1,0,0:0:0:0:
448,192,8344,1,0,0:0:0:0:
192,192,8444,1,0,0:0:0:0:
448,192,8544,1,0,0:0:0:0:
448,192,8644,1,0,0:0:0:0:
320,192,8744,1,0,0:0:0:0:
192,192,8844,1,0,0:0:0:0:
64,192,8944,1,0,0:0:0:0:
192,192,9044,1,0,0:0:0:0:
448,192,9144,1,0,0:0:0:0:
192,192,9244,1,0,0:0:0:0:
320,192,9344,1,0,0:0:0:0:
192,192,9444,1,0,0:0:0:0:
448,192,9544,1,0,0:0:0:0:
192,192,9644,1,0,0:0:0:0:
320,192,9744,1,0,0:0:0:0:
64,192,9844,1,0,0:0:0:0:
64,192,9944,1,0,0:0:0:0:
448,192,10044,1,0,0:0:0:0:
192,192,10144,1,0,0:0:0:0:
192,192,10244,1,0,0:0:0:0:
64,192,10344,1,0,0:0:0:0:
320,192,10444,1,0,0:0:0:0:
320,192,10544,1,0,0:0:0:0:
192,192,10644,1,0,0:0:0:0:
448,192,10744,1,0,0:0:0:0:
448,192,10844,1,0,0:0:0:0:
320,192,10944,1,0,0:0:0:0:
64,192,11044,1,0,0:0:0:0:
64,192,11144,1,0,0:0:0:0:
320,192,11244,1,0,0:0:0:0:
192,192,11344,1,0,0:0:0:0:
448,192,11444,1,0,0:0:0:0:
448,192,11544,1,0,0:0:0:0:
192,192,11644,1,0,0:0:0:0:
448,192,11744,1,0,0:0:0:0:
448,192,11844,1,0,0:0:0:0:
320,192,11944,1,0,0:0:0:0:
64,192,12044,1,0,0:0:0:0:
192,192,12144,1,0,0:0:0:0:
64,192,12244,1,0,0:0:0:0:
448,192,12344,1,0,0:0:0:0:
64,192,12444,1,0,0:0:0:0:
320,192,12544,1,0,0:0:0:0:
64,192,12644,1,0,0:0:0:0:
192,192,12744,1,0,0:0:0:0:
448,192,12844,1,0,0:0:0:0:
64,192,12944,1,0,0:0:0:0:
320,192,13044,1,0,0:0:0:0:
320,192,13144,1,0,0:0:0:0:
192,192,13244,1,0,0:0:0:0:
320,192,13344,1,0,0:0:0:0:
320,192,13444,1,0,0:0:0:0:
448,192,13544,1,0,0:0:0:0:
64,192,13644,1,0,0:0:0:0:
192,192,13744,1,0,0:0:0:0:
64,192,13844,1,0,0:0:0:0:
320,192,13944,1,0,0:0:0:0:
64,192,14044,1,0,0:0:0:0:
448,192,14144,1,0,0:0:0:0:
64,192,14244,1,0,0:0:0:0:
192,192,14344,1,0,0:0:0:0:
320,192,14444,1,0,0:0:0:0:
64,192,14544,1,0,0:0:0:0:
448,192,14644,1,0,0:0:0:0:
448,192,14744,1,0,0:0:0:0:
192,192,14844,1,0,0:0:0:0:
448,192,14944,1,0,0:0:0:0:
448,192,15044,1,0,0:0:0:0:
320,192,15144,1,0,0:0:0:0:
64,192,15244,1,0,0:0:0:0:
192,192,15344,1,0,0:0:0:0:
64,192,15444,1,0,0:0:0:0:
448,192,15544,1,0,0:0:0:0:
64,192,15644,1,0,0:0:0:0:
320,192,15744,1,0,0:0:0:0:
64,192,15844,1,0,0:0:0:0:
448,192,15944,1,0,0:0:0:0:
192,192,16044,1,0,0:0:0:0:
64,192,16144,1,0,0:0:0:0:
320,192,16244,1,0,0:0:0:0:
320,192,16344,1,0,0:0:0:0:
192,192,16444,1,0,0:0:0:0:
448,192,16544,1,0,0:0:0:0:
448,192,16644,1,0,0:0:0:0:
320,192,16744,1,0,0:0:0:0:
64,192,16844,1,0,0:0:0:0:
64,192,16944,1,0,0:0:0:0:
448,192,17044,1,0,0:0:0:0:
192,192,17144,1,0,0:0:0:0:
192,192,17244,1,0,0:0:0:0:
64,192,17344,1,0,0:0:0:0:
320,192,17444,1,0,0:0:0:0:
320,192,17544,1,0,0:0:0:0:
64,192,17644,1,0,0:0:0:0:
192,192,17644,1,0,0:0:0:0:
320,192,17744,1,0,0:0:0:0:
448,192,17844,1,0,0:0:0:0:
448,192,17944,1,0,0:0:0:0:
192,192,18044,1,0,0:0:0:0:
64,192,18044,1,0,0:0:0:0:
448,192,18144,1,0,0:0:0:0:
448,192,18244,1,0,0:0:0:0:
320,192,18344,1,0,0:0:0:0:
64,192,18444,1,0,0:0:0:0:
192,192,18444,1,0,0:0:0:0:
448,192,18544,1,0,0:0:0:0:
64,192,18644,1,0,0:0:0:0:
320,192,18744,1,0,0:0:0:0:
64,192,18844,1,0,0:0:0:0:
448,192,18844,1,0,0:0:0:0:
192,192,18944,1,0,0:0:0:0:
64,192,19044,1,0,0:0:0:0:
448,192,19144,1,0,0:0:0:0:
192,192,19244,1,0,0:0:0:0:
320,192,19244,1,0,0:0:0:0:
64,192,19344,1,0,0:0:0:0:
320,192,19444,1,0,0:0:0:0:
320,192,19544,1,0,0:0:0:0:
192,192,19644,1,0,0:0:0:0:
64,192,19644,1,0,0:0:0:0:
320,192,19744,1,0,0:0:0:0:
320,192,19844,1,0,0:0:0:0:
448,192,19944,1,0,0:0:0:0:
64,192,20044,1,0,0:0:0:0:
192,192,20044,1,0,0:0:0:0:
320,192,20144,1,0,0:0:0:0:
64,192,20244,1,0,0:0:0:0:
448,192,20344,1,0,0:0:0:0:
64,192,20444,1,0,0:0:0:0:
320,192,20444,1,0,0:0:0:0:
192,192,20544,1,0,0:0:0:0:
64,192,20644,1,0,0:0:0:0:
320,192,20744,1,0,0:0:0:0:
448,192,20844,1,0,0:0:0:0:
192,192,20844,1,0,0:0:0:0:
64,192,20944,1,0,0:0:0:0:
448,192,21044,1,0,0:0:0:0:
448,192,21144,1,0,0:0:0:0:
192,192,21244,1,0,0:0:0:0:
64,192,21244,1,0,0:0:0:0:
448,192,21344,1,0,0:0:0:0:
448,192,21444,1,0,0:0:0:0:
320,192,21544,1,0,0:0:0:0:
192,192,21644,1,0,0:0:0:0:
448,192,21644,1,0,0:0:0:0:
64,192,21744,1,0,0:0:0:0:
192,192,21844,1,0,0:0:0:0:
448,192,21944,1,0,0:0:0:0:
192,192,22044,1,0,0:0:0:0:
64,192,22044,1,0,0:0:0:0:
320,192,22144,1,0,0:0:0:0:
192,192,22244,1,0,0:0:0:0:
448,192,22344,1,0,0:0:0:0:
192,192,22444,1,0,0:0:0:0:
64,192,22444,1,0,0:0:0:0:
320,192,22544,1,0,0:0:0:0:
64,192,22644,1,0,0:0:0:0:
64,192,22744,1,0,0:0:0:0:
448,192,22844,1,0,0:0:0:0:
320,192,22844,1,0,0:0:0:0:
192,192,22944,1,0,0:0:0:0:
192,192,23044,1,0,0:0:0:0:
64,192,23144,1,0,0:0:0:0:
320,192,23244,1,0,0:0:0:0:
448,192,23244,1,0,0:0:0:0:
320,192,23344,1,0,0:0:0:0:
192,192,23444,1,0,0:0:0:0:
448,192,23544,1,0,0:0:0:0:
448,192,23644,1,0,0:0:0:0:
64,192,23644,1,0,0:0:0:0:
320,192,23744,1,0,0:0:0:0:
192,192,23844,1,0,0:0:0:0:
192,192,23944,1,0,0:0:0:0:
64,192,24044,1,0,0:0:0:0:
448,192,24044,1,0,0:0:0:0:
192,192,24144,1,0,0:0:0:0:
320,192,24244,1,0,0:0:0:0:
320,192,24344,1,0,0:0:0:0:
192,192,24444,1,0,0:0:0:0:
64,192,24444,1,0,0:0:0:0:
320,192,24544,1,0,0:0:0:0:
320,192,24644,1,0,0:0:0:0:
448,192,24744,1,0,0:0:0:0:
320,192,24844,1,0,0:0:0:0:
192,192,24844,1,0,0:0:0:0:
448,192,24944,1,0,0:0:0:0:
64,192,25044,1,0,0:0:0:0:
320,192,25144,1,0,0:0:0:0:
64,192,25244,1,0,0:0:0:0:
448,192,25244,1,0,0:0:0:0:
192,192,25344,1,0,0:0:0:0:
64,192,25444,1,0,0:0:0:0:
448,192,25544,1,0,0:0:0:0:
64,192,25644,1,0,0:0:0:0:
320,192,25644,1,0,0:0:0:0:
192,192,25744,1,0,0:0:0:0:
320,192,25844,1,0,0:0:0:0:
320,192,25944,1,0,0:0:0:0:
192,192,26044,1,0,0:0:0:0:
64,192,26044,1,0,0:0:0:0:
320,192,26144,1,0,0:0:0:0:
320,192,26244,1,0,0:0:0:0:
448,192,26344,1,0,0:0:0:0:
64,192,26444,1,0,0:0:0:0:
192,192,26444,1,0,0:0:0:0:
320,192,26544,1,0,0:0:0:0:
64,192,26644,1,0,0:0:0:0:
448,192,26744,1,0,0:0:0:0:
64,192,26844,1,0,0:0:0:0:
192,192,26944,1,0,0:0:0:0:
64,192,27044,1,0,0:0:0:0:
320,192,27144,1,0,0:0:0:0:
448,192,27244,1,0,0:0:0:0:
192,192,27244,1,0,0:0:0:0:
192,192,27344,1,0,0:0:0:0:
64,192,27444,1,0,0:0:0:0:
64,192,27544,1,0,0:0:0:0:
320,192,27644,1,0,0:0:0:0:
320,192,27744,1,0,0:0:0:0:
448,192,27844,1,0,0:0:0:0:
448,192,27944,1,0,0:0:0:0:
64,192,28044,1,0,0:0:0:0:
64,192,28144,1,0,0:0:0:0:
192,192,28244,1,0,0:0:0:0:
192,192,28344,1,0,0:0:0:0:
448,192,28444,1,0,0:0:0:0:
448,192,28544,1,0,0:0:0:0:
320,192,28644,1,0,0:0:0:0:
320,192,28744,1,0,0:0:0:0:
192,192,28844,1,0,0:0:0:0:
192,192,28944,1,0,0:0:0:0:
192,192,29044,1,0,0:0:0:0:
192,192,29144,1,0,0:0:0:0:
320,192,29244,1,0,0:0:0:0:
320,192,29344,1,0,0:0:0:0:
320,192,29444,1,0,0:0:0:0:
320,192,29544,1,0,0:0:0:0:
64,192,29644,1,0,0:0:0:0:
64,192,29744,1,0,0:0:0:0:
64,192,29844,1,0,0:0:0:0:
64,192,29944,1,0,0:0:0:0:
448,192,30044,1,0,0:0:0:0:
64,192,30444,1,0,0:0:0:0:
448,192,30444,1,0,0:0:0:0:
192,192,30644,1,0,0:0:0:0:
320,192,30644,1,0,0:0:0:0:
448,192,30644,1,0,0:0:0:0:
64,192,30844,1,0,0:0:0:0:
320,192,30844,1,0,0:0:0:0:
64,192,31044,1,0,0:0:0:0:
320,192,31044,1,0,0:0:0:0:
192,192,31044,1,0,0:0:0:0:
448,192,31244,1,0,0:0:0:0:
192,192,31244,1,0,0:0:0:0:
64,192,31644,1,0,0:0:0:0:
320,192,31644,1,0,0:0:0:0:
64,192,32044,1,0,0:0:0:0:
448,192,32044,1,0,0:0:0:0:
320,192,32444,1,0,0:0:0:0:
448,192,32444,1,0,0:0:0:0:
192,192,32844,1,0,0:0:0:0:
64,192,32844,1,0,0:0:0:0:
192,192,33244,1,0,0:0:0:0:
448,192,33244,1,0,0:0:0:0:
320,192,33644,1,0,0:0:0:0:
448,192,33644,1,0,0:0:0:0:
64,192,33644,1,0,0:0:0:0:
320,192,34044,1,0,0:0:0:0:
192,192,34044,1,0,0:0:0:0:
64,192,34444,1,0,0:0:0:0:
320,192,34444,1,0,0:0:0:0:
192,192,34844,1,0,0:0:0:0:
448,192,34844,1,0,0:0:0:0:
448,192,35244,1,0,0:0:0:0:
64,192,35244,1,0,0:0:0:0:
192,192,35244,1,0,0:0:0:0:
192,192,35644,1,0,0:0:0:0:
192,192,35744,1,0,0:0:0:0:
192,192,35844,1,0,0:0:0:0:
192,192,35944,1,0,0:0:0:0:
64,192,36044,1,0,0:0:0:0:
320,192,36044,1,0,0:0:0:0:
320,192,36144,1,0,0:0:0:0:
320,192,36244,1,0,0:0:0:0:
320,192,36344,1,0,0:0:0:0:
448,192,36444,1,0,0:0:0:0:
192,192,36444,1,0,0:0:0:0:
192,192,36844,1,0,0:0:0:0:
320,192,36844,1,0,0:0:0:0:
448,192,36844,1,0,0:0:0:0:
64,192,37244,1,0,0:0:0:0:
320,192,37244,1,0,0:0:0:0:
192,192,37644,1,0,0:0:0:0:
448,192,37644,1,0,0:0:0:0:
192,192,38044,1,0,0:0:0:0:
320,192,38044,1,0,0:0:0:0:
320,192,38444,1,0,0:0:0:0:
64,192,38444,1,0,0:0:0:0:
64,192,38544,1,0,0:0:0:0:
64,192,38644,1,0,0:0:0:0:
64,192,38744,1,0,0:0:0:0:
320,192,38844,1,0,0:0:0:0:
320,192,38944,1,0,0:0:0:0:
320,192,39044,1,0,0:0:0:0:
320,192,39144,1,0,0:0:0:0:
192,192,39244,1,0,0:0:0:0:
192,192,39344,1,0,0:0:0:0:
192,192,39444,1,0,0:0:0:0:
192,192,39544,1,0,0:0:0:0:
64,192,39644,1,0,0:0:0:0:
448,192,39644,1,0,0:0:0:0:
192,192,40044,1,0,0:0:0:0:
320,192,40044,1,0,0:0:0:0:
64,192,40044,1,0,0:0:0:0:
192,192,40444,1,0,0:0:0:0:
448,192,40444,1,0,0:0:0:0:
64,192,40844,1,0,0:0:0:0:
320,192,40844,1,0,0:0:0:0:
192,192,41244,1,0,0:0:0:0:
320,192,41244,1,0,0:0:0:0:
192,192,41644,1,0,0:0:0:0:
448,192,41644,1,0,0:0:0:0:
448,192,41744,1,0,0:0:0:0:
448,192,41844,1,0,0:0:0:0:
448,192,41944,1,0,0:0:0:0:
192,192,42044,1,0,0:0:0:0:
192,192,42144,1,0,0:0:0:0:
192,192,42244,1,0,0:0:0:0:
192,192,42344,1,0,0:0:0:0:
320,192,42444,1,0,0:0:0:0:
448,192,42444,1,0,0:0:0:0:
64,192,42644,1,0,0:0:0:0:
192,192,42710,1,0,0:0:0:0:
320,192,42777,1,0,0:0:0:0:
64,192,42844,1,0,0:0:0:0:
448,192,42844,1,0,0:0:0:0:
320,192,43044,1,0,0:0:0:0:
64,192,43244,1,0,0:0:0:0:
192,192,43244,1,0,0:0:0:0:
448,192,43244,1,0,0:0:0:0:
192,192,43444,1,0,0:0:0:0:
320,192,43644,1,0,0:0:0:0:
448,192,43644,1,0,0:0:0:0:
64,192,43644,1,0,0:0:0:0:
320,192,43844,1,0,0:0:0:0:
192,192,44044,1,0,0:0:0:0:
64,192,44044,1,0,0:0:0:0:
448,192,44044,1,0,0:0:0:0:
192,192,44444,1,0,0:0:0:0:
320,192,44444,1,0,0:0:0:0:
448,192,44444,1,0,0:0:0:0:
192,192,44844,1,0,0:0:0:0:
64,192,44844,1,0,0:0:0:0:
448,192,44844,1,0,0:0:0:0:
192,192,45044,1,0,0:0:0:0:
64,192,45244,1,0,0:0:0:0:
320,192,45244,1,0,0:0:0:0:
448,192,45244,1,0,0:0:0:0:
448,192,45444,1,0,0:0:0:0:
320,192,45644,1,0,0:0:0:0:
192,192,45644,1,0,0:0:0:0:
64,192,45644,1,0,0:0:0:0:
192,192,45844,1,0,0:0:0:0:
320,192,46044,1,0,0:0:0:0:
448,192,46110,1,0,0:0:0:0:
192,192,46177,1,0,0:0:0:0:
64,192,46244,1,0,0:0:0:0:
448,192,46444,1,0,0:0:0:0:
320,192,46444,1,0,0:0:0:0:
192,192,46444,1,0,0:0:0:0:
320,192,46644,1,0,0:0:0:0:
64,192,46844,1,0,0:0:0:0:
192,192,46844,1,0,0:0:0:0:
448,192,46844,1,0,0:0:0:0:
192,192,47044,1,0,0:0:0:0:
320,192,47244,1,0,0:0:0:0:
448,192,47244,1,0,0:0:0:0:
64,192,47244,1,0,0:0:0:0:
448,192,47444,1,0,0:0:0:0:
64,192,47444,1,0,0:0:0:0:
64,192,47644,1,0,0:0:0:0:
192,192,47644,1,0,0:0:0:0:
320,192,47644,1,0,0:0:0:0:
192,192,47844,1,0,0:0:0:0:
320,192,47844,1,0,0:0:0:0:
64,192,48044,1,0,0:0:0:0:
320,192,48044,1,0,0:0:0:0:
448,192,48044,1,0,0:0:0:0:
64,192,48244,1,0,0:0:0:0:
320,192,48444,1,0,0:0:0:0:
448,192,48444,1,0,0:0:0:0:
192,192,48444,1,0,0:0:0:0:
448,192,48644,1,0,0:0:0:0:
320,192,48844,1,0,0:0:0:0:
192,192,48844,1,0,0:0:0:0:
64,192,48844,1,0,0:0:0:0:
192,192,49044,1,0,0:0:0:0:
448,192,49144,1,0,0:0:0:0:
448,192,49244,1,0,0:0:0:0:
448,192,49344,1,0,0:0:0:0:
448,192,49444,1,0,0:0:0:0:
448,192,49544,1,0,0:0:0:0:
64,192,49644,1,0,0:0:0:0:
192,192,49644,1,0,0:0:0:0:
320,192,49644,1,0,0:0:0:0:
448,192,49744,1,0,0:0:0:0:
192,192,49844,1,0,0:0:0:0:
64,192,49944,1,0,0:0:0:0:
64,192,50044,1,0,0:0:0:0:
64,192,50144,1,0,0:0:0:0:
320,192,50244,1,0,0:0:0:0:
448,192,50344,1,0,0:0:0:0:
448,192,50444,1,0,0:0:0:0:
448,192,50544,1,0,0:0:0:0:
64,192,50644,1,0,0:0:0:0:
192,192,50744,1,0,0:0:0:0:
192,192,50844,1,0,0:0:0:0:
192,192,50944,1,0,0:0:0:0:
448,192,51044,1,0,0:0:0:0:
320,192,51144,1,0,0:0:0:0:
320,192,51244,1,0,0:0:0:0:
192,192,51344,1,0,0:0:0:0:
448,192,51444,1,0,0:0:0:0:
64,192,51544,1,0,0:0:0:0:
64,192,51644,1,0,0:0:0:0:
320,192,51744,1,0,0:0:0:0:
192,192,51844,1,0,0:0:0:0:
448,192,51944,1,0,0:0:0:0:
64,192,52044,1,0,0:0:0:0:
320,192,52144,1,0,0:0:0:0:
448,192,52244,1,0,0:0:0:0:
192,192,52344,1,0,0:0:0:0:
64,192,52444,1,0,0:0:0:0:
448,192,52544,1,0,0:0:0:0:
192,192,52644,1,0,0:0:0:0:
320,192,52744,1,0,0:0:0:0:
64,192,52844,1,0,0:0:0:0:
192,192,52944,1,0,0:0:0:0:
320,192,53044,1,0,0:0:0:0:
448,192,53144,1,0,0:0:0:0:
192,192,53244,1,0,0:0:0:0:
320,192,53344,1,0,0:0:0:0:
448,192,53444,1,0,0:0:0:0:
64,192,53544,1,0,0:0:0:0:
192,192,53644,1,0,0:0:0:0:
320,192,53744,1,0,0:0:0:0:
64,192,53844,1,0,0:0:0:0:
448,192,53944,1,0,0:0:0:0:
192,192,54044,1,0,0:0:0:0:
320,192,54144,1,0,0:0:0:0:
64,192,54244,1,0,0:0:0:0:
448,192,54344,1,0,0:0:0:0:
192,192,54444,128,0,54544:0:0:0:0:
320,192,54444,128,0,54544:0:0:0:0:
64,192,54444,128,0,54544:0:0:0:0:
192,192,54644,128,0,54744:0:0:0:0:
320,192,54644,128,0,54744:0:0:0:0:
64,192,54644,128,0,54744:0:0:0:0:
192,192,54844,128,0,54944:0:0:0:0:
320,192,54844,128,0,54944:0:0:0:0:
448,192,54844,128,0,54944:0:0:0:0:
448,192,55044,128,0,55144:0:0:0:0:
320,192,55044,128,0,55144:0:0:0:0:
192,192,55044,1,0,0:0:0:0:
64,192,55244,128,0,55544:0:0:0:0:
320,192,55244,128,0,55544:0:0:0:0:
448,192,55244,128,0,55544:0:0:0:0:
64,192,55644,128,0,55944:0:0:0:0:
192,192,55644,128,0,55944:0:0:0:0:
448,192,55644,1,0,0:0:0:0:
320,192,55644,128,0,55944:0:0:0:0:
192,192,56044,1,0,0:0:0:0:
320,192,56044,1,0,0:0:0:0:
448,192,56044,1,0,0:0:0:0:
64,192,56144,1,0,0:0:0:0:
320,192,56244,1,0,0:0:0:0:
192,192,56344,1,0,0:0:0:0:
448,192,56444,1,0,0:0:0:0:
64,192,56444,1,0,0:0:0:0:
320,192,56444,1,0,0:0:0:0:
192,192,56544,1,0,0:0:0:0:
448,192,56644,1,0,0:0:0:0:
320,192,56744,1,0,0:0:0:0:
64,192,56844,1,0,0:0:0:0:
192,192,56844,1,0,0:0:0:0:
448,192,56844,1,0,0:0:0:0:
320,192,56944,1,0,0:0:0:0:
192,192,57044,1,0,0:0:0:0:
448,192,57144,1,0,0:0:0:0:
320,192,57244,1,0,0:0:0:0:
192,192,57244,1,0,0:0:0:0:
64,192,57244,1,0,0:0:0:0:
448,192,57344,1,0,0:0:0:0:
64,192,57444,128,0,57544:0:0:0:0:
320,192,57544,1,0,0:0:0:0:
192,192,57644,1,0,0:0:0:0:
64,192,57644,1,0,0:0:0:0:
448,192,57644,1,0,0:0:0:0:
320,192,57744,128,0,57844:0:0:0:0:
64,192,57844,1,0,0:0:0:0:
192,192,57944,1,0,0:0:0:0:
320,192,58044,1,0,0:0:0:0:
448,192,58044,1,0,0:0:0:0:
64,192,58044,1,0,0:0:0:0:
192,192,58144,1,0,0:0:0:0:
320,192,58244,128,0,58344:0:0:0:0:
448,192,58344,1,0,0:0:0:0:
320,192,58444,1,0,0:0:0:0:
192,192,58444,1,0,0:0:0:0:
64,192,58444,1,0,0:0:0:0:
448,192,58544,128,0,58644:0:0:0:0:
64,192,58644,1,0,0:0:0:0:
320,192,58744,1,0,0:0:0:0:
192,192,58844,1,0,0:0:0:0:
64,192,58844,1,0,0:0:0:0:
448,192,58844,1,0,0:0:0:0:
320,192,58944,1,0,0:0:0:0:
64,192,59044,1,0,0:0:0:0:
192,192,59044,1,0,0:0:0:0:
320,192,59144,1,0,0:0:0:0:
64,192,59244,1,0,0:0:0:0:
192,192,59244,1,0,0:0:0:0:
448,192,59344,1,0,0:0:0:0:
320,192,59444,1,0,0:0:0:0:
64,192,59544,1,0,0:0:0:0:
192,192,59644,1,0,0:0:0:0:
320,192,59644,1,0,0:0:0:0:
448,192,59644,1,0,0:0:0:0:
64,192,59744,1,0,0:0:0:0:
320,192,59844,1,0,0:0:0:0:
192,192,59944,1,0,0:0:0:0:
448,192,60044,1,0,0:0:0:0:
64,192,60044,1,0,0:0:0:0:
320,192,60044,1,0,0:0:0:0:
192,192,60144,1,0,0:0:0:0:
448,192,60244,1,0,0:0:0:0:
320,192,60344,1,0,0:0:0:0:
64,192,60444,1,0,0:0:0:0:
192,192,60444,1,0,0:0:0:0:
448,192,60444,1,0,0:0:0:0:
320,192,60544,1,0,0:0:0:0:
192,192,60644,128,0,60744:0:0:0:0:
448,192,60744,1,0,0:0:0:0:
320,192,60844,1,0,0:0:0:0:
192,192,60844,1,0,0:0:0:0:
64,192,60844,1,0,0:0:0:0:
448,192,60944,128,0,61044:0:0:0:0:
64,192,61044,1,0,0:0:0:0:
320,192,61144,1,0,0:0:0:0:
192,192,61244,1,0,0:0:0:0:
64,192,61244,1,0,0:0:0:0:
448,192,61244,1,0,0:0:0:0:
320,192,61344,1,0,0:0:0:0:
64,192,61444,128,0,61544:0:0:0:0:
192,192,61544,1,0,0:0:0:0:
320,192,61644,1,0,0:0:0:0:
448,192,61644,1,0,0:0:0:0:
64,192,61644,1,0,0:0:0:0:
192,192,61744,128,0,61844:0:0:0:0:
320,192,61844,1,0,0:0:0:0:
448,192,61944,1,0,0:0:0:0:
64,192,62044,1,0,0:0:0:0:
192,192,62094,1,0,0:0:0:0:
448,192,62144,1,0,0:0:0:0:
320,192,62194,1,0,0:0:0:0:
192,192,62244,1,0,0:0:0:0:
64,192,62294,1,0,0:0:0:0:
448,192,62344,1,0,0:0:0:0:
320,192,62394,1,0,0:0:0:0:
192,192,62444,1,0,0:0:0:0:
64,192,62444,1,0,0:0:0:0:
448,192,62544,1,0,0:0:0:0:
64,192,62644,1,0,0:0:0:0:
192,192,62744,1,0,0:0:0:0:
320,192,62844,1,0,0:0:0:0:
64,192,62844,1,0,0:0:0:0:
448,192,62844,1,0,0:0:0:0:
192,192,62944,1,0,0:0:0:0:
320,192,63044,1,0,0:0:0:0:
64,192,63144,1,0,0:0:0:0:
448,192,63244,1,0,0:0:0:0:
320,192,63244,1,0,0:0:0:0:
192,192,63244,1,0,0:0:0:0:
64,192,63344,1,0,0:0:0:0:
320,192,63444,1,0,0:0:0:0:
192,192,63544,1,0,0:0:0:0:
320,192,63644,1,0,0:0:0:0:
64,192,63644,1,0,0:0:0:0:
448,192,63644,1,0,0:0:0:0:
192,192,63744,1,0,0:0:0:0:
448,192,63844,128,0,63944:0:0:0:0:
320,192,63944,1,0,0:0:0:0:
448,192,64044,1,0,0:0:0:0:
192,192,64044,1,0,0:0:0:0:
64,192,64044,1,0,0:0:0:0:
320,192,64144,128,0,64244:0:0:0:0:
192,192,64244,1,0,0:0:0:0:
448,192,64344,1,0,0:0:0:0:
64,192,64444,1,0,0:0:0:0:
192,192,64444,1,0,0:0:0:0:
320,192,64444,1,0,0:0:0:0:
448,192,64544,1,0,0:0:0:0:
64,192,64644,128,0,64744:0:0:0:0:
320,192,64744,1,0,0:0:0:0:
448,192,64844,1,0,0:0:0:0:
64,192,64844,1,0,0:0:0:0:
192,192,64844,1,0,0:0:0:0:
320,192,64944,128,0,65044:0:0:0:0:
64,192,65044,1,0,0:0:0:0:
192,192,65144,1,0,0:0:0:0:
64,192,65244,1,0,0:0:0:0:
448,192,65244,1,0,0:0:0:0:
320,192,65244,1,0,0:0:0:0:
192,192,65344,1,0,0:0:0:0:
320,192,65444,1,0,0:0:0:0:
448,192,65444,1,0,0:0:0:0:
448,192,65544,1,0,0:0:0:0:
320,192,65544,1,0,0:0:0:0:
320,192,65644,1,0,0:0:0:0:
448,192,65644,1,0,0:0:0:0:
64,192,65644,1,0,0:0:0:0:
192,192,65744,1,0,0:0:0:0:
64,192,65844,1,0,0:0:0:0:
320,192,65944,1,0,0:0:0:0:
448,192,66044,1,0,0:0:0:0:
64,192,66044,1,0,0:0:0:0:
192,192,66044,1,0,0:0:0:0:
320,192,66144,1,0,0:0:0:0:
64,192,66244,1,0,0:0:0:0:
192,192,66344,1,0,0:0:0:0:
448,192,66444,1,0,0:0:0:0:
64,192,66444,1,0,0:0:0:0:
320,192,66444,1,0,0:0:0:0:
192,192,66544,1,0,0:0:0:0:
320,192,66644,1,0,0:0:0:0:
64,192,66744,1,0,0:0:0:0:
192,192,66844,1,0,0:0:0:0:
320,192,66844,1,0,0:0:0:0:
448,192,66844,1,0,0:0:0:0:
64,192,66944,1,0,0:0:0:0:
320,192,67044,128,0,67144:0:0:0:0:
192,192,67144,1,0,0:0:0:0:
448,192,67244,1,0,0:0:0:0:
320,192,67294,1,0,0:0:0:0:
192,192,67344,1,0,0:0:0:0:
64,192,67394,1,0,0:0:0:0:
448,192,67444,1,0,0:0:0:0:
320,192,67494,1,0,0:0:0:0:
64,192,67544,1,0,0:0:0:0:
192,192,67594,1,0,0:0:0:0:
320,192,67644,1,0,0:0:0:0:
448,192,67694,1,0,0:0:0:0:
64,192,67744,1,0,0:0:0:0:
192,192,67794,1,0,0:0:0:0:
448,192,67844,1,0,0:0:0:0:
320,192,67894,1,0,0:0:0:0:
192,192,67944,1,0,0:0:0:0:
64,192,67994,1,0,0:0:0:0:
448,192,68044,1,0,0:0:0:0:
320,192,68094,1,0,0:0:0:0:
64,192,68144,1,0,0:0:0:0:
192,192,68194,1,0,0:0:0:0:
320,192,68244,1,0,0:0:0:0:
448,192,68244,1,0,0:0:0:0:
320,192,68444,1,0,0:0:0:0:
192,192,68444,1,0,0:0:0:0:
192,192,68644,1,0,0:0:0:0:
64,192,68644,1,0,0:0:0:0:
448,192,68644,1,0,0:0:0:0:
320,192,68844,1,0,0:0:0:0:
448,192,68844,1,0,0:0:0:0:
64,192,68844,1,0,0:0:0:0:
192,192,68944,1,0,0:0:0:0:
320,192,69044,1,0,0:0:0:0:
64,192,69044,1,0,0:0:0:0:
448,192,69144,1,0,0:0:0:0:
320,192,69244,1,0,0:0:0:0:
192,192,69244,1,0,0:0:0:0:
64,192,69244,1,0,0:0:0:0:
448,192,69344,1,0,0:0:0:0:
64,192,69444,1,0,0:0:0:0:
192,192,69444,1,0,0:0:0:0:
320,192,69544,1,0,0:0:0:0:
192,192,69644,1,0,0:0:0:0:
64,192,69644,1,0,0:0:0:0:
448,192,69644,1,0,0:0:0:0:
320,192,69744,1,0,0:0:0:0:
64,192,69844,1,0,0:0:0:0:
448,192,69844,1,0,0:0:0:0:
192,192,69944,1,0,0:0:0:0:
320,192,70044,1,0,0:0:0:0:
64,192,70044,1,0,0:0:0:0:
448,192,70044,1,0,0:0:0:0:
192,192,70144,1,0,0:0:0:0:
448,192,70244,1,0,0:0:0:0:
320,192,70244,128,0,70344:0:0:0:0:
64,192,70344,1,0,0:0:0:0:
448,192,70444,1,0,0:0:0:0:
320,192,70444,1,0,0:0:0:0:
192,192,70444,1,0,0:0:0:0:
64,192,70544,128,0,70644:0:0:0:0:
320,192,70644,1,0,0:0:0:0:
192,192,70644,1,0,0:0:0:0:
448,192,70744,1,0,0:0:0:0:
320,192,70844,1,0,0:0:0:0:
64,192,70844,1,0,0:0:0:0:
192,192,70844,1,0,0:0:0:0:
448,192,70944,1,0,0:0:0:0:
192,192,71044,1,0,0:0:0:0:
64,192,71044,128,0,71144:0:0:0:0:
320,192,71144,1,0,0:0:0:0:
448,192,71244,1,0,0:0:0:0:
192,192,71244,1,0,0:0:0:0:
64,192,71244,1,0,0:0:0:0:
320,192,71344,128,0,71444:0:0:0:0:
192,192,71444,1,0,0:0:0:0:
448,192,71444,1,0,0:0:0:0:
64,192,71544,1,0,0:0:0:0:
192,192,71644,1,0,0:0:0:0:
320,192,71644,1,0,0:0:0:0:
448,192,71644,1,0,0:0:0:0:
192,192,71844,1,0,0:0:0:0:
448,192,71844,1,0,0:0:0:0:
320,192,71844,1,0,0:0:0:0:
448,192,72044,1,0,0:0:0:0:
320,192,72044,1,0,0:0:0:0:
192,192,72044,1,0,0:0:0:0:
64,192,72144,1,0,0:0:0:0:
448,192,72244,1,0,0:0:0:0:
192,192,72244,1,0,0:0:0:0:
320,192,72344,1,0,0:0:0:0:
64,192,72444,1,0,0:0:0:0:
448,192,72444,1,0,0:0:0:0:
192,192,72444,1,0,0:0:0:0:
320,192,72544,1,0,0:0:0:0:
64,192,72644,1,0,0:0:0:0:
192,192,72644,1,0,0:0:0:0:
448,192,72744,1,0,0:0:0:0:
64,192,72844,1,0,0:0:0:0:
192,192,72844,1,0,0:0:0:0:
320,192,72844,1,0,0:0:0:0:
448,192,72944,1,0,0:0:0:0:
64,192,73044,1,0,0:0:0:0:
192,192,73044,1,0,0:0:0:0:
320,192,73144,1,0,0:0:0:0:
448,192,73244,1,0,0:0:0:0:
64,192,73244,1,0,0:0:0:0:
192,192,73244,1,0,0:0:0:0:
320,192,73344,1,0,0:0:0:0:
448,192,73444,1,0,0:0:0:0:
64,192,73444,128,0,73544:0:0:0:0:
192,192,73544,1,0,0:0:0:0:
448,192,73644,1,0,0:0:0:0:
64,192,73644,1,0,0:0:0:0:
320,192,73644,1,0,0:0:0:0:
192,192,73744,128,0,73844:0:0:0:0:
320,192,73844,1,0,0:0:0:0:
448,192,73844,1,0,0:0:0:0:
64,192,73944,1,0,0:0:0:0:
192,192,74044,1,0,0:0:0:0:
320,192,74044,1,0,0:0:0:0:
448,192,74044,1,0,0:0:0:0:
64,192,74144,1,0,0:0:0:0:
448,192,74244,128,0,74344:0:0:0:0:
192,192,74244,1,0,0:0:0:0:
320,192,74344,1,0,0:0:0:0:
448,192,74444,1,0,0:0:0:0:
64,192,74444,1,0,0:0:0:0:
192,192,74444,1,0,0:0:0:0:
320,192,74544,128,0,74644:0:0:0:0:
448,192,74644,1,0,0:0:0:0:
64,192,74644,1,0,0:0:0:0:
192,192,74744,1,0,0:0:0:0:
448,192,74844,1,0,0:0:0:0:
320,192,74894,1,0,0:0:0:0:
192,192,74944,1,0,0:0:0:0:
64,192,74994,1,0,0:0:0:0:
448,192,75044,1,0,0:0:0:0:
320,192,75094,1,0,0:0:0:0:
192,192,75144,1,0,0:0:0:0:
64,192,75194,1,0,0:0:0:0:
320,192,75244,1,0,0:0:0:0:
448,192,75244,1,0,0:0:0:0:
192,192,75344,1,0,0:0:0:0:
64,192,75444,1,0,0:0:0:0:
320,192,75444,1,0,0:0:0:0:
448,192,75544,1,0,0:0:0:0:
192,192,75644,1,0,0:0:0:0:
64,192,75644,1,0,0:0:0:0:
320,192,75644,1,0,0:0:0:0:
448,192,75744,1,0,0:0:0:0:
64,192,75844,1,0,0:0:0:0:
320,192,75844,1,0,0:0:0:0:
192,192,75944,1,0,0:0:0:0:
320,192,76044,1,0,0:0:0:0:
448,192,76044,1,0,0:0:0:0:
64,192,76044,1,0,0:0:0:0:
192,192,76144,1,0,0:0:0:0:
320,192,76244,1,0,0:0:0:0:
448,192,76244,1,0,0:0:0:0:
64,192,76344,1,0,0:0:0:0:
320,192,76444,1,0,0:0:0:0:
192,192,76444,1,0,0:0:0:0:
448,192,76444,1,0,0:0:0:0:
64,192,76544,1,0,0:0:0:0:
448,192,76644,1,0,0:0:0:0:
192,192,76644,128,0,76744:0:0:0:0:
320,192,76744,1,0,0:0:0:0:
192,192,76844,1,0,0:0:0:0:
64,192,76844,1,0,0:0:0:0:
448,192,76844,1,0,0:0:0:0:
320,192,76944,128,0,77044:0:0:0:0:
64,192,77044,1,0,0:0:0:0:
448,192,77044,1,0,0:0:0:0:
192,192,77144,1,0,0:0:0:0:
320,192,77244,1,0,0:0:0:0:
64,192,77244,1,0,0:0:0:0:
448,192,77244,1,0,0:0:0:0:
192,192,77344,1,0,0:0:0:0:
448,192,77444,1,0,0:0:0:0:
320,192,77444,128,0,77544:0:0:0:0:
64,192,77544,1,0,0:0:0:0:
448,192,77644,1,0,0:0:0:0:
320,192,77644,1,0,0:0:0:0:
192,192,77644,1,0,0:0:0:0:
64,192,77744,128,0,77844:0:0:0:0:
448,192,77844,1,0,0:0:0:0:
192,192,77844,1,0,0:0:0:0:
320,192,77944,1,0,0:0:0:0:
64,192,78044,1,0,0:0:0:0:
448,192,78044,1,0,0:0:0:0:
192,192,78044,1,0,0:0:0:0:
320,192,78144,1,0,0:0:0:0:
64,192,78244,1,0,0:0:0:0:
192,192,78244,1,0,0:0:0:0:
192,192,78344,1,0,0:0:0:0:
64,192,78344,1,0,0:0:0:0:
64,192,78444,1,0,0:0:0:0:
192,192,78444,1,0,0:0:0:0:
448,192,78444,1,0,0:0:0:0:
320,192,78544,1,0,0:0:0:0:
64,192,78644,1,0,0:0:0:0:
192,192,78644,1,0,0:0:0:0:
320,192,78744,1,0,0:0:0:0:
448,192,78844,1,0,0:0:0:0:
64,192,78844,1,0,0:0:0:0:
192,192,78844,1,0,0:0:0:0:
320,192,78944,1,0,0:0:0:0:
64,192,79044,1,0,0:0:0:0:
448,192,79044,1,0,0:0:0:0:
192,192,79144,1,0,0:0:0:0:
448,192,79244,1,0,0:0:0:0:
64,192,79244,1,0,0:0:0:0:
320,192,79244,1,0,0:0:0:0:
192,192,79344,1,0,0:0:0:0:
320,192,79444,1,0,0:0:0:0:
448,192,79444,1,0,0:0:0:0:
64,192,79544,1,0,0:0:0:0:
192,192,79644,1,0,0:0:0:0:
320,192,79644,1,0,0:0:0:0:
448,192,79644,1,0,0:0:0:0:
64,192,79744,1,0,0:0:0:0:
448,192,79844,1,0,0:0:0:0:
320,192,79844,128,0,79944:0:0:0:0:
192,192,79944,1,0,0:0:0:0:
448,192,80044,1,0,0:0:0:0:
320,192,80094,1,0,0:0:0:0:
192,192,80144,1,0,0:0:0:0:
64,192,80194,1,0,0:0:0:0:
448,192,80244,1,0,0:0:0:0:
320,192,80294,1,0,0:0:0:0:
192,192,80344,1,0,0:0:0:0:
64,192,80394,1,0,0:0:0:0:
320,192,80444,1,0,0:0:0:0:
448,192,80494,1,0,0:0:0:0:
64,192,80544,1,0,0:0:0:0:
192,192,80594,1,0,0:0:0:0:
320,192,80644,1,0,0:0:0:0:
448,192,80694,1,0,0:0:0:0:
64,192,80744,1,0,0:0:0:0:
192,192,80794,1,0,0:0:0:0:
320,192,80844,1,0,0:0:0:0:
64,192,80894,1,0,0:0:0:0:
448,192,80944,1,0,0:0:0:0:
192,192,80994,1,0,0:0:0:0:
320,192,81044,1,0,0:0:0:0:
64,192,81094,1,0,0:0:0:0:
448,192,81144,1,0,0:0:0:0:
192,192,81194,1,0,0:0:0:0:
320,192,81244,1,0,0:0:0:0:
64,192,81294,1,0,0:0:0:0:
448,192,81344,1,0,0:0:0:0:
192,192,81394,1,0,0:0:0:0:
320,192,81444,1,0,0:0:0:0:
64,192,81494,1,0,0:0:0:0:
448,192,81544,1,0,0:0:0:0:
192,192,81594,1,0,0:0:0:0:
64,192,81644,1,0,0:0:0:0:
320,192,81644,1,0,0:0:0:0:
448,192,81710,1,0,0:0:0:0:
192,192,81777,1,0,0:0:0:0:
64,192,81844,1,0,0:0:0:0:
448,192,81910,1,0,0:0:0:0:
320,192,81977,1,0,0:0:0:0:
192,192,82044,1,0,0:0:0:0:
448,192,82110,1,0,0:0:0:0:
64,192,82177,1,0,0:0:0:0:
320,192,82244,1,0,0:0:0:0:
192,192,82310,1,0,0:0:0:0:
448,192,82377,1,0,0:0:0:0:
64,192,82444,1,0,0:0:0:0:
320,192,82444,1,0,0:0:0:0:
192,192,82510,1,0,0:0:0:0:
320,192,82577,1,0,0:0:0:0:
448,192,82644,1,0,0:0:0:0:
192,192,82710,1,0,0:0:0:0:
64,192,82777,1,0,0:0:0:0:
320,192,82844,1,0,0:0:0:0:
192,192,82844,1,0,0:0:0:0:
448,192,82844,1,0,0:0:0:0:
64,192,82910,1,0,0:0:0:0:
320,192,82977,1,0,0:0:0:0:
448,192,83044,1,0,0:0:0:0:
192,192,83110,1,0,0:0:0:0:
320,192,83177,1,0,0:0:0:0:
64,192,83244,1,0,0:0:0:0:
448,192,83310,1,0,0:0:0:0:
320,192,83377,1,0,0:0:0:0:
192,192,83444,1,0,0:0:0:0:
64,192,83510,1,0,0:0:0:0:
320,192,83577,1,0,0:0:0:0:
448,192,83644,1,0,0:0:0:0:
192,192,83644,1,0,0:0:0:0:
64,192,83644,1,0,0:0:0:0:
320,192,83710,1,0,0:0:0:0:
192,192,83777,1,0,0:0:0:0:
448,192,83844,1,0,0:0:0:0:
320,192,83910,1,0,0:0:0:0:
64,192,83977,1,0,0:0:0:0:
192,192,84044,1,0,0:0:0:0:
320,192,84044,1,0,0:0:0:0:
448,192,84110,1,0,0:0:0:0:
64,192,84177,1,0,0:0:0:0:
448,192,84244,1,0,0:0:0:0:
64,192,84310,1,0,0:0:0:0:
448,192,84377,1,0,0:0:0:0:
64,192,84444,1,0,0:0:0:0:
320,192,84494,1,0,0:0:0:0:
448,192,84544,1,0,0:0:0:0:
192,192,84594,1,0,0:0:0:0:
64,192,84644,1,0,0:0:0:0:
448,192,84694,1,0,0:0:0:0:
320,192,84744,1,0,0:0:0:0:
192,192,84794,1,0,0:0:0:0:
448,192,84844,1,0,0:0:0:0:
64,192,84844,1,0,0:0:0:0:
320,192,84894,1,0,0:0:0:0:
192,192,84944,1,0,0:0:0:0:
64,192,84994,1,0,0:0:0:0:
320,192,85044,1,0,0:0:0:0:
448,192,85094,1,0,0:0:0:0:
64,192,85144,1,0,0:0:0:0:
192,192,85194,1,0,0:0:0:0:
448,192,85244,1,0,0:0:0:0:
320,192,85310,1,0,0:0:0:0:
192,192,85377,1,0,0:0:0:0:
64,192,85444,1,0,0:0:0:0:
320,192,85510,1,0,0:0:0:0:
448,192,85577,1,0,0:0:0:0:
192,192,85644,1,0,0:0:0:0:
64,192,85644,1,0,0:0:0:0:
320,192,85710,1,0,0:0:0:0:
64,192,85777,1,0,0:0:0:0:
448,192,85844,1,0,0:0:0:0:
320,192,85910,1,0,0:0:0:0:
64,192,85977,1,0,0:0:0:0:
192,192,86044,1,0,0:0:0:0:
448,192,86044,1,0,0:0:0:0:
320,192,86044,1,0,0:0:0:0:
64,192,86110,1,0,0:0:0:0:
448,192,86177,1,0,0:0:0:0:
320,192,86244,1,0,0:0:0:0:
64,192,86310,1,0,0:0:0:0:
192,192,86377,1,0,0:0:0:0:
320,192,86444,1,0,0:0:0:0:
448,192,86444,1,0,0:0:0:0:
64,192,86644,1,0,0:0:0:0:
64,192,86744,1,0,0:0:0:0:
192,192,86844,1,0,0:0:0:0:
192,192,86944,1,0,0:0:0:0:
320,192,87044,1,0,0:0:0:0:
320,192,87144,1,0,0:0:0:0:
448,192,87244,1,0,0:0:0:0:
192,192,87244,1,0,0:0:0:0:
448,192,87344,1,0,0:0:0:0:
64,192,87444,1,0,0:0:0:0:
64,192,87544,1,0,0:0:0:0:
192,192,87644,1,0,0:0:0:0:
192,192,87744,1,0,0:0:0:0:
320,192,87844,1,0,0:0:0:0:
320,192,87944,1,0,0:0:0:0:
64,192,88044,1,0,0:0:0:0:
192,192,88110,1,0,0:0:0:0:
448,192,88177,1,0,0:0:0:0:
320,192,88244,1,0,0:0:0:0:
64,192,88310,1,0,0:0:0:0:
192,192,88377,1,0,0:0:0:0:
320,192,88444,1,0,0:0:0:0:
64,192,88510,1,0,0:0:0:0:
448,192,88577,1,0,0:0:0:0:
192,192,88644,1,0,0:0:0:0:
320,192,88710,1,0,0:0:0:0:
64,192,88777,1,0,0:0:0:0:
448,192,88844,1,0,0:0:0:0:
192,192,88844,1,0,0:0:0:0:
320,192,88910,1,0,0:0:0:0:
192,192,88977,1,0,0:0:0:0:
64,192,89044,1,0,0:0:0:0:
320,192,89110,1,0,0:0:0:0:
448,192,89177,1,0,0:0:0:0:
192,192,89244,1,0,0:0:0:0:
320,192,89244,1,0,0:0:0:0:
64,192,89244,1,0,0:0:0:0:
448,192,89310,1,0,0:0:0:0:
192,192,89377,1,0,0:0:0:0:
64,192,89444,1,0,0:0:0:0:
320,192,89510,1,0,0:0:0:0:
192,192,89577,1,0,0:0:0:0:
448,192,89644,1,0,0:0:0:0:
64,192,89710,1,0,0:0:0:0:
192,192,89777,1,0,0:0:0:0:
320,192,89844,1,0,0:0:0:0:
448,192,89910,1,0,0:0:0:0:
64,192,89977,1,0,0:0:0:0:
192,192,90044,1,0,0:0:0:0:
320,192,90044,1,0,0:0:0:0:
448,192,90044,1,0,0:0:0:0:
64,192,90110,1,0,0:0:0:0:
448,192,90177,1,0,0:0:0:0:
192,192,90244,1,0,0:0:0:0:
320,192,90310,1,0,0:0:0:0:
64,192,90377,1,0,0:0:0:0:
448,192,90444,1,0,0:0:0:0:
64,192,90510,1,0,0:0:0:0:
320,192,90577,1,0,0:0:0:0:
192,192,90644,1,0,0:0:0:0:
320,192,90710,1,0,0:0:0:0:
192,192,90777,1,0,0:0:0:0:
320,192,90844,1,0,0:0:0:0:
192,192,90910,1,0,0:0:0:0:
320,192,90977,1,0,0:0:0:0:
448,192,91044,1,0,0:0:0:0:
64,192,91094,1,0,0:0:0:0:
192,192,91144,1,0,0:0:0:0:
320,192,91194,1,0,0:0:0:0:
64,192,91244,1,0,0:0:0:0:
448,192,91244,1,0,0:0:0:0:
192,192,91294,1,0,0:0:0:0:
320,192,91344,1,0,0:0:0:0:
448,192,91394,1,0,0:0:0:0:
192,192,91444,1,0,0:0:0:0:
64,192,91494,1,0,0:0:0:0:
448,192,91544,1,0,0:0:0:0:
320,192,91594,1,0,0:0:0:0:
64,192,91644,1,0,0:0:0:0:
192,192,91710,1,0,0:0:0:0:
320,192,91777,1,0,0:0:0:0:
448,192,91844,1,0,0:0:0:0:
192,192,91910,1,0,0:0:0:0:
64,192,91977,1,0,0:0:0:0:
320,192,92044,1,0,0:0:0:0:
448,192,92044,1,0,0:0:0:0:
192,192,92110,1,0,0:0:0:0:
448,192,92177,1,0,0:0:0:0:
64,192,92244,1,0,0:0:0:0:
192,192,92310,1,0,0:0:0:0:
448,192,92377,1,0,0:0:0:0:
320,192,92444,1,0,0:0:0:0:
64,192,92444,1,0,0:0:0:0:
192,192,92444,1,0,0:0:0:0:
448,192,92510,1,0,0:0:0:0:
192,192,92577,1,0,0:0:0:0:
64,192,92644,1,0,0:0:0:0:
320,192,92710,1,0,0:0:0:0:
192,192,92777,1,0,0:0:0:0:
448,192,92844,1,0,0:0:0:0:
320,192,92894,1,0,0:0:0:0:
192,192,92944,1,0,0:0:0:0:
64,192,92994,1,0,0:0:0:0:
448,192,93044,1,0,0:0:0:0:
320,192,93094,1,0,0:0:0:0:
192,192,93144,1,0,0:0:0:0:
64,192,93194,1,0,0:0:0:0:
320,192,93244,1,0,0:0:0:0:
448,192,93294,1,0,0:0:0:0:
64,192,93344,1,0,0:0:0:0:
192,192,93394,1,0,0:0:0:0:
320,192,93444,1,0,0:0:0:0:
448,192,93494,1,0,0:0:0:0:
64,192,93544,1,0,0:0:0:0:
192,192,93594,1,0,0:0:0:0:
320,192,93644,1,0,0:0:0:0:
64,192,93694,1,0,0:0:0:0:
448,192,93744,1,0,0:0:0:0:
192,192,93794,1,0,0:0:0:0:
320,192,93844,1,0,0:0:0:0:
64,192,93894,1,0,0:0:0:0:
448,192,93944,1,0,0:0:0:0:
192,192,93994,1,0,0:0:0:0:
320,192,94044,1,0,0:0:0:0:
64,192,94094,1,0,0:0:0:0:
448,192,94144,1,0,0:0:0:0:
192,192,94194,1,0,0:0:0:0:
320,192,94244,1,0,0:0:0:0:
64,192,94294,1,0,0:0:0:0:
448,192,94344,1,0,0:0:0:0:
192,192,94394,1,0,0:0:0:0:
64,192,94444,1,0,0:0:0:0:
320,192,94444,128,0,99244:0:0:0:0:
192,192,99344,1,0,0:0:0:0:
320,192,99444,1,0,0:0:0:0:
192,192,99544,1,0,0:0:0:0:
320,192,99644,1,0,0:0:0:0:
192,192,99744,5,0,0:0:0:0:
320,192,99844,1,0,0:0:0:0:
192,192,99944,1,0,0:0:0:0:
320,192,100044,1,0,0:0:0:0:
192,192,100144,1,0,0:0:0:0:
320,192,100244,1,0,0:0:0:0:
192,192,100344,1,0,0:0:0:0:
320,192,100444,1,0,0:0:0:0:
192,192,100544,1,0,0:0:0:0:
320,192,100644,1,0,0:0:0:0:
192,192,100744,1,0,0:0:0:0:
64,192,100844,5,0,0:0:0:0:
320,192,100844,1,0,0:0:0:0:
192,192,100944,1,0,0:0:0:0:
448,192,101044,1,0,0:0:0:0:
448,192,101144,1,0,0:0:0:0:
192,192,101244,1,0,0:0:0:0:
448,192,101344,1,0,0:0:0:0:
448,192,101444,1,0,0:0:0:0:
320,192,101544,1,0,0:0:0:0:
64,192,101644,1,0,0:0:0:0:
192,192,101744,1,0,0:0:0:0:
64,192,101844,1,0,0:0:0:0:
448,192,101944,1,0,0:0:0:0:
64,192,102044,1,0,0:0:0:0:
320,192,102144,1,0,0:0:0:0:
64,192,102244,1,0,0:0:0:0:
192,192,102344,1,0,0:0:0:0:
448,192,102444,1,0,0:0:0:0:
64,192,102544,1,0,0:0:0:0:
320,192,102644,1,0,0:0:0:0:
320,192,102744,1,0,0:0:0:0:
192,192,102844,1,0,0:0:0:0:
320,192,102944,1,0,0:0:0:0:
320,192,103044,1,0,0:0:0:0:
448,192,103144,1,0,0:0:0:0:
64,192,103244,1,0,0:0:0:0:
192,192,103344,1,0,0:0:0:0:
64,192,103444,1,0,0:0:0:0:
320,192,103544,1,0,0:0:0:0:
64,192,103644,1,0,0:0:0:0:
448,192,103744,1,0,0:0:0:0:
64,192,103844,1,0,0:0:0:0:
192,192,103944,1,0,0:0:0:0:
320,192,104044,1,0,0:0:0:0:
64,192,104144,1,0,0:0:0:0:
448,192,104244,1,0,0:0:0:0:
448,192,104344,1,0,0:0:0:0:
192,192,104444,1,0,0:0:0:0:
448,192,104544,1,0,0:0:0:0:
448,192,104644,1,0,0:0:0:0:
320,192,104744,1,0,0:0:0:0:
192,192,104844,1,0,0:0:0:0:
64,192,104944,1,0,0:0:0:0:
192,192,105044,1,0,0:0:0:0:
448,192,105144,1,0,0:0:0:0:
192,192,105244,1,0,0:0:0:0:
320,192,105344,1,0,0:0:0:0:
192,192,105444,1,0,0:0:0:0:
448,192,105544,1,0,0:0:0:0:
192,192,105644,1,0,0:0:0:0:
320,192,105744,1,0,0:0:0:0:
64,192,105844,1,0,0:0:0:0:
64,192,105944,1,0,0:0:0:0:
448,192,106044,1,0,0:0:0:0:
192,192,106144,1,0,0:0:0:0:
192,192,106244,1,0,0:0:0:0:
64,192,106344,1,0,0:0:0:0:
320,192,106444,1,0,0:0:0:0:
320,192,106544,1,0,0:0:0:0:
192,192,106644,1,0,0:0:0:0:
448,192,106744,1,0,0:0:0:0:
448,192,106844,1,0,0:0:0:0:
320,192,106944,1,0,0:0:0:0:
64,192,107044,1,0,0:0:0:0:
64,192,107144,1,0,0:0:0:0:
320,192,107244,1,0,0:0:0:0:
448,192,107244,128,0,110444:0:0:0:0:
64,192,110444,128,0,113644:0:0:0:0:
64,192,114177,128,0,114411:0:0:0:0:
448,192,114411,128,0,114645:0:0:0:0:
448,192,114762,128,0,114997:0:0:0:0:
448,192,115114,128,0,115583:0:0:0:0:
320,192,115348,128,0,115817:0:0:0:0:
192,192,115583,128,0,116052:0:0:0:0:
64,192,115817,128,0,116052:0:0:0:0:
320,192,116052,128,0,116286:0:0:0:0:
448,192,116286,128,0,116520:0:0:0:0:
448,192,116637,128,0,116872:0:0:0:0:
448,192,116989,128,0,117458:0:0:0:0:
320,192,117223,128,0,117927:0:0:0:0:
192,192,117458,128,0,117927:0:0:0:0:
64,192,117927,128,0,118161:0:0:0:0:
448,192,118161,128,0,118395:0:0:0:0:
448,192,118512,128,0,118747:0:0:0:0:
448,192,118864,128,0,119333:0:0:0:0:
192,192,119098,128,0,119567:0:0:0:0:
320,192,119333,128,0,119802:0:0:0:0:
64,192,119567,128,0,119802:0:0:0:0:
192,192,119802,128,0,120036:0:0:0:0:
448,192,120036,128,0,120270:0:0:0:0:
448,192,120387,128,0,120622:0:0:0:0:
448,192,120739,128,0,121208:0:0:0:0:
192,192,120973,128,0,121442:0:0:0:0:
320,192,121208,128,0,121677:0:0:0:0:
64,192,121677,128,0,121911:0:0:0:0:
192,192,121677,1,0,0:0:0:0:
448,192,121911,128,0,122145:0:0:0:0:
448,192,122262,128,0,122497:0:0:0:0:
448,192,122614,128,0,123083:0:0:0:0:
320,192,122848,128,0,123317:0:0:0:0:
192,192,123083,128,0,123552:0:0:0:0:
64,192,123317,128,0,123552:0:0:0:0:
320,192,123552,128,0,123786:0:0:0:0:
448,192,123786,128,0,124020:0:0:0:0:
448,192,124137,128,0,124372:0:0:0:0:
448,192,124489,128,0,124958:0:0:0:0:
320,192,124723,128,0,125192:0:0:0:0:
64,192,124958,128,0,125427:0:0:0:0:
192,192,125427,128,0,125661:0:0:0:0:
448,192,125661,128,0,125895:0:0:0:0:
448,192,126012,128,0,126247:0:0:0:0:
448,192,126364,128,0,126833:0:0:0:0:
64,192,126598,128,0,127067:0:0:0:0:
320,192,126833,128,0,127302:0:0:0:0:
192,192,127067,128,0,127302:0:0:0:0:
64,192,127302,128,0,127536:0:0:0:0:
448,192,127536,128,0,127770:0:0:0:0:
448,192,127887,128,0,128122:0:0:0:0:
448,192,128239,128,0,128708:0:0:0:0:
64,192,128473,128,0,128942:0:0:0:0:
192,192,128708,128,0,129177:0:0:0:0:
64,192,129177,128,0,129411:0:0:0:0:
448,192,129177,1,0,0:0:0:0:
320,192,129177,128,0,129294:0:0:0:0:
448,192,129411,128,0,129645:0:0:0:0:
320,192,129411,128,0,129645:0:0:0:0:
192,192,129645,1,0,0:0:0:0:
448,192,129762,128,0,129997:0:0:0:0:
320,192,129762,128,0,129997:0:0:0:0:
448,192,130114,128,0,130348:0:0:0:0:
320,192,130114,128,0,130583:0:0:0:0:
64,192,130114,1,0,0:0:0:0:
192,192,130348,128,0,130817:0:0:0:0:
64,192,130583,128,0,131052:0:0:0:0:
448,192,130583,1,0,0:0:0:0:
320,192,130817,128,0,131286:0:0:0:0:
192,192,131052,128,0,131520:0:0:0:0:
448,192,131052,1,0,0:0:0:0:
448,192,131286,128,0,131520:0:0:0:0:
64,192,131520,1,0,0:0:0:0:
448,192,131637,128,0,131872:0:0:0:0:
192,192,131637,128,0,131872:0:0:0:0:
448,192,131989,128,0,132223:0:0:0:0:
192,192,131989,128,0,132223:0:0:0:0:
320,192,131989,1,0,0:0:0:0:
320,192,132223,128,0,132458:0:0:0:0:
64,192,132223,128,0,133161:0:0:0:0:
192,192,132458,128,0,132927:0:0:0:0:
448,192,132458,1,0,0:0:0:0:
448,192,132927,128,0,133044:0:0:0:0:
320,192,132927,1,0,0:0:0:0:
448,192,133161,128,0,133395:0:0:0:0:
192,192,133161,128,0,133395:0:0:0:0:
64,192,133395,1,0,0:0:0:0:
448,192,133512,128,0,133747:0:0:0:0:
192,192,133512,128,0,133747:0:0:0:0:
448,192,133864,128,0,134098:0:0:0:0:
192,192,133864,128,0,134333:0:0:0:0:
64,192,133864,1,0,0:0:0:0:
320,192,134098,128,0,134567:0:0:0:0:
64,192,134333,128,0,134802:0:0:0:0:
448,192,134333,1,0,0:0:0:0:
192,192,134567,128,0,135036:0:0:0:0:
320,192,134802,128,0,135270:0:0:0:0:
448,192,134802,1,0,0:0:0:0:
448,192,135036,128,0,135270:0:0:0:0:
192,192,135270,1,0,0:0:0:0:
448,192,135387,128,0,135622:0:0:0:0:
320,192,135387,128,0,135622:0:0:0:0:
448,192,135739,128,0,135973:0:0:0:0:
320,192,135739,128,0,135973:0:0:0:0:
64,192,135739,1,0,0:0:0:0:
192,192,135973,128,0,136208:0:0:0:0:
64,192,135973,128,0,136911:0:0:0:0:
448,192,136208,128,0,136677:0:0:0:0:
320,192,136208,1,0,0:0:0:0:
192,192,136677,128,0,136911:0:0:0:0:
320,192,136677,1,0,0:0:0:0:
448,192,136911,128,0,137145:0:0:0:0:
320,192,136911,128,0,137145:0:0:0:0:
192,192,137145,1,0,0:0:0:0:
448,192,137262,128,0,137497:0:0:0:0:
320,192,137262,128,0,137497:0:0:0:0:
448,192,137614,128,0,137848:0:0:0:0:
320,192,137614,128,0,138083:0:0:0:0:
64,192,137614,1,0,0:0:0:0:
192,192,137848,128,0,138317:0:0:0:0:
64,192,138083,128,0,138552:0:0:0:0:
448,192,138083,1,0,0:0:0:0:
320,192,138317,128,0,138786:0:0:0:0:
192,192,138552,128,0,139020:0:0:0:0:
448,192,138552,1,0,0:0:0:0:
448,192,138786,128,0,139020:0:0:0:0:
64,192,139020,1,0,0:0:0:0:
448,192,139137,128,0,139372:0:0:0:0:
192,192,139137,128,0,139372:0:0:0:0:
448,192,139489,128,0,139723:0:0:0:0:
192,192,139489,128,0,139958:0:0:0:0:
320,192,139489,1,0,0:0:0:0:
64,192,139723,128,0,140661:0:0:0:0:
320,192,139958,128,0,140427:0:0:0:0:
448,192,139958,1,0,0:0:0:0:
448,192,140427,128,0,140544:0:0:0:0:
192,192,140427,1,0,0:0:0:0:
448,192,140661,128,0,140895:0:0:0:0:
192,192,140661,128,0,140895:0:0:0:0:
64,192,140895,1,0,0:0:0:0:
448,192,141012,128,0,141247:0:0:0:0:
192,192,141012,128,0,141247:0:0:0:0:
448,192,141364,128,0,141598:0:0:0:0:
192,192,141364,128,0,141833:0:0:0:0:
64,192,141364,1,0,0:0:0:0:
320,192,141598,128,0,142067:0:0:0:0:
64,192,141833,128,0,142302:0:0:0:0:
448,192,141833,1,0,0:0:0:0:
192,192,142067,128,0,142536:0:0:0:0:
320,192,142302,128,0,142770:0:0:0:0:
448,192,142302,1,0,0:0:0:0:
448,192,142536,128,0,142770:0:0:0:0:
192,192,142770,1,0,0:0:0:0:
448,192,142887,128,0,143122:0:0:0:0:
320,192,142887,128,0,143122:0:0:0:0:
448,192,143239,128,0,143473:0:0:0:0:
320,192,143239,128,0,143473:0:0:0:0:
64,192,143239,1,0,0:0:0:0:
192,192,143473,128,0,143708:0:0:0:0:
64,192,143473,128,0,144177:0:0:0:0:
320,192,143708,128,0,144059:0:0:0:0:
448,192,143708,1,0,0:0:0:0:
192,192,144177,1,0,0:0:0:0:
320,192,144177,1,0,0:0:0:0:
448,192,144177,1,0,0:0:0:0:
64,192,144294,1,0,0:0:0:0:
192,192,144411,1,0,0:0:0:0:
320,192,144528,1,0,0:0:0:0:
448,192,144645,1,0,0:0:0:0:
64,192,144645,1,0,0:0:0:0:
192,192,144762,1,0,0:0:0:0:
320,192,144880,1,0,0:0:0:0:
192,192,144997,1,0,0:0:0:0:
64,192,145114,1,0,0:0:0:0:
448,192,145114,1,0,0:0:0:0:
320,192,145231,1,0,0:0:0:0:
64,192,145348,1,0,0:0:0:0:
192,192,145466,1,0,0:0:0:0:
448,192,145583,1,0,0:0:0:0:
64,192,145583,1,0,0:0:0:0:
320,192,145700,1,0,0:0:0:0:
448,192,145817,1,0,0:0:0:0:
192,192,145934,1,0,0:0:0:0:
64,192,146052,1,0,0:0:0:0:
320,192,146052,1,0,0:0:0:0:
448,192,146052,1,0,0:0:0:0:
192,192,146169,1,0,0:0:0:0:
320,192,146286,1,0,0:0:0:0:
64,192,146403,1,0,0:0:0:0:
320,192,146520,1,0,0:0:0:0:
192,192,146520,1,0,0:0:0:0:
448,192,146637,1,0,0:0:0:0:
192,192,146755,1,0,0:0:0:0:
64,192,146872,1,0,0:0:0:0:
192,192,146989,1,0,0:0:0:0:
320,192,146989,1,0,0:0:0:0:
448,192,147106,1,0,0:0:0:0:
320,192,147223,1,0,0:0:0:0:
64,192,147341,1,0,0:0:0:0:
320,192,147458,1,0,0:0:0:0:
192,192,147458,1,0,0:0:0:0:
448,192,147575,1,0,0:0:0:0:
64,192,147692,1,0,0:0:0:0:
192,192,147809,1,0,0:0:0:0:
64,192,147927,1,0,0:0:0:0:
320,192,147927,1,0,0:0:0:0:
448,192,147927,1,0,0:0:0:0:
192,192,148044,1,0,0:0:0:0:
448,192,148161,1,0,0:0:0:0:
320,192,148278,1,0,0:0:0:0:
192,192,148395,1,0,0:0:0:0:
64,192,148395,1,0,0:0:0:0:
320,192,148512,1,0,0:0:0:0:
448,192,148630,1,0,0:0:0:0:
64,192,148747,1,0,0:0:0:0:
320,192,148864,1,0,0:0:0:0:
448,192,148864,1,0,0:0:0:0:
192,192,148981,1,0,0:0:0:0:
64,192,149098,1,0,0:0:0:0:
448,192,149216,1,0,0:0:0:0:
192,192,149333,1,0,0:0:0:0:
64,192,149333,1,0,0:0:0:0:
320,192,149450,1,0,0:0:0:0:
448,192,149567,1,0,0:0:0:0:
64,192,149684,1,0,0:0:0:0:
192,192,149802,1,0,0:0:0:0:
320,192,149802,1,0,0:0:0:0:
448,192,149802,1,0,0:0:0:0:
64,192,149919,1,0,0:0:0:0:
448,192,150036,1,0,0:0:0:0:
320,192,150153,1,0,0:0:0:0:
192,192,150270,1,0,0:0:0:0:
448,192,150270,1,0,0:0:0:0:
64,192,150387,1,0,0:0:0:0:
448,192,150505,1,0,0:0:0:0:
192,192,150622,1,0,0:0:0:0:
64,192,150739,1,0,0:0:0:0:
320,192,150739,1,0,0:0:0:0:
448,192,150856,1,0,0:0:0:0:
192,192,150973,1,0,0:0:0:0:
320,192,151091,1,0,0:0:0:0:
64,192,151208,1,0,0:0:0:0:
448,192,151208,1,0,0:0:0:0:
192,192,151325,1,0,0:0:0:0:
320,192,151442,1,0,0:0:0:0:
448,192,151559,1,0,0:0:0:0:
320,192,151677,1,0,0:0:0:0:
192,192,151677,1,0,0:0:0:0:
64,192,151677,1,0,0:0:0:0:
448,192,151794,1,0,0:0:0:0:
192,192,151911,1,0,0:0:0:0:
320,192,152028,1,0,0:0:0:0:
64,192,152145,1,0,0:0:0:0:
448,192,152145,1,0,0:0:0:0:
192,192,152262,1,0,0:0:0:0:
320,192,152380,1,0,0:0:0:0:
64,192,152614,1,0,0:0:0:0:
192,192,152614,1,0,0:0:0:0:
320,192,152848,1,0,0:0:0:0:
192,192,152966,1,0,0:0:0:0:
320,192,153083,1,0,0:0:0:0:
448,192,153083,1,0,0:0:0:0:
64,192,153200,1,0,0:0:0:0:
192,192,153317,1,0,0:0:0:0:
320,192,153434,1,0,0:0:0:0:
64,192,153552,1,0,0:0:0:0:
192,192,153552,1,0,0:0:0:0:
448,192,153552,1,0,0:0:0:0:
320,192,153669,1,0,0:0:0:0:
64,192,153786,1,0,0:0:0:0:
320,192,153903,1,0,0:0:0:0:
448,192,154020,1,0,0:0:0:0:
192,192,154020,1,0,0:0:0:0:
64,192,154137,1,0,0:0:0:0:
320,192,154255,1,0,0:0:0:0:
448,192,154372,1,0,0:0:0:0:
64,192,154489,1,0,0:0:0:0:
192,192,154489,1,0,0:0:0:0:
320,192,154606,1,0,0:0:0:0:
64,192,154723,1,0,0:0:0:0:
192,192,154841,1,0,0:0:0:0:
448,192,154958,1,0,0:0:0:0:
320,192,154958,1,0,0:0:0:0:
64,192,155075,1,0,0:0:0:0:
448,192,155192,1,0,0:0:0:0:
192,192,155309,1,0,0:0:0:0:
448,192,155427,1,0,0:0:0:0:
320,192,155427,1,0,0:0:0:0:
64,192,155427,1,0,0:0:0:0:
192,192,155544,1,0,0:0:0:0:
320,192,155661,1,0,0:0:0:0:
64,192,155778,1,0,0:0:0:0:
192,192,155895,1,0,0:0:0:0:
320,192,155895,1,0,0:0:0:0:
448,192,156012,1,0,0:0:0:0:
192,192,156130,1,0,0:0:0:0:
64,192,156247,1,0,0:0:0:0:
320,192,156364,1,0,0:0:0:0:
192,192,156364,1,0,0:0:0:0:
448,192,156481,1,0,0:0:0:0:
320,192,156598,1,0,0:0:0:0:
64,192,156716,1,0,0:0:0:0:
192,192,156833,1,0,0:0:0:0:
320,192,156833,1,0,0:0:0:0:
448,192,156950,1,0,0:0:0:0:
64,192,157067,1,0,0:0:0:0:
192,192,157184,1,0,0:0:0:0:
448,192,157302,1,0,0:0:0:0:
320,192,157302,1,0,0:0:0:0:
64,192,157302,1,0,0:0:0:0:
192,192,157419,1,0,0:0:0:0:
448,192,157536,1,0,0:0:0:0:
320,192,157653,1,0,0:0:0:0:
64,192,157770,1,0,0:0:0:0:
192,192,157770,1,0,0:0:0:0:
320,192,157887,1,0,0:0:0:0:
448,192,158005,1,0,0:0:0:0:
64,192,158122,1,0,0:0:0:0:
448,192,158239,1,0,0:0:0:0:
320,192,158239,1,0,0:0:0:0:
192,192,158356,1,0,0:0:0:0:
64,192,158473,1,0,0:0:0:0:
448,192,158473,1,0,0:0:0:0:
320,192,158591,1,0,0:0:0:0:
192,192,158591,1,0,0:0:0:0:
64,192,158708,1,0,0:0:0:0:
448,192,158708,1,0,0:0:0:0:
192,192,158708,1,0,0:0:0:0:
448,192,159177,1,0,0:0:0:0:
320,192,159177,1,0,0:0:0:0:
192,192,159177,1,0,0:0:0:0:
192,192,159407,1,0,0:0:0:0:
64,192,159638,1,0,0:0:0:0:
320,192,159638,1,0,0:0:0:0:
320,192,159869,1,0,0:0:0:0:
448,192,160100,1,0,0:0:0:0:
64,192,160100,1,0,0:0:0:0:
64,192,160330,1,0,0:0:0:0:
448,192,160330,1,0,0:0:0:0:
192,192,160561,1,0,0:0:0:0:
320,192,160561,1,0,0:0:0:0:
192,192,160792,1,0,0:0:0:0:
320,192,160792,1,0,0:0:0:0:
64,192,161023,1,0,0:0:0:0:
320,192,161023,1,0,0:0:0:0:
448,192,161023,1,0,0:0:0:0:
448,192,161246,1,0,0:0:0:0:
64,192,161470,1,0,0:0:0:0:
320,192,161470,1,0,0:0:0:0:
64,192,161694,1,0,0:0:0:0:
192,192,161918,1,0,0:0:0:0:
320,192,161918,1,0,0:0:0:0:
320,192,162142,1,0,0:0:0:0:
448,192,162366,1,0,0:0:0:0:
320,192,162440,1,0,0:0:0:0:
64,192,162515,1,0,0:0:0:0:
192,192,162590,1,0,0:0:0:0:
448,192,162590,1,0,0:0:0:0:
64,192,162814,1,0,0:0:0:0:
320,192,162814,1,0,0:0:0:0:
448,192,162814,1,0,0:0:0:0:
320,192,163031,1,0,0:0:0:0:
192,192,163248,1,0,0:0:0:0:
448,192,163248,1,0,0:0:0:0:
192,192,163466,1,0,0:0:0:0:
64,192,163683,1,0,0:0:0:0:
320,192,163683,1,0,0:0:0:0:
64,192,163900,1,0,0:0:0:0:
320,192,163900,1,0,0:0:0:0:
192,192,164118,1,0,0:0:0:0:
448,192,164118,1,0,0:0:0:0:
192,192,164335,1,0,0:0:0:0:
448,192,164335,1,0,0:0:0:0:
64,192,164553,1,0,0:0:0:0:
192,192,164553,1,0,0:0:0:0:
320,192,164553,1,0,0:0:0:0:
320,192,164764,1,0,0:0:0:0:
192,192,164975,1,0,0:0:0:0:
448,192,164975,1,0,0:0:0:0:
192,192,165186,1,0,0:0:0:0:
64,192,165398,1,0,0:0:0:0:
320,192,165398,1,0,0:0:0:0:
448,192,165398,1,0,0:0:0:0:
320,192,165609,1,0,0:0:0:0:
448,192,165714,1,0,0:0:0:0:
64,192,165820,1,0,0:0:0:0:
64,192,165926,1,0,0:0:0:0:
64,192,166031,1,0,0:0:0:0:
64,192,166137,1,0,0:0:0:0:
192,192,166243,1,0,0:0:0:0:
320,192,166243,1,0,0:0:0:0:
448,192,166243,1,0,0:0:0:0:
448,192,166346,1,0,0:0:0:0:
192,192,166449,1,0,0:0:0:0:
192,192,166553,1,0,0:0:0:0:
320,192,166656,1,0,0:0:0:0:
320,192,166760,1,0,0:0:0:0:
64,192,166863,1,0,0:0:0:0:
64,192,166967,1,0,0:0:0:0:
448,192,167070,1,0,0:0:0:0:
448,192,167174,1,0,0:0:0:0:
192,192,167277,1,0,0:0:0:0:
192,192,167380,1,0,0:0:0:0:
320,192,167484,1,0,0:0:0:0:
320,192,167587,1,0,0:0:0:0:
192,192,167691,1,0,0:0:0:0:
192,192,167794,1,0,0:0:0:0:
320,192,167898,1,0,0:0:0:0:
448,192,167898,1,0,0:0:0:0:
64,192,167898,1,0,0:0:0:0:
448,192,168000,1,0,0:0:0:0:
448,192,168102,1,0,0:0:0:0:
448,192,168204,1,0,0:0:0:0:
192,192,168306,1,0,0:0:0:0:
192,192,168408,1,0,0:0:0:0:
192,192,168510,1,0,0:0:0:0:
192,192,168612,1,0,0:0:0:0:
320,192,168714,1,0,0:0:0:0:
320,192,168816,1,0,0:0:0:0:
320,192,168918,1,0,0:0:0:0:
320,192,169020,1,0,0:0:0:0:
64,192,169122,1,0,0:0:0:0:
64,192,169224,1,0,0:0:0:0:
64,192,169326,1,0,0:0:0:0:
64,192,169428,1,0,0:0:0:0:
320,192,169530,1,0,0:0:0:0:
192,192,169530,1,0,0:0:0:0:
320,192,169630,1,0,0:0:0:0:
320,192,169731,1,0,0:0:0:0:
320,192,169832,1,0,0:0:0:0:
320,192,169932,1,0,0:0:0:0:
320,192,170033,1,0,0:0:0:0:
320,192,170134,1,0,0:0:0:0:
320,192,170234,1,0,0:0:0:0:
192,192,170335,1,0,0:0:0:0:
448,192,170335,1,0,0:0:0:0:
192,192,170436,1,0,0:0:0:0:
192,192,170536,1,0,0:0:0:0:
192,192,170637,1,0,0:0:0:0:
192,192,170738,1,0,0:0:0:0:
192,192,170838,1,0,0:0:0:0:
192,192,170939,1,0,0:0:0:0:
192,192,171040,1,0,0:0:0:0:
448,192,171140,128,0,171241:0:0:0:0:
320,192,171140,128,0,171241:0:0:0:0:
64,192,171140,128,0,171241:0:0:0:0:
320,192,171342,128,0,171442:0:0:0:0:
64,192,171342,128,0,171442:0:0:0:0:
448,192,171342,128,0,171442:0:0:0:0:
448,192,171543,128,0,171644:0:0:0:0:
320,192,171543,128,0,171644:0:0:0:0:
192,192,171543,128,0,171644:0:0:0:0:
448,192,171744,128,0,171845:0:0:0:0:
320,192,171744,128,0,171845:0:0:0:0:
192,192,171744,1,0,0:0:0:0:
64,192,171946,128,0,172248:0:0:0:0:
320,192,171946,128,0,172248:0:0:0:0:
192,192,171946,128,0,172248:0:0:0:0:
64,192,172348,128,0,172650:0:0:0:0:
192,192,172348,128,0,172650:0:0:0:0:
448,192,172348,1,0,0:0:0:0:
320,192,172348,128,0,172650:0:0:0:0:
192,192,172751,1,0,0:0:0:0:
320,192,172751,1,0,0:0:0:0:
64,192,172952,128,0,173053:0:0:0:0:
448,192,172952,128,0,173053:0:0:0:0:
64,192,173254,128,0,173355:0:0:0:0:
448,192,173254,128,0,173355:0:0:0:0:
64,192,173556,1,0,0:0:0:0:
448,192,173556,1,0,0:0:0:0:
192,192,173758,128,0,173858:0:0:0:0:
320,192,173758,128,0,173858:0:0:0:0:
192,192,174060,128,0,174160:0:0:0:0:
320,192,174060,128,0,174160:0:0:0:0:
192,192,174362,1,0,0:0:0:0:
320,192,174362,1,0,0:0:0:0:
64,192,174563,128,0,174664:0:0:0:0:
448,192,174563,128,0,174664:0:0:0:0:
64,192,174865,128,0,174966:0:0:0:0:
448,192,174865,128,0,174966:0:0:0:0:
64,192,175167,128,0,175469:0:0:0:0:
192,192,175167,128,0,175469:0:0:0:0:
320,192,175167,128,0,175469:0:0:0:0:
448,192,175167,128,0,175469:0:0:0:0:
64,192,175570,128,0,175872:0:0:0:0:
192,192,175570,128,0,175872:0:0:0:0:
320,192,175570,128,0,175872:0:0:0:0:
448,192,175570,128,0,175872:0:0:0:0:
64,192,175972,1,0,0:0:0:0:
192,192,175972,1,0,0:0:0:0:
320,192,175972,1,0,0:0:0:0:
448,192,175972,1,0,0:0:0:0:
320,192,176072,1,0,0:0:0:0:
192,192,176172,1,0,0:0:0:0:
64,192,176272,1,0,0:0:0:0:
64,192,176372,1,0,0:0:0:0:
192,192,176372,1,0,0:0:0:0:
320,192,176372,1,0,0:0:0:0:
448,192,176372,1,0,0:0:0:0:
448,192,176472,1,0,0:0:0:0:
64,192,176572,1,0,0:0:0:0:
192,192,176672,1,0,0:0:0:0:
64,192,176772,1,0,0:0:0:0:
192,192,176772,1,0,0:0:0:0:
320,192,176772,1,0,0:0:0:0:
448,192,176772,1,0,0:0:0:0:
320,192,176872,1,0,0:0:0:0:
64,192,176972,1,0,0:0:0:0:
448,192,177072,1,0,0:0:0:0:
192,192,177172,1,0,0:0:0:0:
64,192,177172,1,0,0:0:0:0:
320,192,177172,1,0,0:0:0:0:
448,192,177172,1,0,0:0:0:0:
192,192,177272,1,0,0:0:0:0:
64,192,177372,1,0,0:0:0:0:
320,192,177472,1,0,0:0:0:0:
192,192,177572,1,0,0:0:0:0:
64,192,177572,1,0,0:0:0:0:
448,192,177572,1,0,0:0:0:0:
320,192,177572,1,0,0:0:0:0:
192,192,177672,1,0,0:0:0:0:
448,192,177772,1,0,0:0:0:0:
64,192,177872,1,0,0:0:0:0:
64,192,177972,1,0,0:0:0:0:
192,192,177972,1,0,0:0:0:0:
320,192,177972,1,0,0:0:0:0:
448,192,177972,1,0,0:0:0:0:
448,192,178072,1,0,0:0:0:0:
320,192,178172,1,0,0:0:0:0:
64,192,178272,1,0,0:0:0:0:
192,192,178372,1,0,0:0:0:0:
320,192,178372,1,0,0:0:0:0:
448,192,178372,1,0,0:0:0:0:
64,192,178372,1,0,0:0:0:0:
320,192,178472,1,0,0:0:0:0:
192,192,178572,1,0,0:0:0:0:
448,192,178672,1,0,0:0:0:0:
64,192,178772,1,0,0:0:0:0:
192,192,178772,1,0,0:0:0:0:
320,192,178772,1,0,0:0:0:0:
448,192,178772,1,0,0:0:0:0:
192,192,178872,1,0,0:0:0:0:
64,192,178972,1,0,0:0:0:0:
320,192,179072,1,0,0:0:0:0:
192,192,179172,1,0,0:0:0:0:
64,192,179172,1,0,0:0:0:0:
448,192,179172,1,0,0:0:0:0:
320,192,179172,1,0,0:0:0:0:
192,192,179272,1,0,0:0:0:0:
320,192,179372,1,0,0:0:0:0:
448,192,179472,1,0,0:0:0:0:
64,192,179572,1,0,0:0:0:0:
192,192,179572,1,0,0:0:0:0:
320,192,179572,1,0,0:0:0:0:
448,192,179572,1,0,0:0:0:0:
192,192,179672,1,0,0:0:0:0:
320,192,179772,1,0,0:0:0:0:
64,192,179872,1,0,0:0:0:0:
64,192,179972,1,0,0:0:0:0:
192,192,179972,1,0,0:0:0:0:
320,192,179972,1,0,0:0:0:0:
448,192,179972,1,0,0:0:0:0:
448,192,180072,1,0,0:0:0:0:
64,192,180172,1,0,0:0:0:0:
320,192,180272,1,0,0:0:0:0:
448,192,180372,1,0,0:0:0:0:
320,192,180372,1,0,0:0:0:0:
192,192,180372,1,0,0:0:0:0:
64,192,180372,1,0,0:0:0:0:
192,192,180472,1,0,0:0:0:0:
448,192,180572,1,0,0:0:0:0:
64,192,180672,1,0,0:0:0:0:
320,192,180772,1,0,0:0:0:0:
448,192,180772,1,0,0:0:0:0:
192,192,180772,1,0,0:0:0:0:
64,192,180772,1,0,0:0:0:0:
320,192,180872,1,0,0:0:0:0:
448,192,180972,1,0,0:0:0:0:
192,192,181072,1,0,0:0:0:0:
320,192,181172,1,0,0:0:0:0:
448,192,181172,1,0,0:0:0:0:
64,192,181172,1,0,0:0:0:0:
192,192,181172,1,0,0:0:0:0:
320,192,181272,1,0,0:0:0:0:
64,192,181372,1,0,0:0:0:0:
448,192,181472,1,0,0:0:0:0:
448,192,181572,1,0,0:0:0:0:
320,192,181572,1,0,0:0:0:0:
192,192,181572,1,0,0:0:0:0:
64,192,181572,1,0,0:0:0:0:
64,192,181672,1,0,0:0:0:0:
192,192,181772,1,0,0:0:0:0:
448,192,181872,1,0,0:0:0:0:
192,192,181972,1,0,0:0:0:0:
64,192,182022,1,0,0:0:0:0:
448,192,182072,1,0,0:0:0:0:
320,192,182122,1,0,0:0:0:0:
192,192,182172,1,0,0:0:0:0:
64,192,182222,1,0,0:0:0:0:
320,192,182272,1,0,0:0:0:0:
448,192,182322,1,0,0:0:0:0:
64,192,182372,1,0,0:0:0:0:
192,192,182422,1,0,0:0:0:0:
320,192,182472,1,0,0:0:0:0:
448,192,182522,1,0,0:0:0:0:
192,192,182572,1,0,0:0:0:0:
64,192,182572,1,0,0:0:0:0:
320,192,182772,1,0,0:0:0:0:
448,192,182772,1,0,0:0:0:0:
64,192,182772,1,0,0:0:0:0:
192,192,182772,1,0,0:0:0:0:
320,192,182872,1,0,0:0:0:0:
192,192,182972,1,0,0:0:0:0:
64,192,183072,1,0,0:0:0:0:
320,192,183172,1,0,0:0:0:0:
448,192,183172,1,0,0:0:0:0:
64,192,183172,1,0,0:0:0:0:
192,192,183172,1,0,0:0:0:0:
320,192,183272,1,0,0:0:0:0:
192,192,183372,1,0,0:0:0:0:
448,192,183472,1,0,0:0:0:0:
320,192,183572,1,0,0:0:0:0:
448,192,183572,1,0,0:0:0:0:
64,192,183572,1,0,0:0:0:0:
192,192,183572,1,0,0:0:0:0:
64,192,183672,1,0,0:0:0:0:
320,192,183772,1,0,0:0:0:0:
192,192,183872,1,0,0:0:0:0:
320,192,183972,1,0,0:0:0:0:
448,192,183972,1,0,0:0:0:0:
64,192,183972,1,0,0:0:0:0:
192,192,183972,1,0,0:0:0:0:
320,192,184072,1,0,0:0:0:0:
64,192,184172,1,0,0:0:0:0:
448,192,184272,1,0,0:0:0:0:
320,192,184372,1,0,0:0:0:0:
448,192,184372,1,0,0:0:0:0:
192,192,184372,1,0,0:0:0:0:
64,192,184372,1,0,0:0:0:0:
192,192,184472,1,0,0:0:0:0:
64,192,184572,1,0,0:0:0:0:
320,192,184672,1,0,0:0:0:0:
448,192,184772,1,0,0:0:0:0:
320,192,184772,1,0,0:0:0:0:
192,192,184772,1,0,0:0:0:0:
64,192,184772,1,0,0:0:0:0:
192,192,184872,1,0,0:0:0:0:
448,192,184972,1,0,0:0:0:0:
64,192,185072,1,0,0:0:0:0:
320,192,185172,1,0,0:0:0:0:
448,192,185172,1,0,0:0:0:0:
64,192,185172,1,0,0:0:0:0:
192,192,185172,1,0,0:0:0:0:
448,192,185272,1,0,0:0:0:0:
192,192,185372,1,0,0:0:0:0:
64,192,185372,1,0,0:0:0:0:
64,192,185472,1,0,0:0:0:0:
192,192,185472,1,0,0:0:0:0:
448,192,185572,1,0,0:0:0:0:
64,192,185572,1,0,0:0:0:0:
192,192,185572,1,0,0:0:0:0:
320,192,185572,1,0,0:0:0:0:
320,192,185672,1,0,0:0:0:0:
192,192,185772,1,0,0:0:0:0:
448,192,185872,1,0,0:0:0:0:
320,192,185972,1,0,0:0:0:0:
448,192,185972,1,0,0:0:0:0:
64,192,185972,1,0,0:0:0:0:
192,192,185972,1,0,0:0:0:0:
192,192,186072,1,0,0:0:0:0:
64,192,186172,1,0,0:0:0:0:
320,192,186272,1,0,0:0:0:0:
448,192,186372,1,0,0:0:0:0:
320,192,186372,1,0,0:0:0:0:
192,192,186372,1,0,0:0:0:0:
64,192,186372,1,0,0:0:0:0:
192,192,186472,1,0,0:0:0:0:
320,192,186572,1,0,0:0:0:0:
448,192,186672,1,0,0:0:0:0:
64,192,186772,1,0,0:0:0:0:
192,192,186772,1,0,0:0:0:0:
320,192,186772,1,0,0:0:0:0:
448,192,186772,1,0,0:0:0:0:
64,192,186872,1,0,0:0:0:0:
192,192,186972,1,0,0:0:0:0:
320,192,187072,1,0,0:0:0:0:
64,192,187172,1,0,0:0:0:0:
192,192,187222,1,0,0:0:0:0:
448,192,187272,1,0,0:0:0:0:
320,192,187322,1,0,0:0:0:0:
64,192,187372,1,0,0:0:0:0:
192,192,187422,1,0,0:0:0:0:
320,192,187472,1,0,0:0:0:0:
448,192,187522,1,0,0:0:0:0:
64,192,187572,1,0,0:0:0:0:
192,192,187622,1,0,0:0:0:0:
448,192,187672,1,0,0:0:0:0:
320,192,187722,1,0,0:0:0:0:
192,192,187772,1,0,0:0:0:0:
64,192,187822,1,0,0:0:0:0:
448,192,187872,1,0,0:0:0:0:
320,192,187922,1,0,0:0:0:0:
64,192,187972,1,0,0:0:0:0:
192,192,188022,1,0,0:0:0:0:
320,192,188072,1,0,0:0:0:0:
448,192,188122,1,0,0:0:0:0:
64,192,188172,1,0,0:0:0:0:
192,192,188172,1,0,0:0:0:0:
64,192,188372,1,0,0:0:0:0:
192,192,188372,1,0,0:0:0:0:
320,192,188372,1,0,0:0:0:0:
192,192,188572,1,0,0:0:0:0:
320,192,188572,1,0,0:0:0:0:
448,192,188572,1,0,0:0:0:0:
64,192,188772,1,0,0:0:0:0:
192,192,188772,1,0,0:0:0:0:
320,192,188772,1,0,0:0:0:0:
448,192,188772,1,0,0:0:0:0:
448,192,188872,1,0,0:0:0:0:
320,192,188972,1,0,0:0:0:0:
192,192,188972,1,0,0:0:0:0:
64,192,189072,1,0,0:0:0:0:
192,192,189172,1,0,0:0:0:0:
320,192,189172,1,0,0:0:0:0:
448,192,189172,1,0,0:0:0:0:
64,192,189172,1,0,0:0:0:0:
320,192,189272,1,0,0:0:0:0:
192,192,189372,1,0,0:0:0:0:
64,192,189372,1,0,0:0:0:0:
448,192,189472,1,0,0:0:0:0:
64,192,189572,1,0,0:0:0:0:
192,192,189572,1,0,0:0:0:0:
320,192,189572,1,0,0:0:0:0:
448,192,189572,1,0,0:0:0:0:
192,192,189672,1,0,0:0:0:0:
64,192,189772,1,0,0:0:0:0:
448,192,189772,1,0,0:0:0:0:
320,192,189872,1,0,0:0:0:0:
192,192,189972,1,0,0:0:0:0:
64,192,189972,1,0,0:0:0:0:
448,192,189972,1,0,0:0:0:0:
320,192,189972,1,0,0:0:0:0:
192,192,190072,1,0,0:0:0:0:
320,192,190172,1,0,0:0:0:0:
64,192,190172,1,0,0:0:0:0:
448,192,190272,1,0,0:0:0:0:
192,192,190372,1,0,0:0:0:0:
320,192,190372,1,0,0:0:0:0:
448,192,190372,1,0,0:0:0:0:
64,192,190372,1,0,0:0:0:0:
192,192,190472,1,0,0:0:0:0:
448,192,190572,1,0,0:0:0:0:
320,192,190572,1,0,0:0:0:0:
64,192,190672,1,0,0:0:0:0:
192,192,190772,1,0,0:0:0:0:
320,192,190772,1,0,0:0:0:0:
448,192,190772,1,0,0:0:0:0:
64,192,190772,1,0,0:0:0:0:
320,192,190872,1,0,0:0:0:0:
192,192,190972,1,0,0:0:0:0:
448,192,190972,1,0,0:0:0:0:
64,192,191072,1,0,0:0:0:0:
192,192,191172,1,0,0:0:0:0:
320,192,191172,1,0,0:0:0:0:
448,192,191172,1,0,0:0:0:0:
64,192,191172,1,0,0:0:0:0:
448,192,191272,1,0,0:0:0:0:
192,192,191372,1,0,0:0:0:0:
320,192,191372,1,0,0:0:0:0:
64,192,191472,1,0,0:0:0:0:
448,192,191572,1,0,0:0:0:0:
320,192,191572,1,0,0:0:0:0:
192,192,191572,1,0,0:0:0:0:
64,192,191572,1,0,0:0:0:0:
320,192,191672,1,0,0:0:0:0:
192,192,191772,1,0,0:0:0:0:
448,192,191772,1,0,0:0:0:0:
320,192,191872,1,0,0:0:0:0:
64,192,191972,1,0,0:0:0:0:
192,192,191972,1,0,0:0:0:0:
320,192,191972,1,0,0:0:0:0:
448,192,191972,1,0,0:0:0:0:
64,192,192072,1,0,0:0:0:0:
320,192,192172,1,0,0:0:0:0:
192,192,192172,1,0,0:0:0:0:
448,192,192272,1,0,0:0:0:0:
192,192,192372,1,0,0:0:0:0:
320,192,192372,1,0,0:0:0:0:
448,192,192372,1,0,0:0:0:0:
64,192,192372,1,0,0:0:0:0:
192,192,192472,1,0,0:0:0:0:
320,192,192572,1,0,0:0:0:0:
64,192,192572,1,0,0:0:0:0:
448,192,192672,1,0,0:0:0:0:
64,192,192772,1,0,0:0:0:0:
192,192,192772,1,0,0:0:0:0:
320,192,192772,1,0,0:0:0:0:
448,192,192772,1,0,0:0:0:0:
192,192,192872,1,0,0:0:0:0:
64,192,192972,1,0,0:0:0:0:
448,192,192972,1,0,0:0:0:0:
320,192,193072,1,0,0:0:0:0:
192,192,193172,1,0,0:0:0:0:
64,192,193172,1,0,0:0:0:0:
448,192,193172,1,0,0:0:0:0:
320,192,193172,1,0,0:0:0:0:
192,192,193272,1,0,0:0:0:0:
448,192,193372,1,0,0:0:0:0:
64,192,193372,1,0,0:0:0:0:
320,192,193472,1,0,0:0:0:0:
192,192,193572,1,0,0:0:0:0:
320,192,193572,1,0,0:0:0:0:
448,192,193572,1,0,0:0:0:0:
64,192,193572,1,0,0:0:0:0:
192,192,193672,1,0,0:0:0:0:
320,192,193772,1,0,0:0:0:0:
448,192,193772,1,0,0:0:0:0:
64,192,193872,1,0,0:0:0:0:
192,192,193972,1,0,0:0:0:0:
320,192,193972,1,0,0:0:0:0:
448,192,193972,1,0,0:0:0:0:
64,192,193972,1,0,0:0:0:0:
320,192,194072,1,0,0:0:0:0:
192,192,194172,1,0,0:0:0:0:
64,192,194172,1,0,0:0:0:0:
448,192,194172,1,0,0:0:0:0:
320,192,194372,1,0,0:0:0:0:
192,192,194472,1,0,0:0:0:0:
448,192,194472,1,0,0:0:0:0:
64,192,194472,1,0,0:0:0:0:
320,192,194572,1,0,0:0:0:0:
448,192,194672,1,0,0:0:0:0:
192,192,194772,1,0,0:0:0:0:
64,192,194822,1,0,0:0:0:0:
448,192,194872,1,0,0:0:0:0:
320,192,194922,1,0,0:0:0:0:
192,192,194972,1,0,0:0:0:0:
64,192,195022,1,0,0:0:0:0:
64,192,195172,1,0,0:0:0:0:
192,192,195172,1,0,0:0:0:0:
320,192,195172,1,0,0:0:0:0:
448,192,195172,1,0,0:0:0:0:
64,192,195272,1,0,0:0:0:0:
320,192,195372,1,0,0:0:0:0:
448,192,195372,1,0,0:0:0:0:
448,192,195472,1,0,0:0:0:0:
320,192,195472,1,0,0:0:0:0:
448,192,195572,1,0,0:0:0:0:
64,192,195572,1,0,0:0:0:0:
192,192,195572,1,0,0:0:0:0:
320,192,195572,1,0,0:0:0:0:
192,192,195672,1,0,0:0:0:0:
64,192,195772,1,0,0:0:0:0:
320,192,195772,1,0,0:0:0:0:
448,192,195872,1,0,0:0:0:0:
320,192,195972,1,0,0:0:0:0:
448,192,195972,1,0,0:0:0:0:
64,192,195972,1,0,0:0:0:0:
192,192,195972,1,0,0:0:0:0:
192,192,196072,1,0,0:0:0:0:
448,192,196172,1,0,0:0:0:0:
64,192,196172,1,0,0:0:0:0:
320,192,196272,1,0,0:0:0:0:
448,192,196372,1,0,0:0:0:0:
320,192,196372,1,0,0:0:0:0:
192,192,196372,1,0,0:0:0:0:
64,192,196372,1,0,0:0:0:0:
192,192,196472,1,0,0:0:0:0:
64,192,196572,1,0,0:0:0:0:
320,192,196572,1,0,0:0:0:0:
448,192,196672,1,0,0:0:0:0:
448,192,196772,1,0,0:0:0:0:
64,192,196772,1,0,0:0:0:0:
192,192,196772,1,0,0:0:0:0:
320,192,196772,1,0,0:0:0:0:
192,192,196872,1,0,0:0:0:0:
320,192,196972,1,0,0:0:0:0:
448,192,196972,1,0,0:0:0:0:
64,192,197072,1,0,0:0:0:0:
448,192,197172,1,0,0:0:0:0:
64,192,197172,1,0,0:0:0:0:
192,192,197172,1,0,0:0:0:0:
320,192,197172,1,0,0:0:0:0:
320,192,197272,1,0,0:0:0:0:
448,192,197372,1,0,0:0:0:0:
192,192,197372,1,0,0:0:0:0:
64,192,197472,1,0,0:0:0:0:
448,192,197572,1,0,0:0:0:0:
64,192,197572,1,0,0:0:0:0:
192,192,197572,1,0,0:0:0:0:
320,192,197572,1,0,0:0:0:0:
448,192,197672,1,0,0:0:0:0:
320,192,197772,1,0,0:0:0:0:
192,192,197772,1,0,0:0:0:0:
64,192,197872,1,0,0:0:0:0:
192,192,197972,1,0,0:0:0:0:
64,192,197972,1,0,0:0:0:0:
448,192,197972,1,0,0:0:0:0:
320,192,197972,1,0,0:0:0:0:
320,192,198072,1,0,0:0:0:0:
448,192,198172,1,0,0:0:0:0:
192,192,198172,1,0,0:0:0:0:
320,192,198272,1,0,0:0:0:0:
64,192,198372,1,0,0:0:0:0:
192,192,198372,1,0,0:0:0:0:
320,192,198372,1,0,0:0:0:0:
448,192,198372,1,0,0:0:0:0:
64,192,198472,1,0,0:0:0:0:
448,192,198572,1,0,0:0:0:0:
192,192,198572,1,0,0:0:0:0:
320,192,198672,1,0,0:0:0:0:
192,192,198772,1,0,0:0:0:0:
320,192,198772,1,0,0:0:0:0:
448,192,198772,1,0,0:0:0:0:
64,192,198772,1,0,0:0:0:0:
192,192,198872,1,0,0:0:0:0:
64,192,198872,1,0,0:0:0:0:
64,192,198972,1,0,0:0:0:0:
192,192,198972,1,0,0:0:0:0:
448,192,199072,1,0,0:0:0:0:
64,192,199172,1,0,0:0:0:0:
192,192,199172,1,0,0:0:0:0:
448,192,199172,1,0,0:0:0:0:
192,192,199272,1,0,0:0:0:0:
64,192,199372,1,0,0:0:0:0:
448,192,199372,1,0,0:0:0:0:
320,192,199372,1,0,0:0:0:0:
448,192,199472,1,0,0:0:0:0:
192,192,199572,1,0,0:0:0:0:
64,192,199572,1,0,0:0:0:0:
320,192,199572,1,0,0:0:0:0:
64,192,199672,1,0,0:0:0:0:
192,192,199772,1,0,0:0:0:0:
448,192,199772,1,0,0:0:0:0:
320,192,199872,1,0,0:0:0:0:
64,192,199972,1,0,0:0:0:0:
192,192,200022,1,0,0:0:0:0:
320,192,200072,1,0,0:0:0:0:
448,192,200122,1,0,0:0:0:0:
64,192,200172,1,0,0:0:0:0:
192,192,200222,1,0,0:0:0:0:
320,192,200272,1,0,0:0:0:0:
448,192,200322,1,0,0:0:0:0:
192,192,200372,1,0,0:0:0:0:
64,192,200422,1,0,0:0:0:0:
448,192,200472,1,0,0:0:0:0:
320,192,200522,1,0,0:0:0:0:
192,192,200572,1,0,0:0:0:0:
64,192,200622,1,0,0:0:0:0:
448,192,200672,1,0,0:0:0:0:
320,192,200722,1,0,0:0:0:0:
192,192,200772,1,0,0:0:0:0:
448,192,200822,1,0,0:0:0:0:
64,192,200872,1,0,0:0:0:0:
320,192,200922,1,0,0:0:0:0:
192,192,200972,1,0,0:0:0:0:
448,192,201022,1,0,0:0:0:0:
64,192,201072,1,0,0:0:0:0:
320,192,201122,1,0,0:0:0:0:
192,192,201172,1,0,0:0:0:0:
448,192,201222,1,0,0:0:0:0:
64,192,201272,1,0,0:0:0:0:
320,192,201322,1,0,0:0:0:0:
192,192,201372,1,0,0:0:0:0:
448,192,201422,1,0,0:0:0:0:
64,192,201472,1,0,0:0:0:0:
320,192,201522,1,0,0:0:0:0:
448,192,201572,1,0,0:0:0:0:
192,192,201572,1,0,0:0:0:0:
