osu file format v14

[General]
AudioFilename: audio.mp3
AudioLeadIn: 0
PreviewTime: 69388
Countdown: 1
SampleSet: Normal
StackLeniency: 0.7
Mode: 0
LetterboxInBreaks: 0
WidescreenStoryboard: 0

[Editor]
DistanceSpacing: 2
BeatDivisor: 4
GridSize: 4
TimelineZoom: 1.5

[Metadata]
Title:Freaks
TitleUnicode:Freaks
Artist:Timmy Trumpet
ArtistUnicode:Timmy Trumpet
Creator:ICboom
Version:Another
Source:
Tags:
BeatmapID:1350044
BeatmapSetID:636221

[Difficulty]
HPDrainRate:6
CircleSize:4
OverallDifficulty:6
ApproachRate:9
SliderMultiplier:2.5
SliderTickRate:1

[Events]
//Background and Video events
0,0,"O`recta_battle_B1.png",0,0
//Break Periods
2,22712,25663
2,101263,104413
2,105213,111913
//Storyboard Layer 0 (Background)
//Storyboard Layer 1 (Fail)
//Storyboard Layer 2 (Pass)
//Storyboard Layer 3 (Foreground)
//Storyboard Sound Samples

[TimingPoints]
13,468.75,4,1,0,100,1,0
15013,-117.647058823529,4,1,0,100,0,0
16888,-100,4,1,0,100,0,0
18763,-100,4,1,0,100,0,0
20638,-90.9090909090909,4,1,0,100,0,0
22513,-133.333333333333,4,1,0,100,0,0
40794,-50,4,1,0,100,0,0
41263,-100,4,1,0,100,0,1
56263,-133.333333333333,4,1,0,100,0,0
63763,-117.647058823529,4,1,0,100,0,0
65638,-100,4,1,0,100,0,0
67513,-86.9565217391304,4,1,0,100,0,0
69388,-133.333333333333,4,1,0,100,0,0
71263,-76.9230769230769,4,1,0,100,0,1
85794,-50,4,1,0,100,0,1
86263,-76.9230769230769,4,1,0,100,0,1
101263,-100,4,1,0,100,0,0
120013,-90.9090909090909,4,1,0,100,0,0
127513,-86.9565217391304,4,1,0,100,0,0
135013,-100,4,1,0,100,0,0
150013,-90.9090909090909,4,1,0,100,0,0
151888,-83.3333333333333,4,1,0,100,0,0
153763,-76.9230769230769,4,1,0,100,0,0
155638,-133.333333333333,4,1,0,100,0,0
157513,-76.9230769230769,4,1,0,100,0,1
172513,-83.3333333333333,4,1,0,100,0,0

[HitObjects]
255,40,13,5,0,0:0:0:0:
153,197,481,2,0,P|175:128|157:69,1,125
255,320,950,2,0,L|255:186,1,125
359,197,1419,2,0,P|337:128|355:69,1,125
448,250,1888,5,0,0:0:0:0:
500,70,2356,2,0,P|436:82|417:154,1,125
272,259,2825,2,0,P|336:247|355:175,1,125
321,12,3294,2,0,P|299:73|352:125,1,125
153,197,3763,5,0,0:0:0:0:
105,15,4231,2,0,P|166:15|246:32,1,125
153,197,4700,2,0,P|144:123|162:70,1,125
263,232,5169,2,0,P|272:306|254:359,1,125
436,296,5638,5,0,0:0:0:0:
329,139,6106,2,0,P|311:200|210:228,1,125
104,336,6575,2,0,P|211:316|390:358,1,250
107,50,7513,6,0,B|108:147|108:147|123:181|125:181,1,125
136,198,7864,1,0,0:0:0:0:
122,225,7981,2,0,B|84:291|84:291|108:345,1,125
196,319,8450,2,0,P|230:317|308:330,1,62.5
289,230,8802,2,0,P|255:232|177:219,1,62.5
226,230,9153,1,0,0:0:0:0:
409,59,9388,6,0,B|449:122|420:185,1,125
411,207,9739,1,0,0:0:0:0:
410,238,9856,2,0,B|430:300|430:300|399:359,1,125
337,301,10325,2,0,B|306:316|306:316|228:293,1,62.5
226,230,10677,2,0,B|257:215|257:215|335:238,1,62.5
284,223,11028,1,0,0:0:0:0:
156,230,11263,6,0,P|139:302|81:344,1,125
129,351,11614,1,0,0:0:0:0:
159,343,11731,2,0,B|215:322|300:302,1,125
284,223,12200,2,0,P|300:184|336:145,1,62.5
243,103,12552,2,0,P|227:142|191:181,1,62.5
215,158,12903,1,0,0:0:0:0:
123,73,13138,6,0,B|63:122|87:240,1,125
94,213,13489,1,0,0:0:0:0:
114,236,13606,2,0,P|118:304|68:323,1,125
50,302,13958,1,0,0:0:0:0:
27,279,14075,2,0,B|35:255|35:255|14:205,1,62.5
114,236,14309,2,0,B|122:212|122:212|101:162,1,62.5
190,132,14544,2,0,B|214:198|214:198|272:216|290:308,1,187.5
284,285,15013,5,0,0:0:0:0:
374,154,15364,1,0,0:0:0:0:
345,198,15481,1,0,0:0:0:0:
284,285,15716,1,0,0:0:0:0:
186,243,15950,6,0,L|288:98,1,159.375003039837
278,112,16419,1,0,0:0:0:0:
345,198,16653,1,0,0:0:0:0:
284,285,16888,6,0,B|249:336|249:336|186:375|91:302,1,187.5
129,327,17356,1,0,0:0:0:0:
186,243,17591,1,0,0:0:0:0:
278,112,17825,6,0,P|356:112|334:204,1,187.5
345,198,18294,1,0,0:0:0:0:
223,171,18528,1,0,0:0:0:0:
139,262,18763,5,0,0:0:0:0:
343,198,18997,1,0,0:0:0:0:
101,142,19231,1,0,0:0:0:0:
320,75,19466,1,0,0:0:0:0:
223,171,19700,1,0,0:0:0:0:
200,47,19934,1,0,0:0:0:0:
246,294,20169,1,0,0:0:0:0:
223,171,20403,1,0,0:0:0:0:
308,258,20638,5,0,0:0:0:0:
329,223,20755,1,0,0:0:0:0:
366,207,20872,1,0,0:0:0:0:
406,215,20989,1,0,0:0:0:0:
433,245,21106,1,0,0:0:0:0:
439,285,21223,1,0,0:0:0:0:
420,321,21341,5,0,0:0:0:0:
452,296,21458,1,0,0:0:0:0:
474,261,21575,1,0,0:0:0:0:
484,221,21692,1,0,0:0:0:0:
480,180,21809,1,0,0:0:0:0:
463,143,21926,1,0,0:0:0:0:
439,109,22044,6,0,P|365:138|443:84,1,275.000008392334
85,78,26263,6,0,B|243:97,1,140.625005364418
240,138,26731,5,0,0:0:0:0:
333,150,26966,1,0,0:0:0:0:
290,233,27200,5,0,0:0:0:0:
383,245,27435,1,0,0:0:0:0:
433,340,27669,5,0,0:0:0:0:
340,328,27903,1,0,0:0:0:0:
152,330,28138,5,0,0:0:0:0:
245,318,28372,1,0,0:0:0:0:
290,233,28606,1,0,0:0:0:0:
197,221,28840,1,0,0:0:0:0:
240,138,29075,2,0,B|329:124|329:124|346:80|346:80|340:53|283:78,1,187.500007152558
303,70,30013,6,0,P|221:62|148:117,1,140.625005364418
161,134,30481,5,0,0:0:0:0:
185,224,30716,1,0,0:0:0:0:
92,212,30950,5,0,0:0:0:0:
68,302,31185,1,0,0:0:0:0:
185,224,31419,5,0,0:0:0:0:
209,314,31654,1,0,0:0:0:0:
68,302,31888,5,0,0:0:0:0:
92,212,32123,1,0,0:0:0:0:
185,224,32356,1,0,0:0:0:0:
275,248,32591,1,0,0:0:0:0:
209,314,32825,2,0,B|168:349|168:349|148:257|60:306,1,187.500007152558
420,70,33763,6,0,B|442:151|416:220,1,140.625005364418
423,255,34231,5,0,0:0:0:0:
331,274,34466,1,0,0:0:0:0:
345,181,34700,5,0,0:0:0:0:
253,200,34935,1,0,0:0:0:0:
175,126,35169,5,0,0:0:0:0:
267,107,35403,1,0,0:0:0:0:
189,33,35638,5,0,0:0:0:0:
97,52,35872,1,0,0:0:0:0:
82,144,36106,1,0,0:0:0:0:
142,216,36341,1,0,0:0:0:0:
127,308,36575,2,0,P|221:276|228:184,1,187.500007152558
348,347,37513,6,0,P|370:260|430:231,1,140.625005364418
456,236,37981,5,0,0:0:0:0:
439,143,38216,1,0,0:0:0:0:
422,50,38450,5,0,0:0:0:0:
348,169,38684,1,0,0:0:0:0:
376,56,38919,5,0,0:0:0:0:
252,170,39153,1,0,0:0:0:0:
333,39,39388,5,0,0:0:0:0:
123,147,39622,1,0,0:0:0:0:
376,56,39856,5,0,0:0:0:0:
252,170,40090,1,0,0:0:0:0:
422,50,40325,5,0,0:0:0:0:
427,237,40794,6,0,P|393:307|366:193,1,250
147,56,41263,6,0,P|233:43|364:72,1,187.5,4|2,0:0|0:0,0:0:0:0:
384,136,41731,1,2,0:0:0:0:
242,260,41966,1,2,0:0:0:0:
241,118,42200,1,2,0:0:0:0:
323,285,42434,1,2,0:0:0:0:
408,16,42669,1,2,0:0:0:0:
404,310,42903,1,4,0:0:0:0:
380,30,43138,5,2,0:0:0:0:
242,260,43372,1,2,0:0:0:0:
349,30,43606,1,2,0:0:0:0:
114,159,43840,1,2,0:0:0:0:
77,343,44075,6,0,P|110:281|207:189,1,187.5,4|0,0:0|0:0,0:0:0:0:
242,260,44544,2,0,P|321:278|437:223,1,187.5,4|0,0:0|0:0,0:0:0:0:
472,164,45013,6,0,P|487:274|443:339,1,187.5,4|2,0:0|0:0,0:0:0:0:
448,334,45481,1,2,0:0:0:0:
391,155,45716,1,2,0:0:0:0:
418,241,45950,1,2,0:0:0:0:
475,61,46185,1,2,0:0:0:0:
367,311,46419,1,2,0:0:0:0:
259,61,46653,1,4,0:0:0:0:
367,311,46888,5,2,0:0:0:0:
391,155,47122,1,2,0:0:0:0:
418,241,47356,1,2,0:0:0:0:
364,69,47591,1,2,0:0:0:0:
316,250,47825,2,0,P|245:312|308:351,1,187.5,4|0,0:0|0:0,0:0:0:0:
205,374,48294,2,0,P|130:332|23:364,1,187.5,4|0,0:0|0:0,0:0:0:0:
112,296,48763,6,0,B|152:208|152:208|124:104,1,187.5,4|2,0:0|0:0,0:0:0:0:
52,68,49231,1,2,0:0:0:0:
112,296,49466,1,2,0:0:0:0:
128,121,49700,1,2,0:0:0:0:
35,354,49934,1,2,0:0:0:0:
52,68,50169,1,2,0:0:0:0:
200,334,50403,1,4,0:0:0:0:
180,43,50638,5,2,0:0:0:0:
193,229,50872,1,2,0:0:0:0:
350,127,51106,1,2,0:0:0:0:
363,313,51341,1,2,0:0:0:0:
193,229,51575,2,0,P|230:283|135:329,1,187.5,4|0,0:0|0:0,0:0:0:0:
92,258,52044,2,0,B|94:208|74:187|74:187|134:163|163:95,1,187.5,4|0,0:0|0:0,0:0:0:0:
242,76,52513,6,0,P|180:38|72:69,1,187.5,4|2,0:0|0:0,0:0:0:0:
74,66,52981,1,2,0:0:0:0:
92,258,53216,1,2,0:0:0:0:
74,66,53450,1,2,0:0:0:0:
146,336,53684,1,2,0:0:0:0:
155,112,53919,1,2,0:0:0:0:
92,258,54153,1,4,0:0:0:0:
266,187,54388,5,2,0:0:0:0:
386,68,54622,1,2,0:0:0:0:
504,187,54856,1,2,0:0:0:0:
386,307,55091,1,2,0:0:0:0:
266,187,55325,2,0,P|201:138|285:139,1,187.5,4|0,0:0|0:0,0:0:0:0:
267,114,55794,1,4,0:0:0:0:
267,114,56263,5,4,0:0:0:0:
256,192,56731,12,0,63763,0:0:0:0:
255,72,63997,5,0,0:0:0:0:
144,186,64231,1,0,0:0:0:0:
103,31,64466,1,0,0:0:0:0:
214,145,64700,5,0,0:0:0:0:
216,304,64934,1,0,0:0:0:0:
303,184,65169,1,0,0:0:0:0:
144,186,65403,1,0,0:0:0:0:
255,72,65638,5,0,0:0:0:0:
216,304,65872,1,0,0:0:0:0:
103,31,66106,1,0,0:0:0:0:
303,184,66341,1,0,0:0:0:0:
447,64,66575,5,0,0:0:0:0:
144,186,66809,1,0,0:0:0:0:
198,6,67044,1,0,0:0:0:0:
216,304,67278,1,0,0:0:0:0:
303,184,67513,5,0,0:0:0:0:
326,190,67630,1,0,0:0:0:0:
349,196,67747,1,0,0:0:0:0:
372,202,67864,1,0,0:0:0:0:
409,263,67981,5,0,0:0:0:0:
381,270,68098,1,0,0:0:0:0:
354,277,68215,1,0,0:0:0:0:
325,285,68333,1,0,0:0:0:0:
253,293,68450,5,0,0:0:0:0:
219,285,68567,1,0,0:0:0:0:
187,277,68684,1,0,0:0:0:0:
152,267,68801,1,0,0:0:0:0:
119,202,68919,5,0,0:0:0:0:
80,212,69036,1,0,0:0:0:0:
44,221,69153,1,0,0:0:0:0:
5,232,69271,1,0,0:0:0:0:
71,108,69388,6,0,L|197:75,1,93.7500035762788
231,87,69739,1,0,0:0:0:0:
231,87,69856,1,0,0:0:0:0:
194,202,70091,1,0,0:0:0:0:
161,84,70325,6,0,L|71:108,1,93.7500035762788
31,81,70794,2,0,L|79:113,1,46.8750017881394
431,48,71263,6,0,B|395:113|468:135|468:135|504:218|398:264,1,243.749988842011,4|0,0:0|0:0,0:0:0:0:
472,360,71731,1,2,0:0:0:0:
318,72,71966,1,2,0:0:0:0:
208,361,72200,1,2,0:0:0:0:
218,34,72435,1,2,0:0:0:0:
472,360,72669,1,2,0:0:0:0:
101,58,72903,1,4,0:0:0:0:
40,360,73138,5,2,0:0:0:0:
218,34,73372,1,2,0:0:0:0:
208,361,73606,1,2,0:0:0:0:
386,35,73840,1,2,0:0:0:0:
472,360,74075,2,0,B|403:322|367:269|367:269|300:300|359:351,1,243.749988842011,4|0,0:0|0:0,0:0:0:0:
448,213,74544,2,0,P|352:137|404:24,1,243.749988842011,4|0,0:0|0:0,0:0:0:0:
286,166,75013,6,0,B|294:223|255:264|255:264|172:257|119:330,1,243.749988842011,4|0,0:0|0:0,0:0:0:0:
221,351,75481,1,2,0:0:0:0:
207,45,75716,1,2,0:0:0:0:
355,347,75950,1,2,0:0:0:0:
385,38,76185,1,2,0:0:0:0:
132,313,76419,1,2,0:0:0:0:
359,78,76654,1,4,0:0:0:0:
37,34,76888,5,2,0:0:0:0:
132,313,77122,1,2,0:0:0:0:
207,45,77356,1,2,0:0:0:0:
218,345,77591,1,2,0:0:0:0:
359,78,77825,2,0,B|297:111|285:169|285:169|348:154|448:168,1,243.749988842011,4|0,0:0|0:0,0:0:0:0:
404,326,78294,2,0,B|359:300|306:282|306:282|363:244|441:241,1,243.749988842011,4|0,0:0|0:0,0:0:0:0:
467,81,78763,6,0,B|447:60|434:31|434:31|360:-16|202:45,1,243.749988842011,4|0,0:0|0:0,0:0:0:0:
95,50,79231,1,2,0:0:0:0:
417,334,79466,1,2,0:0:0:0:
67,79,79700,1,2,0:0:0:0:
445,305,79934,1,2,0:0:0:0:
133,37,80169,1,2,0:0:0:0:
379,347,80403,1,4,0:0:0:0:
36,192,80638,5,2,0:0:0:0:
476,192,80872,1,2,0:0:0:0:
65,302,81106,1,2,0:0:0:0:
446,82,81340,1,2,0:0:0:0:
204,312,81575,2,0,P|288:264|192:140,1,243.749988842011,4|0,0:0|0:0,0:0:0:0:
389,222,82044,2,0,B|385:158|357:118|357:118|347:33|455:85,1,243.749988842011,4|0,0:0|0:0,0:0:0:0:
284,73,82513,6,0,P|181:95|201:213,1,243.749988842011,4|0,0:0|0:0,0:0:0:0:
80,322,82981,1,2,0:0:0:0:
447,81,83216,1,2,0:0:0:0:
492,375,83450,1,2,0:0:0:0:
196,210,83684,1,2,0:0:0:0:
474,379,83919,1,2,0:0:0:0:
284,73,84153,1,4,0:0:0:0:
28,59,84388,5,8,0:0:0:0:
52,69,84622,1,8,0:0:0:0:
77,80,84856,1,8,0:0:0:0:
102,91,85091,1,8,0:0:0:0:
189,228,85325,2,0,L|100:188,3,81.2499962806703,4|0|0|0,0:0|0:0|0:0|0:0,0:0:0:0:
144,317,85794,2,0,P|269:307|257:176,1,250,4|0,0:0|0:0,0:0:0:0:
432,32,86263,6,0,B|432:68|456:112|456:112|448:156|412:204|412:204|424:248|468:276,1,243.749988842011
280,203,86731,1,0,0:0:0:0:
64,324,86966,1,0,0:0:0:0:
496,82,87200,1,0,0:0:0:0:
93,319,87434,1,0,0:0:0:0:
469,85,87669,1,0,0:0:0:0:
144,317,87903,1,0,0:0:0:0:
15,20,88138,5,0,0:0:0:0:
497,364,88372,1,0,0:0:0:0:
30,18,88606,1,0,0:0:0:0:
512,362,88840,1,0,0:0:0:0:
388,60,89075,2,0,P|301:92|408:149,1,243.749988842011
225,228,89544,2,0,B|257:209|319:260|319:260|295:310|200:366|202:364,1,243.749988842011
86,256,90013,6,0,B|88:194|112:168|112:168|166:222|110:347,1,243.749988842011
29,178,90481,1,0,0:0:0:0:
483,206,90716,1,0,0:0:0:0:
105,21,90950,1,0,0:0:0:0:
406,362,91185,1,0,0:0:0:0:
406,21,91419,1,0,0:0:0:0:
105,362,91654,1,0,0:0:0:0:
284,384,91888,5,0,0:0:0:0:
94,194,92122,1,0,0:0:0:0:
284,4,92356,1,0,0:0:0:0:
473,194,92591,1,0,0:0:0:0:
161,284,92825,2,0,L|66:311,1,81.2499962806703
94,194,93059,2,0,L|172:171,1,81.2499962806703
321,244,93294,2,0,B|246:180|262:108|262:108|207:102|147:60,1,243.749988842011
209,241,93763,6,0,P|296:337|436:275,1,243.749988842011
503,195,94231,1,0,0:0:0:0:
35,55,94466,1,0,0:0:0:0:
505,384,94700,1,0,0:0:0:0:
169,29,94935,1,0,0:0:0:0:
157,353,95169,1,0,0:0:0:0:
512,17,95404,1,0,0:0:0:0:
181,374,95638,5,0,0:0:0:0:
67,69,95872,1,0,0:0:0:0:
411,379,96106,1,0,0:0:0:0:
274,14,96340,1,0,0:0:0:0:
478,268,96575,2,0,P|373:262|282:375,1,243.749988842011
149,266,97044,2,0,P|251:215|132:174,1,243.749988842011
349,150,97513,6,0,B|342:97|326:59|326:59|408:44|474:84,1,243.749988842011
478,268,97981,1,0,0:0:0:0:
186,146,98216,1,0,0:0:0:0:
436,352,98450,1,0,0:0:0:0:
58,42,98684,1,0,0:0:0:0:
478,268,98919,1,0,0:0:0:0:
75,139,99153,1,0,0:0:0:0:
110,360,99388,6,0,B|186:332|186:332|235:249,1,162.499992561341
227,261,99739,1,0,0:0:0:0:
227,261,99856,2,0,B|303:289|303:289|352:372,1,162.499992561341
344,359,100559,5,0,0:0:0:0:
168,25,100794,1,0,0:0:0:0:
254,104,105013,5,0,0:0:0:0:
346,58,112513,6,0,P|359:126|349:204,1,125
256,121,113216,1,0,0:0:0:0:
158,181,113684,1,0,0:0:0:0:
256,241,114153,1,0,0:0:0:0:
256,121,114388,5,0,0:0:0:0:
256,241,114622,1,0,0:0:0:0:
255,97,114856,1,0,0:0:0:0:
257,265,115091,1,0,0:0:0:0:
498,329,115325,2,0,L|419:311,3,62.5
437,315,115794,1,0,0:0:0:0:
8,57,116263,6,0,P|27:149|-2:205,1,125
108,260,116966,1,0,0:0:0:0:
199,175,117434,1,0,0:0:0:0:
290,260,117903,1,0,0:0:0:0:
498,121,118138,6,0,L|380:203,3,125
404,310,119075,2,0,L|461:272,3,62.5
456,275,119544,1,0,0:0:0:0:
127,37,120013,6,0,P|135:115|50:217,1,206.250006294251
60,212,120481,1,0,0:0:0:0:
31,101,120716,1,0,0:0:0:0:
142,294,120950,1,0,0:0:0:0:
38,7,121184,1,0,0:0:0:0:
42,321,121419,1,0,0:0:0:0:
127,37,121653,1,0,0:0:0:0:
60,212,121888,5,0,0:0:0:0:
194,186,122122,1,0,0:0:0:0:
320,239,122356,1,0,0:0:0:0:
454,213,122590,1,0,0:0:0:0:
410,338,122825,6,0,L|367:125,1,206.250006294251
484,59,123294,2,0,B|422:63|396:19|396:19|344:29|344:29|319:54|271:36,1,206.250006294251
271,178,123763,6,0,P|211:92|123:141,1,206.250006294251
188,185,124231,1,0,0:0:0:0:
410,338,124466,1,0,0:0:0:0:
271,178,124700,1,0,0:0:0:0:
484,59,124934,1,0,0:0:0:0:
315,277,125169,1,0,0:0:0:0:
372,137,125403,1,0,0:0:0:0:
296,42,125638,5,0,0:0:0:0:
135,264,125872,1,0,0:0:0:0:
131,124,126106,1,0,0:0:0:0:
386,228,126341,1,0,0:0:0:0:
325,318,126575,6,0,P|283:247|349:135,1,206.250006294251
332,143,127044,1,0,0:0:0:0:
131,32,127513,6,0,B|113:129|113:129|68:157|68:157|70:114|94:96,1,215.625004112721
90,98,127981,1,0,0:0:0:0:
242,344,128216,1,0,0:0:0:0:
253,57,128450,1,0,0:0:0:0:
325,318,128684,1,0,0:0:0:0:
420,46,128919,1,0,0:0:0:0:
242,344,129153,1,0,0:0:0:0:
100,92,129388,5,0,0:0:0:0:
412,92,129622,1,0,0:0:0:0:
100,292,129856,1,0,0:0:0:0:
412,292,130090,1,0,0:0:0:0:
140,194,130325,6,0,P|57:235|13:345,1,215.625004112721
154,374,130794,2,0,P|188:274|281:223,1,215.625004112721
422,193,131263,6,0,P|387:292|294:343,1,215.625004112721
294,343,131731,1,0,0:0:0:0:
275,55,131966,1,0,0:0:0:0:
154,374,132200,1,0,0:0:0:0:
392,214,132434,1,0,0:0:0:0:
16,345,132669,1,0,0:0:0:0:
417,77,132903,1,0,0:0:0:0:
133,128,133138,6,0,P|132:175|115:259,1,71.8750013709069
320,69,133372,2,0,P|273:68|189:51,1,71.8750013709069
379,256,133606,2,0,P|380:209|397:125,1,71.8750013709069
192,315,133841,2,0,P|239:316|323:333,1,71.8750013709069
203,188,134075,2,0,B|257:138|257:138|306:191|306:191|236:257,1,215.625004112721
255,238,134544,5,0,0:0:0:0:
23,89,135013,5,0,0:0:0:0:
146,72,135247,1,0,0:0:0:0:
269,55,135481,1,0,0:0:0:0:
392,38,135716,1,0,0:0:0:0:
468,136,135950,2,0,L|480:58,4,62.5
13,150,136888,5,0,0:0:0:0:
136,133,137122,1,0,0:0:0:0:
259,116,137356,1,0,0:0:0:0:
382,99,137591,1,0,0:0:0:0:
458,197,137825,2,0,L|470:119,4,62.5
3,211,138763,5,0,0:0:0:0:
126,194,138997,1,0,0:0:0:0:
249,177,139231,1,0,0:0:0:0:
372,160,139466,1,0,0:0:0:0:
448,258,139700,2,0,L|460:180,4,62.5
0,272,140638,5,0,0:0:0:0:
123,255,140872,1,0,0:0:0:0:
246,238,141106,1,0,0:0:0:0:
369,221,141341,1,0,0:0:0:0:
445,319,141575,2,0,L|457:241,6,62.5
256,192,142513,12,0,150013,0:0:0:0:
257,312,150247,5,0,0:0:0:0:
368,198,150481,1,0,0:0:0:0:
409,353,150716,1,0,0:0:0:0:
298,239,150950,5,0,0:0:0:0:
296,80,151184,1,0,0:0:0:0:
209,200,151419,1,0,0:0:0:0:
368,198,151653,1,0,0:0:0:0:
257,312,151888,5,0,0:0:0:0:
296,80,152122,1,0,0:0:0:0:
409,353,152356,1,0,0:0:0:0:
209,200,152591,1,0,0:0:0:0:
65,320,152825,5,0,0:0:0:0:
368,198,153059,1,0,0:0:0:0:
314,378,153294,1,0,0:0:0:0:
296,80,153528,1,0,0:0:0:0:
209,200,153763,5,0,0:0:0:0:
186,194,153880,1,0,0:0:0:0:
163,188,153997,1,0,0:0:0:0:
140,182,154114,1,0,0:0:0:0:
103,121,154231,5,0,0:0:0:0:
131,114,154348,1,0,0:0:0:0:
158,107,154465,1,0,0:0:0:0:
187,99,154583,1,0,0:0:0:0:
259,91,154700,5,0,0:0:0:0:
293,99,154817,1,0,0:0:0:0:
325,107,154934,1,0,0:0:0:0:
360,117,155051,1,0,0:0:0:0:
393,182,155169,5,0,0:0:0:0:
432,172,155286,1,0,0:0:0:0:
468,163,155403,1,0,0:0:0:0:
507,152,155521,1,0,0:0:0:0:
441,276,155638,6,0,L|315:309,1,93.7500035762788
281,297,155989,1,0,0:0:0:0:
281,297,156106,1,0,0:0:0:0:
318,182,156341,1,0,0:0:0:0:
351,300,156575,6,0,L|441:276,1,93.7500035762788
481,303,157044,2,0,L|433:271,1,46.8750017881394
81,336,157513,6,0,B|117:271|44:249|44:249|8:166|114:120,1,243.749988842011,4|0,0:0|0:0,0:0:0:0:
40,24,157981,1,2,0:0:0:0:
194,312,158216,1,2,0:0:0:0:
304,23,158450,1,2,0:0:0:0:
294,350,158685,1,2,0:0:0:0:
40,24,158919,1,2,0:0:0:0:
411,326,159153,1,4,0:0:0:0:
472,24,159388,5,2,0:0:0:0:
294,350,159622,1,2,0:0:0:0:
304,23,159856,1,2,0:0:0:0:
126,349,160090,1,2,0:0:0:0:
40,24,160325,2,0,B|109:62|145:115|145:115|212:84|153:33,1,243.749988842011,4|0,0:0|0:0,0:0:0:0:
64,171,160794,2,0,P|160:247|108:360,1,243.749988842011,4|0,0:0|0:0,0:0:0:0:
226,218,161263,6,0,B|218:161|257:120|257:120|340:127|393:54,1,243.749988842011,4|0,0:0|0:0,0:0:0:0:
291,33,161731,1,2,0:0:0:0:
305,339,161966,1,2,0:0:0:0:
157,37,162200,1,2,0:0:0:0:
127,346,162435,1,2,0:0:0:0:
380,71,162669,1,2,0:0:0:0:
153,306,162904,1,4,0:0:0:0:
475,350,163138,5,2,0:0:0:0:
380,71,163372,1,2,0:0:0:0:
305,339,163606,1,2,0:0:0:0:
294,39,163841,1,2,0:0:0:0:
153,306,164075,2,0,B|215:273|227:215|227:215|164:230|64:216,1,243.749988842011,4|0,0:0|0:0,0:0:0:0:
108,58,164544,2,0,B|153:84|206:102|206:102|149:140|71:143,1,243.749988842011,4|0,0:0|0:0,0:0:0:0:
45,303,165013,6,0,B|65:324|78:353|78:353|152:400|310:339,1,243.749988842011,4|0,0:0|0:0,0:0:0:0:
417,334,165481,1,2,0:0:0:0:
95,50,165716,1,2,0:0:0:0:
445,305,165950,1,2,0:0:0:0:
67,79,166184,1,2,0:0:0:0:
379,347,166419,1,2,0:0:0:0:
133,37,166653,1,4,0:0:0:0:
476,192,166888,5,2,0:0:0:0:
36,192,167122,1,2,0:0:0:0:
447,82,167356,1,2,0:0:0:0:
66,302,167590,1,2,0:0:0:0:
308,72,167825,2,0,P|224:120|320:244,1,243.749988842011,4|0,0:0|0:0,0:0:0:0:
123,162,168294,2,0,B|127:226|155:266|155:266|165:351|57:299,1,243.749988842011,4|0,0:0|0:0,0:0:0:0:
228,311,168763,6,0,P|331:289|311:171,1,243.749988842011,4|0,0:0|0:0,0:0:0:0:
432,62,169231,1,2,0:0:0:0:
65,303,169466,1,2,0:0:0:0:
20,9,169700,1,2,0:0:0:0:
316,174,169934,1,2,0:0:0:0:
38,5,170169,1,2,0:0:0:0:
228,311,170403,1,4,0:0:0:0:
484,325,170638,5,8,0:0:0:0:
460,315,170872,1,8,0:0:0:0:
435,304,171106,1,8,0:0:0:0:
410,293,171341,1,8,0:0:0:0:
323,156,171575,2,0,L|412:196,3,81.2499962806703,4|0|0|0,0:0|0:0|0:0|0:0,0:0:0:0:
397,189,172044,5,0,0:0:0:0:
255,192,172513,5,0,0:0:0:0:
