osu file format v14

[General]
AudioFilename: audio.mp3
AudioLeadIn: 0
PreviewTime: 48426
Countdown: 0
SampleSet: Soft
StackLeniency: 0.7
Mode: 3
LetterboxInBreaks: 0
SpecialStyle: 0
WidescreenStoryboard: 0

[Editor]
DistanceSpacing: 1.3
BeatDivisor: 4
GridSize: 4
TimelineZoom: 0.9

[Metadata]
Title:Return of the Werewolf
TitleUnicode:Return of the Werewolf
Artist:Timeless Miracle
ArtistUnicode:Timeless Miracle
Creator:Hlimak
Version:Werewoof (2018)
Source:
Tags:into the enchanted chamber power metal handstream
BeatmapID:1817969
BeatmapSetID:869896

[Difficulty]
HPDrainRate:8
CircleSize:4
OverallDifficulty:8
ApproachRate:5
SliderMultiplier:1.4
SliderTickRate:1

[Events]
//Background and Video events
0,0,"bg.jpg",0,0
//Break Periods
//Storyboard Layer 0 (Background)
//Storyboard Layer 1 (Fail)
//Storyboard Layer 2 (Pass)
//Storyboard Layer 3 (Foreground)
//Storyboard Layer 4 (Overlay)
//Storyboard Sound Samples

[TimingPoints]
74,352.941176470588,4,2,0,40,1,0
49485,-100,4,2,0,40,0,1
72073,-100,4,2,0,40,0,0
124309,-100,4,2,0,40,0,1
146897,-100,4,2,0,40,0,0
242897,-100,4,2,0,40,0,1
265485,-100,4,2,0,40,0,0
276779,-100,4,2,0,40,0,1
288073,-100,4,2,0,40,0,0

[HitObjects]
320,192,74,5,0,0:0:0:0:
448,192,74,1,0,0:0:0:0:
64,192,74,1,0,0:0:0:0:
192,192,162,1,0,0:0:0:0:
320,192,250,1,0,0:0:0:0:
192,192,338,1,0,0:0:0:0:
64,192,426,1,0,0:0:0:0:
448,192,426,1,0,0:0:0:0:
192,192,515,1,0,0:0:0:0:
448,192,603,1,0,0:0:0:0:
64,192,603,1,0,0:0:0:0:
320,192,603,1,0,0:0:0:0:
192,192,691,1,0,0:0:0:0:
448,192,779,1,0,0:0:0:0:
320,192,779,1,0,0:0:0:0:
64,192,868,1,0,0:0:0:0:
320,192,956,1,0,0:0:0:0:
192,192,1044,1,0,0:0:0:0:
448,192,1132,1,0,0:0:0:0:
64,192,1132,1,0,0:0:0:0:
320,192,1132,1,0,0:0:0:0:
192,192,1221,1,0,0:0:0:0:
448,192,1309,1,0,0:0:0:0:
320,192,1397,1,0,0:0:0:0:
64,192,1485,1,0,0:0:0:0:
192,192,1485,1,0,0:0:0:0:
448,192,1485,1,0,0:0:0:0:
320,192,1573,1,0,0:0:0:0:
192,192,1662,1,0,0:0:0:0:
320,192,1750,1,0,0:0:0:0:
64,192,1838,1,0,0:0:0:0:
448,192,1838,1,0,0:0:0:0:
192,192,1926,1,0,0:0:0:0:
64,192,2015,1,0,0:0:0:0:
320,192,2015,1,0,0:0:0:0:
448,192,2015,1,0,0:0:0:0:
192,192,2103,1,0,0:0:0:0:
320,192,2191,1,0,0:0:0:0:
192,192,2279,1,0,0:0:0:0:
448,192,2368,1,0,0:0:0:0:
320,192,2456,1,0,0:0:0:0:
448,192,2544,1,0,0:0:0:0:
192,192,2544,1,0,0:0:0:0:
64,192,2544,1,0,0:0:0:0:
320,192,2632,1,0,0:0:0:0:
192,192,2721,1,0,0:0:0:0:
448,192,2809,1,0,0:0:0:0:
64,192,2897,1,0,0:0:0:0:
192,192,2897,1,0,0:0:0:0:
320,192,2985,1,0,0:0:0:0:
64,192,3073,1,0,0:0:0:0:
192,192,3073,1,0,0:0:0:0:
320,192,3162,1,0,0:0:0:0:
192,192,3250,1,0,0:0:0:0:
64,192,3250,1,0,0:0:0:0:
448,192,3338,1,0,0:0:0:0:
192,192,3426,1,0,0:0:0:0:
64,192,3426,1,0,0:0:0:0:
448,192,3515,1,0,0:0:0:0:
320,192,3603,1,0,0:0:0:0:
192,192,3603,1,0,0:0:0:0:
64,192,3691,1,0,0:0:0:0:
448,192,3779,1,0,0:0:0:0:
320,192,3779,1,0,0:0:0:0:
64,192,3868,1,0,0:0:0:0:
448,192,3956,1,0,0:0:0:0:
320,192,3956,1,0,0:0:0:0:
192,192,4044,1,0,0:0:0:0:
448,192,4132,1,0,0:0:0:0:
320,192,4132,1,0,0:0:0:0:
192,192,4221,1,0,0:0:0:0:
448,192,4309,1,0,0:0:0:0:
320,192,4309,1,0,0:0:0:0:
64,192,4397,1,0,0:0:0:0:
192,192,4485,1,0,0:0:0:0:
320,192,4485,1,0,0:0:0:0:
448,192,4573,1,0,0:0:0:0:
192,192,4662,1,0,0:0:0:0:
64,192,4662,1,0,0:0:0:0:
448,192,4750,1,0,0:0:0:0:
192,192,4838,1,0,0:0:0:0:
64,192,4838,1,0,0:0:0:0:
320,192,4926,1,0,0:0:0:0:
192,192,5015,1,0,0:0:0:0:
64,192,5015,1,0,0:0:0:0:
320,192,5103,1,0,0:0:0:0:
192,192,5191,1,0,0:0:0:0:
64,192,5191,1,0,0:0:0:0:
448,192,5279,1,0,0:0:0:0:
320,192,5368,1,0,0:0:0:0:
192,192,5368,1,0,0:0:0:0:
64,192,5456,1,0,0:0:0:0:
448,192,5544,1,0,0:0:0:0:
320,192,5544,1,0,0:0:0:0:
192,192,5632,1,0,0:0:0:0:
448,192,5721,1,0,0:0:0:0:
320,192,5721,1,0,0:0:0:0:
64,192,5721,128,0,5897:0:0:0:0:
192,192,5897,1,0,0:0:0:0:
192,192,5985,1,0,0:0:0:0:
448,192,6073,128,0,6250:0:0:0:0:
320,192,6073,1,0,0:0:0:0:
64,192,6073,1,0,0:0:0:0:
320,192,6250,1,0,0:0:0:0:
320,192,6338,1,0,0:0:0:0:
64,192,6426,128,0,6603:0:0:0:0:
192,192,6426,1,0,0:0:0:0:
448,192,6426,1,0,0:0:0:0:
192,192,6603,1,0,0:0:0:0:
192,192,6691,1,0,0:0:0:0:
448,192,6779,128,0,6956:0:0:0:0:
320,192,6779,1,0,0:0:0:0:
64,192,6779,1,0,0:0:0:0:
320,192,6956,1,0,0:0:0:0:
320,192,7044,1,0,0:0:0:0:
64,192,7132,128,0,7309:0:0:0:0:
192,192,7132,1,0,0:0:0:0:
448,192,7132,1,0,0:0:0:0:
192,192,7309,1,0,0:0:0:0:
192,192,7397,1,0,0:0:0:0:
320,192,7485,1,0,0:0:0:0:
64,192,7485,1,0,0:0:0:0:
448,192,7485,128,0,7662:0:0:0:0:
192,192,7662,1,0,0:0:0:0:
192,192,7750,1,0,0:0:0:0:
448,192,7838,1,0,0:0:0:0:
320,192,7838,1,0,0:0:0:0:
64,192,7838,1,0,0:0:0:0:
192,192,8015,1,0,0:0:0:0:
64,192,8015,1,0,0:0:0:0:
448,192,8015,1,0,0:0:0:0:
448,192,8103,1,0,0:0:0:0:
192,192,8191,1,0,0:0:0:0:
320,192,8191,1,0,0:0:0:0:
64,192,8191,1,0,0:0:0:0:
448,192,8368,1,0,0:0:0:0:
320,192,8368,1,0,0:0:0:0:
64,192,8368,1,0,0:0:0:0:
192,192,8456,1,0,0:0:0:0:
320,192,8544,1,0,0:0:0:0:
448,192,8544,1,0,0:0:0:0:
64,192,8632,1,0,0:0:0:0:
448,192,8721,1,0,0:0:0:0:
320,192,8721,1,0,0:0:0:0:
64,192,8809,1,0,0:0:0:0:
448,192,8897,1,0,0:0:0:0:
320,192,8897,1,0,0:0:0:0:
192,192,8985,1,0,0:0:0:0:
448,192,9073,1,0,0:0:0:0:
320,192,9073,1,0,0:0:0:0:
64,192,9162,1,0,0:0:0:0:
192,192,9250,1,0,0:0:0:0:
320,192,9250,1,0,0:0:0:0:
448,192,9338,1,0,0:0:0:0:
192,192,9426,1,0,0:0:0:0:
64,192,9426,1,0,0:0:0:0:
448,192,9515,1,0,0:0:0:0:
192,192,9603,1,0,0:0:0:0:
64,192,9603,1,0,0:0:0:0:
320,192,9691,1,0,0:0:0:0:
192,192,9779,1,0,0:0:0:0:
64,192,9779,1,0,0:0:0:0:
320,192,9868,1,0,0:0:0:0:
64,192,9956,1,0,0:0:0:0:
192,192,9956,1,0,0:0:0:0:
448,192,10044,1,0,0:0:0:0:
320,192,10132,1,0,0:0:0:0:
192,192,10132,1,0,0:0:0:0:
64,192,10221,1,0,0:0:0:0:
448,192,10309,1,0,0:0:0:0:
320,192,10309,1,0,0:0:0:0:
64,192,10397,1,0,0:0:0:0:
448,192,10485,1,0,0:0:0:0:
320,192,10485,1,0,0:0:0:0:
192,192,10573,1,0,0:0:0:0:
448,192,10662,1,0,0:0:0:0:
320,192,10662,1,0,0:0:0:0:
192,192,10750,1,0,0:0:0:0:
320,192,10838,1,0,0:0:0:0:
448,192,10838,1,0,0:0:0:0:
64,192,10926,1,0,0:0:0:0:
192,192,11015,1,0,0:0:0:0:
320,192,11015,1,0,0:0:0:0:
448,192,11103,1,0,0:0:0:0:
192,192,11191,1,0,0:0:0:0:
64,192,11191,1,0,0:0:0:0:
448,192,11279,1,0,0:0:0:0:
64,192,11368,1,0,0:0:0:0:
192,192,11368,1,0,0:0:0:0:
320,192,11544,1,0,0:0:0:0:
448,192,11544,1,0,0:0:0:0:
192,192,11632,1,0,0:0:0:0:
64,192,11721,1,0,0:0:0:0:
320,192,11721,1,0,0:0:0:0:
64,192,11897,1,0,0:0:0:0:
192,192,11897,1,0,0:0:0:0:
320,192,11985,1,0,0:0:0:0:
448,192,12073,1,0,0:0:0:0:
192,192,12073,1,0,0:0:0:0:
320,192,12250,1,0,0:0:0:0:
64,192,12250,1,0,0:0:0:0:
192,192,12338,1,0,0:0:0:0:
64,192,12426,1,0,0:0:0:0:
320,192,12426,1,0,0:0:0:0:
192,192,12603,1,0,0:0:0:0:
448,192,12603,1,0,0:0:0:0:
320,192,12691,1,0,0:0:0:0:
448,192,12779,1,0,0:0:0:0:
192,192,12779,1,0,0:0:0:0:
64,192,12956,1,0,0:0:0:0:
448,192,12956,1,0,0:0:0:0:
192,192,13044,1,0,0:0:0:0:
448,192,13132,1,0,0:0:0:0:
320,192,13132,1,0,0:0:0:0:
448,192,13309,1,0,0:0:0:0:
64,192,13309,1,0,0:0:0:0:
320,192,13397,1,0,0:0:0:0:
192,192,13485,1,0,0:0:0:0:
64,192,13485,1,0,0:0:0:0:
320,192,13662,1,0,0:0:0:0:
448,192,13662,1,0,0:0:0:0:
64,192,13750,1,0,0:0:0:0:
192,192,13838,1,0,0:0:0:0:
448,192,13838,1,0,0:0:0:0:
192,192,14015,1,0,0:0:0:0:
64,192,14015,1,0,0:0:0:0:
320,192,14103,1,0,0:0:0:0:
448,192,14191,1,0,0:0:0:0:
192,192,14191,1,0,0:0:0:0:
64,192,14279,1,0,0:0:0:0:
320,192,14279,1,0,0:0:0:0:
192,192,14368,1,0,0:0:0:0:
448,192,14368,1,0,0:0:0:0:
320,192,14456,1,0,0:0:0:0:
64,192,14456,1,0,0:0:0:0:
192,192,14544,1,0,0:0:0:0:
448,192,14544,1,0,0:0:0:0:
320,192,14632,1,0,0:0:0:0:
64,192,14632,1,0,0:0:0:0:
448,192,14721,1,0,0:0:0:0:
192,192,14721,1,0,0:0:0:0:
64,192,14809,1,0,0:0:0:0:
320,192,14809,1,0,0:0:0:0:
192,192,14897,128,0,15603:0:0:0:0:
448,192,14897,128,0,15603:0:0:0:0:
320,192,15250,1,0,0:0:0:0:
320,192,15603,1,0,0:0:0:0:
64,192,15603,1,0,0:0:0:0:
192,192,15691,1,0,0:0:0:0:
448,192,15691,1,0,0:0:0:0:
320,192,15779,1,0,0:0:0:0:
64,192,15779,1,0,0:0:0:0:
192,192,15868,1,0,0:0:0:0:
448,192,15868,1,0,0:0:0:0:
320,192,15956,1,0,0:0:0:0:
64,192,15956,1,0,0:0:0:0:
192,192,16044,1,0,0:0:0:0:
448,192,16044,1,0,0:0:0:0:
320,192,16132,1,0,0:0:0:0:
64,192,16132,1,0,0:0:0:0:
192,192,16221,1,0,0:0:0:0:
448,192,16221,1,0,0:0:0:0:
320,192,16309,128,0,17015:0:0:0:0:
64,192,16309,128,0,17015:0:0:0:0:
192,192,16662,1,0,0:0:0:0:
448,192,17015,1,0,0:0:0:0:
320,192,17103,1,0,0:0:0:0:
192,192,17103,1,0,0:0:0:0:
64,192,17191,1,0,0:0:0:0:
448,192,17191,1,0,0:0:0:0:
320,192,17279,1,0,0:0:0:0:
192,192,17279,1,0,0:0:0:0:
448,192,17368,1,0,0:0:0:0:
64,192,17368,1,0,0:0:0:0:
192,192,17456,1,0,0:0:0:0:
320,192,17456,1,0,0:0:0:0:
448,192,17544,1,0,0:0:0:0:
64,192,17544,1,0,0:0:0:0:
192,192,17632,1,0,0:0:0:0:
320,192,17632,1,0,0:0:0:0:
64,192,17721,128,0,18426:0:0:0:0:
448,192,17721,128,0,18426:0:0:0:0:
320,192,18073,1,0,0:0:0:0:
320,192,18426,1,0,0:0:0:0:
192,192,18426,1,0,0:0:0:0:
64,192,18515,1,0,0:0:0:0:
448,192,18515,1,0,0:0:0:0:
320,192,18603,1,0,0:0:0:0:
192,192,18603,1,0,0:0:0:0:
64,192,18691,1,0,0:0:0:0:
448,192,18691,1,0,0:0:0:0:
320,192,18779,1,0,0:0:0:0:
192,192,18779,1,0,0:0:0:0:
64,192,18868,1,0,0:0:0:0:
448,192,18868,1,0,0:0:0:0:
320,192,18956,1,0,0:0:0:0:
192,192,18956,1,0,0:0:0:0:
64,192,19044,1,0,0:0:0:0:
448,192,19044,1,0,0:0:0:0:
192,192,19132,128,0,19838:0:0:0:0:
320,192,19132,128,0,19838:0:0:0:0:
64,192,19485,1,0,0:0:0:0:
64,192,19838,1,0,0:0:0:0:
448,192,19838,1,0,0:0:0:0:
192,192,19926,1,0,0:0:0:0:
64,192,20015,1,0,0:0:0:0:
448,192,20015,1,0,0:0:0:0:
320,192,20103,1,0,0:0:0:0:
448,192,20191,1,0,0:0:0:0:
64,192,20191,1,0,0:0:0:0:
192,192,20279,1,0,0:0:0:0:
448,192,20368,1,0,0:0:0:0:
64,192,20368,1,0,0:0:0:0:
192,192,20456,1,0,0:0:0:0:
448,192,20544,1,0,0:0:0:0:
320,192,20544,1,0,0:0:0:0:
192,192,20632,1,0,0:0:0:0:
448,192,20721,1,0,0:0:0:0:
64,192,20721,1,0,0:0:0:0:
320,192,20809,1,0,0:0:0:0:
448,192,20897,1,0,0:0:0:0:
64,192,20897,1,0,0:0:0:0:
192,192,20985,1,0,0:0:0:0:
64,192,21073,1,0,0:0:0:0:
320,192,21073,1,0,0:0:0:0:
448,192,21162,1,0,0:0:0:0:
64,192,21250,1,0,0:0:0:0:
192,192,21250,1,0,0:0:0:0:
320,192,21338,1,0,0:0:0:0:
64,192,21426,1,0,0:0:0:0:
448,192,21426,1,0,0:0:0:0:
320,192,21515,1,0,0:0:0:0:
448,192,21603,1,0,0:0:0:0:
64,192,21603,1,0,0:0:0:0:
192,192,21691,1,0,0:0:0:0:
448,192,21779,1,0,0:0:0:0:
64,192,21779,1,0,0:0:0:0:
192,192,21868,1,0,0:0:0:0:
448,192,21956,1,0,0:0:0:0:
320,192,21956,1,0,0:0:0:0:
192,192,22044,1,0,0:0:0:0:
64,192,22132,1,0,0:0:0:0:
320,192,22132,1,0,0:0:0:0:
448,192,22221,1,0,0:0:0:0:
320,192,22309,1,0,0:0:0:0:
192,192,22309,1,0,0:0:0:0:
64,192,22397,1,0,0:0:0:0:
192,192,22485,1,0,0:0:0:0:
320,192,22485,1,0,0:0:0:0:
448,192,22573,1,0,0:0:0:0:
64,192,22662,1,0,0:0:0:0:
192,192,22662,1,0,0:0:0:0:
320,192,22662,1,0,0:0:0:0:
448,192,22838,1,0,0:0:0:0:
320,192,22838,1,0,0:0:0:0:
448,192,22926,1,0,0:0:0:0:
192,192,22926,1,0,0:0:0:0:
64,192,23015,1,0,0:0:0:0:
192,192,23015,1,0,0:0:0:0:
320,192,23015,1,0,0:0:0:0:
64,192,23191,1,0,0:0:0:0:
192,192,23191,1,0,0:0:0:0:
64,192,23279,1,0,0:0:0:0:
320,192,23279,1,0,0:0:0:0:
320,192,23368,1,0,0:0:0:0:
448,192,23368,1,0,0:0:0:0:
192,192,23368,1,0,0:0:0:0:
320,192,23544,1,0,0:0:0:0:
192,192,23544,1,0,0:0:0:0:
320,192,23632,1,0,0:0:0:0:
64,192,23632,1,0,0:0:0:0:
192,192,23721,1,0,0:0:0:0:
64,192,23721,1,0,0:0:0:0:
448,192,23721,1,0,0:0:0:0:
192,192,23897,1,0,0:0:0:0:
320,192,23897,1,0,0:0:0:0:
192,192,23985,1,0,0:0:0:0:
448,192,23985,1,0,0:0:0:0:
448,192,24073,1,0,0:0:0:0:
64,192,24073,1,0,0:0:0:0:
320,192,24073,128,0,24426:0:0:0:0:
448,192,24603,1,0,0:0:0:0:
64,192,24603,1,0,0:0:0:0:
192,192,24603,128,0,24779:0:0:0:0:
320,192,24956,1,0,0:0:0:0:
64,192,24956,1,0,0:0:0:0:
320,192,25044,1,0,0:0:0:0:
64,192,25044,1,0,0:0:0:0:
64,192,25132,1,0,0:0:0:0:
448,192,25132,1,0,0:0:0:0:
192,192,25132,128,0,25309:0:0:0:0:
64,192,25485,1,0,0:0:0:0:
192,192,25485,1,0,0:0:0:0:
320,192,25573,1,0,0:0:0:0:
64,192,25662,1,0,0:0:0:0:
192,192,25662,1,0,0:0:0:0:
320,192,25750,1,0,0:0:0:0:
192,192,25838,1,0,0:0:0:0:
64,192,25838,1,0,0:0:0:0:
448,192,25926,1,0,0:0:0:0:
192,192,26015,1,0,0:0:0:0:
64,192,26015,1,0,0:0:0:0:
448,192,26103,1,0,0:0:0:0:
320,192,26191,1,0,0:0:0:0:
192,192,26191,1,0,0:0:0:0:
64,192,26279,1,0,0:0:0:0:
448,192,26368,1,0,0:0:0:0:
320,192,26368,1,0,0:0:0:0:
64,192,26456,1,0,0:0:0:0:
448,192,26544,1,0,0:0:0:0:
320,192,26544,1,0,0:0:0:0:
192,192,26632,1,0,0:0:0:0:
448,192,26721,1,0,0:0:0:0:
320,192,26721,1,0,0:0:0:0:
192,192,26809,1,0,0:0:0:0:
448,192,26897,1,0,0:0:0:0:
320,192,26897,1,0,0:0:0:0:
64,192,26985,1,0,0:0:0:0:
192,192,27073,1,0,0:0:0:0:
320,192,27073,1,0,0:0:0:0:
448,192,27162,1,0,0:0:0:0:
192,192,27250,1,0,0:0:0:0:
64,192,27250,1,0,0:0:0:0:
448,192,27338,1,0,0:0:0:0:
192,192,27426,1,0,0:0:0:0:
64,192,27426,1,0,0:0:0:0:
320,192,27515,1,0,0:0:0:0:
192,192,27603,1,0,0:0:0:0:
64,192,27603,1,0,0:0:0:0:
320,192,27691,1,0,0:0:0:0:
192,192,27779,1,0,0:0:0:0:
64,192,27779,1,0,0:0:0:0:
448,192,27868,1,0,0:0:0:0:
320,192,27956,1,0,0:0:0:0:
192,192,27956,1,0,0:0:0:0:
64,192,28044,1,0,0:0:0:0:
448,192,28132,1,0,0:0:0:0:
320,192,28132,1,0,0:0:0:0:
192,192,28221,1,0,0:0:0:0:
448,192,28309,1,0,0:0:0:0:
320,192,28309,1,0,0:0:0:0:
64,192,28309,128,0,28485:0:0:0:0:
192,192,28485,1,0,0:0:0:0:
192,192,28573,1,0,0:0:0:0:
448,192,28662,128,0,28838:0:0:0:0:
320,192,28662,1,0,0:0:0:0:
64,192,28662,1,0,0:0:0:0:
320,192,28838,1,0,0:0:0:0:
320,192,28926,1,0,0:0:0:0:
64,192,29015,128,0,29191:0:0:0:0:
192,192,29015,1,0,0:0:0:0:
448,192,29015,1,0,0:0:0:0:
192,192,29191,1,0,0:0:0:0:
192,192,29279,1,0,0:0:0:0:
448,192,29368,128,0,29544:0:0:0:0:
320,192,29368,1,0,0:0:0:0:
64,192,29368,1,0,0:0:0:0:
320,192,29544,1,0,0:0:0:0:
320,192,29632,1,0,0:0:0:0:
64,192,29721,128,0,29897:0:0:0:0:
192,192,29721,1,0,0:0:0:0:
448,192,29721,1,0,0:0:0:0:
192,192,29897,1,0,0:0:0:0:
192,192,29985,1,0,0:0:0:0:
320,192,30073,1,0,0:0:0:0:
64,192,30073,1,0,0:0:0:0:
448,192,30073,128,0,30250:0:0:0:0:
320,192,30250,1,0,0:0:0:0:
320,192,30338,1,0,0:0:0:0:
448,192,30426,1,0,0:0:0:0:
192,192,30426,1,0,0:0:0:0:
64,192,30426,1,0,0:0:0:0:
320,192,30603,1,0,0:0:0:0:
64,192,30603,1,0,0:0:0:0:
448,192,30603,1,0,0:0:0:0:
64,192,30691,1,0,0:0:0:0:
320,192,30779,1,0,0:0:0:0:
448,192,30779,1,0,0:0:0:0:
192,192,30779,1,0,0:0:0:0:
448,192,30956,1,0,0:0:0:0:
192,192,30956,1,0,0:0:0:0:
64,192,30956,1,0,0:0:0:0:
320,192,31044,1,0,0:0:0:0:
192,192,31132,1,0,0:0:0:0:
64,192,31132,1,0,0:0:0:0:
448,192,31221,1,0,0:0:0:0:
64,192,31309,1,0,0:0:0:0:
192,192,31309,1,0,0:0:0:0:
448,192,31397,1,0,0:0:0:0:
64,192,31485,1,0,0:0:0:0:
192,192,31485,1,0,0:0:0:0:
320,192,31573,1,0,0:0:0:0:
64,192,31662,1,0,0:0:0:0:
192,192,31662,1,0,0:0:0:0:
448,192,31750,1,0,0:0:0:0:
320,192,31838,1,0,0:0:0:0:
192,192,31838,1,0,0:0:0:0:
64,192,31926,1,0,0:0:0:0:
320,192,32015,1,0,0:0:0:0:
448,192,32015,1,0,0:0:0:0:
64,192,32103,1,0,0:0:0:0:
320,192,32191,1,0,0:0:0:0:
448,192,32191,1,0,0:0:0:0:
192,192,32279,1,0,0:0:0:0:
320,192,32368,1,0,0:0:0:0:
448,192,32368,1,0,0:0:0:0:
192,192,32456,1,0,0:0:0:0:
448,192,32544,1,0,0:0:0:0:
320,192,32544,1,0,0:0:0:0:
64,192,32632,1,0,0:0:0:0:
192,192,32721,1,0,0:0:0:0:
320,192,32721,1,0,0:0:0:0:
448,192,32809,1,0,0:0:0:0:
64,192,32897,1,0,0:0:0:0:
192,192,32897,1,0,0:0:0:0:
448,192,32985,1,0,0:0:0:0:
64,192,33073,1,0,0:0:0:0:
192,192,33073,1,0,0:0:0:0:
320,192,33162,1,0,0:0:0:0:
64,192,33250,1,0,0:0:0:0:
192,192,33250,1,0,0:0:0:0:
320,192,33338,1,0,0:0:0:0:
192,192,33426,1,0,0:0:0:0:
64,192,33426,1,0,0:0:0:0:
448,192,33515,1,0,0:0:0:0:
320,192,33603,1,0,0:0:0:0:
192,192,33603,1,0,0:0:0:0:
64,192,33691,1,0,0:0:0:0:
320,192,33779,1,0,0:0:0:0:
448,192,33779,1,0,0:0:0:0:
64,192,33868,1,0,0:0:0:0:
448,192,33956,1,0,0:0:0:0:
320,192,33956,1,0,0:0:0:0:
192,192,34132,1,0,0:0:0:0:
448,192,34132,1,0,0:0:0:0:
448,192,34309,1,0,0:0:0:0:
192,192,34309,1,0,0:0:0:0:
320,192,34397,1,0,0:0:0:0:
64,192,34485,1,0,0:0:0:0:
192,192,34485,1,0,0:0:0:0:
64,192,34662,1,0,0:0:0:0:
320,192,34662,1,0,0:0:0:0:
192,192,34838,1,0,0:0:0:0:
448,192,34838,1,0,0:0:0:0:
64,192,35015,1,0,0:0:0:0:
320,192,35015,1,0,0:0:0:0:
192,192,35103,1,0,0:0:0:0:
320,192,35191,1,0,0:0:0:0:
64,192,35191,1,0,0:0:0:0:
192,192,35368,1,0,0:0:0:0:
448,192,35368,1,0,0:0:0:0:
448,192,35544,1,0,0:0:0:0:
320,192,35544,1,0,0:0:0:0:
64,192,35721,1,0,0:0:0:0:
192,192,35721,1,0,0:0:0:0:
320,192,35809,1,0,0:0:0:0:
192,192,35897,1,0,0:0:0:0:
448,192,35897,1,0,0:0:0:0:
448,192,36073,1,0,0:0:0:0:
192,192,36073,1,0,0:0:0:0:
320,192,36162,1,0,0:0:0:0:
448,192,36250,1,0,0:0:0:0:
192,192,36250,1,0,0:0:0:0:
64,192,36338,1,0,0:0:0:0:
320,192,36426,1,0,0:0:0:0:
192,192,36426,1,0,0:0:0:0:
192,192,36603,1,0,0:0:0:0:
64,192,36603,1,0,0:0:0:0:
64,192,36779,1,0,0:0:0:0:
320,192,36779,1,0,0:0:0:0:
448,192,36868,1,0,0:0:0:0:
192,192,36868,1,0,0:0:0:0:
320,192,36956,1,0,0:0:0:0:
64,192,36956,1,0,0:0:0:0:
192,192,37044,1,0,0:0:0:0:
448,192,37044,1,0,0:0:0:0:
320,192,37132,1,0,0:0:0:0:
64,192,37132,1,0,0:0:0:0:
192,192,37221,1,0,0:0:0:0:
448,192,37221,1,0,0:0:0:0:
64,192,37309,1,0,0:0:0:0:
320,192,37309,1,0,0:0:0:0:
448,192,37397,1,0,0:0:0:0:
192,192,37397,1,0,0:0:0:0:
320,192,37485,128,0,38191:0:0:0:0:
64,192,37485,128,0,38191:0:0:0:0:
192,192,37838,1,0,0:0:0:0:
192,192,38191,1,0,0:0:0:0:
448,192,38191,1,0,0:0:0:0:
320,192,38279,1,0,0:0:0:0:
64,192,38279,1,0,0:0:0:0:
192,192,38368,1,0,0:0:0:0:
448,192,38368,1,0,0:0:0:0:
320,192,38456,1,0,0:0:0:0:
64,192,38456,1,0,0:0:0:0:
192,192,38544,1,0,0:0:0:0:
448,192,38544,1,0,0:0:0:0:
320,192,38632,1,0,0:0:0:0:
64,192,38632,1,0,0:0:0:0:
192,192,38721,1,0,0:0:0:0:
448,192,38721,1,0,0:0:0:0:
320,192,38809,1,0,0:0:0:0:
64,192,38809,1,0,0:0:0:0:
192,192,38897,128,0,39603:0:0:0:0:
448,192,38897,128,0,39603:0:0:0:0:
320,192,39250,1,0,0:0:0:0:
64,192,39603,1,0,0:0:0:0:
192,192,39691,1,0,0:0:0:0:
320,192,39691,1,0,0:0:0:0:
448,192,39779,1,0,0:0:0:0:
64,192,39779,1,0,0:0:0:0:
192,192,39868,1,0,0:0:0:0:
320,192,39868,1,0,0:0:0:0:
64,192,39956,1,0,0:0:0:0:
448,192,39956,1,0,0:0:0:0:
320,192,40044,1,0,0:0:0:0:
192,192,40044,1,0,0:0:0:0:
64,192,40132,1,0,0:0:0:0:
448,192,40132,1,0,0:0:0:0:
320,192,40221,1,0,0:0:0:0:
192,192,40221,1,0,0:0:0:0:
448,192,40309,128,0,41015:0:0:0:0:
64,192,40309,128,0,41015:0:0:0:0:
192,192,40662,1,0,0:0:0:0:
192,192,41015,1,0,0:0:0:0:
320,192,41015,1,0,0:0:0:0:
448,192,41103,1,0,0:0:0:0:
64,192,41103,1,0,0:0:0:0:
192,192,41191,1,0,0:0:0:0:
320,192,41191,1,0,0:0:0:0:
448,192,41279,1,0,0:0:0:0:
64,192,41279,1,0,0:0:0:0:
192,192,41368,1,0,0:0:0:0:
320,192,41368,1,0,0:0:0:0:
448,192,41456,1,0,0:0:0:0:
64,192,41456,1,0,0:0:0:0:
192,192,41544,1,0,0:0:0:0:
320,192,41544,1,0,0:0:0:0:
448,192,41632,1,0,0:0:0:0:
64,192,41632,1,0,0:0:0:0:
320,192,41721,128,0,42426:0:0:0:0:
192,192,41721,128,0,42426:0:0:0:0:
448,192,42073,1,0,0:0:0:0:
64,192,42426,1,0,0:0:0:0:
448,192,42426,1,0,0:0:0:0:
192,192,42515,1,0,0:0:0:0:
64,192,42603,1,0,0:0:0:0:
448,192,42603,1,0,0:0:0:0:
320,192,42691,1,0,0:0:0:0:
448,192,42779,1,0,0:0:0:0:
64,192,42779,1,0,0:0:0:0:
192,192,42868,1,0,0:0:0:0:
448,192,42956,1,0,0:0:0:0:
64,192,42956,1,0,0:0:0:0:
192,192,43044,1,0,0:0:0:0:
448,192,43132,1,0,0:0:0:0:
320,192,43132,1,0,0:0:0:0:
192,192,43221,1,0,0:0:0:0:
448,192,43309,1,0,0:0:0:0:
64,192,43309,1,0,0:0:0:0:
320,192,43397,1,0,0:0:0:0:
448,192,43485,1,0,0:0:0:0:
64,192,43485,1,0,0:0:0:0:
192,192,43573,1,0,0:0:0:0:
64,192,43662,1,0,0:0:0:0:
320,192,43662,1,0,0:0:0:0:
448,192,43750,1,0,0:0:0:0:
64,192,43838,1,0,0:0:0:0:
192,192,43838,1,0,0:0:0:0:
320,192,43926,1,0,0:0:0:0:
64,192,44015,1,0,0:0:0:0:
448,192,44015,1,0,0:0:0:0:
320,192,44103,1,0,0:0:0:0:
448,192,44191,1,0,0:0:0:0:
64,192,44191,1,0,0:0:0:0:
192,192,44279,1,0,0:0:0:0:
448,192,44368,1,0,0:0:0:0:
64,192,44368,1,0,0:0:0:0:
192,192,44456,1,0,0:0:0:0:
448,192,44544,1,0,0:0:0:0:
320,192,44544,1,0,0:0:0:0:
192,192,44632,1,0,0:0:0:0:
64,192,44721,1,0,0:0:0:0:
320,192,44721,1,0,0:0:0:0:
448,192,44809,1,0,0:0:0:0:
320,192,44897,1,0,0:0:0:0:
192,192,44897,1,0,0:0:0:0:
64,192,44985,1,0,0:0:0:0:
192,192,45073,1,0,0:0:0:0:
320,192,45073,1,0,0:0:0:0:
448,192,45162,1,0,0:0:0:0:
64,192,45250,1,0,0:0:0:0:
192,192,45250,1,0,0:0:0:0:
320,192,45250,1,0,0:0:0:0:
448,192,45426,1,0,0:0:0:0:
320,192,45426,1,0,0:0:0:0:
448,192,45515,1,0,0:0:0:0:
192,192,45515,1,0,0:0:0:0:
64,192,45603,1,0,0:0:0:0:
192,192,45603,1,0,0:0:0:0:
320,192,45603,1,0,0:0:0:0:
64,192,45779,1,0,0:0:0:0:
192,192,45779,1,0,0:0:0:0:
64,192,45868,1,0,0:0:0:0:
320,192,45868,1,0,0:0:0:0:
448,192,45956,1,0,0:0:0:0:
192,192,45956,1,0,0:0:0:0:
320,192,45956,1,0,0:0:0:0:
320,192,46132,1,0,0:0:0:0:
192,192,46132,1,0,0:0:0:0:
320,192,46221,1,0,0:0:0:0:
64,192,46221,1,0,0:0:0:0:
192,192,46309,1,0,0:0:0:0:
64,192,46309,1,0,0:0:0:0:
448,192,46309,1,0,0:0:0:0:
192,192,46485,1,0,0:0:0:0:
320,192,46485,1,0,0:0:0:0:
192,192,46573,1,0,0:0:0:0:
448,192,46573,1,0,0:0:0:0:
64,192,46662,1,0,0:0:0:0:
320,192,46662,1,0,0:0:0:0:
448,192,46662,1,0,0:0:0:0:
448,192,46838,1,0,0:0:0:0:
320,192,46838,1,0,0:0:0:0:
448,192,46926,1,0,0:0:0:0:
192,192,46926,1,0,0:0:0:0:
320,192,47015,1,0,0:0:0:0:
192,192,47015,1,0,0:0:0:0:
64,192,47015,1,0,0:0:0:0:
64,192,47191,1,0,0:0:0:0:
192,192,47191,1,0,0:0:0:0:
64,192,47279,1,0,0:0:0:0:
320,192,47279,1,0,0:0:0:0:
192,192,47368,1,0,0:0:0:0:
320,192,47368,1,0,0:0:0:0:
448,192,47368,1,0,0:0:0:0:
320,192,47544,1,0,0:0:0:0:
192,192,47544,1,0,0:0:0:0:
320,192,47632,1,0,0:0:0:0:
64,192,47632,1,0,0:0:0:0:
448,192,47721,1,0,0:0:0:0:
192,192,47721,1,0,0:0:0:0:
64,192,47721,1,0,0:0:0:0:
192,192,47897,1,0,0:0:0:0:
320,192,47897,1,0,0:0:0:0:
192,192,47985,1,0,0:0:0:0:
448,192,47985,1,0,0:0:0:0:
64,192,48073,1,0,0:0:0:0:
320,192,48073,1,0,0:0:0:0:
448,192,48073,1,0,0:0:0:0:
64,192,48779,1,0,0:0:0:0:
192,192,48779,1,0,0:0:0:0:
320,192,48779,1,0,0:0:0:0:
448,192,48779,1,0,0:0:0:0:
448,192,49132,1,0,0:0:0:0:
320,192,49132,1,0,0:0:0:0:
192,192,49132,1,0,0:0:0:0:
64,192,49132,1,0,0:0:0:0:
64,192,49485,1,0,0:0:0:0:
320,192,49485,1,0,0:0:0:0:
448,192,49485,1,0,0:0:0:0:
192,192,49573,1,0,0:0:0:0:
320,192,49662,1,0,0:0:0:0:
448,192,49662,1,0,0:0:0:0:
64,192,49750,1,0,0:0:0:0:
320,192,49838,1,0,0:0:0:0:
448,192,49838,1,0,0:0:0:0:
192,192,49838,1,0,0:0:0:0:
64,192,49926,1,0,0:0:0:0:
192,192,50015,1,0,0:0:0:0:
320,192,50015,1,0,0:0:0:0:
448,192,50103,1,0,0:0:0:0:
192,192,50191,1,0,0:0:0:0:
64,192,50191,1,0,0:0:0:0:
320,192,50191,1,0,0:0:0:0:
448,192,50279,1,0,0:0:0:0:
64,192,50368,1,0,0:0:0:0:
320,192,50368,1,0,0:0:0:0:
192,192,50456,1,0,0:0:0:0:
448,192,50544,1,0,0:0:0:0:
320,192,50544,1,0,0:0:0:0:
64,192,50544,1,0,0:0:0:0:
192,192,50632,1,0,0:0:0:0:
64,192,50721,1,0,0:0:0:0:
448,192,50721,1,0,0:0:0:0:
192,192,50809,1,0,0:0:0:0:
320,192,50897,1,0,0:0:0:0:
448,192,50897,1,0,0:0:0:0:
64,192,50897,1,0,0:0:0:0:
192,192,50985,1,0,0:0:0:0:
448,192,51073,1,0,0:0:0:0:
320,192,51073,1,0,0:0:0:0:
64,192,51162,1,0,0:0:0:0:
320,192,51250,1,0,0:0:0:0:
192,192,51250,1,0,0:0:0:0:
448,192,51250,1,0,0:0:0:0:
64,192,51338,1,0,0:0:0:0:
192,192,51426,1,0,0:0:0:0:
320,192,51426,1,0,0:0:0:0:
448,192,51515,1,0,0:0:0:0:
192,192,51603,1,0,0:0:0:0:
64,192,51603,1,0,0:0:0:0:
320,192,51603,1,0,0:0:0:0:
448,192,51691,1,0,0:0:0:0:
64,192,51779,1,0,0:0:0:0:
192,192,51779,1,0,0:0:0:0:
320,192,51868,1,0,0:0:0:0:
192,192,51956,1,0,0:0:0:0:
448,192,51956,1,0,0:0:0:0:
64,192,51956,1,0,0:0:0:0:
320,192,52044,1,0,0:0:0:0:
448,192,52132,1,0,0:0:0:0:
192,192,52132,1,0,0:0:0:0:
64,192,52221,1,0,0:0:0:0:
192,192,52309,1,0,0:0:0:0:
448,192,52309,1,0,0:0:0:0:
320,192,52309,1,0,0:0:0:0:
64,192,52397,1,0,0:0:0:0:
448,192,52485,1,0,0:0:0:0:
320,192,52485,1,0,0:0:0:0:
192,192,52573,1,0,0:0:0:0:
320,192,52662,1,0,0:0:0:0:
64,192,52662,1,0,0:0:0:0:
448,192,52662,1,0,0:0:0:0:
192,192,52750,1,0,0:0:0:0:
64,192,52838,1,0,0:0:0:0:
320,192,52838,1,0,0:0:0:0:
192,192,52926,1,0,0:0:0:0:
320,192,53015,1,0,0:0:0:0:
64,192,53015,1,0,0:0:0:0:
448,192,53015,1,0,0:0:0:0:
192,192,53103,1,0,0:0:0:0:
64,192,53191,1,0,0:0:0:0:
448,192,53191,1,0,0:0:0:0:
320,192,53279,1,0,0:0:0:0:
192,192,53368,1,0,0:0:0:0:
64,192,53368,1,0,0:0:0:0:
448,192,53368,1,0,0:0:0:0:
320,192,53456,1,0,0:0:0:0:
192,192,53544,1,0,0:0:0:0:
64,192,53544,1,0,0:0:0:0:
320,192,53632,1,0,0:0:0:0:
192,192,53721,1,0,0:0:0:0:
448,192,53721,1,0,0:0:0:0:
64,192,53721,1,0,0:0:0:0:
320,192,53809,1,0,0:0:0:0:
192,192,53897,1,0,0:0:0:0:
64,192,53897,1,0,0:0:0:0:
448,192,53985,1,0,0:0:0:0:
192,192,54073,1,0,0:0:0:0:
64,192,54073,1,0,0:0:0:0:
320,192,54073,1,0,0:0:0:0:
448,192,54162,1,0,0:0:0:0:
320,192,54250,1,0,0:0:0:0:
192,192,54250,1,0,0:0:0:0:
64,192,54338,1,0,0:0:0:0:
320,192,54426,1,0,0:0:0:0:
448,192,54426,1,0,0:0:0:0:
192,192,54426,1,0,0:0:0:0:
64,192,54515,1,0,0:0:0:0:
448,192,54603,1,0,0:0:0:0:
192,192,54603,1,0,0:0:0:0:
320,192,54691,1,0,0:0:0:0:
64,192,54779,1,0,0:0:0:0:
192,192,54779,1,0,0:0:0:0:
448,192,54779,1,0,0:0:0:0:
320,192,54868,1,0,0:0:0:0:
448,192,54956,1,0,0:0:0:0:
64,192,54956,1,0,0:0:0:0:
320,192,55044,1,0,0:0:0:0:
192,192,55132,1,0,0:0:0:0:
64,192,55132,1,0,0:0:0:0:
448,192,55132,1,0,0:0:0:0:
320,192,55221,1,0,0:0:0:0:
64,192,55309,1,0,0:0:0:0:
192,192,55309,1,0,0:0:0:0:
448,192,55397,1,0,0:0:0:0:
192,192,55485,1,0,0:0:0:0:
320,192,55485,1,0,0:0:0:0:
64,192,55485,1,0,0:0:0:0:
448,192,55573,1,0,0:0:0:0:
320,192,55662,1,0,0:0:0:0:
192,192,55662,1,0,0:0:0:0:
64,192,55750,1,0,0:0:0:0:
320,192,55838,1,0,0:0:0:0:
448,192,55838,1,0,0:0:0:0:
192,192,55838,1,0,0:0:0:0:
64,192,55926,1,0,0:0:0:0:
448,192,56015,1,0,0:0:0:0:
320,192,56015,1,0,0:0:0:0:
192,192,56103,1,0,0:0:0:0:
320,192,56191,1,0,0:0:0:0:
64,192,56191,1,0,0:0:0:0:
448,192,56191,1,0,0:0:0:0:
192,192,56279,1,0,0:0:0:0:
64,192,56368,1,0,0:0:0:0:
320,192,56368,1,0,0:0:0:0:
448,192,56456,1,0,0:0:0:0:
320,192,56544,1,0,0:0:0:0:
64,192,56544,1,0,0:0:0:0:
192,192,56544,1,0,0:0:0:0:
448,192,56632,1,0,0:0:0:0:
64,192,56721,1,0,0:0:0:0:
192,192,56721,1,0,0:0:0:0:
320,192,56809,1,0,0:0:0:0:
192,192,56897,1,0,0:0:0:0:
448,192,56897,1,0,0:0:0:0:
64,192,56897,1,0,0:0:0:0:
320,192,56985,1,0,0:0:0:0:
448,192,57073,1,0,0:0:0:0:
192,192,57073,1,0,0:0:0:0:
320,192,57162,1,0,0:0:0:0:
192,192,57250,1,0,0:0:0:0:
448,192,57250,1,0,0:0:0:0:
64,192,57250,1,0,0:0:0:0:
320,192,57338,1,0,0:0:0:0:
448,192,57426,1,0,0:0:0:0:
64,192,57426,1,0,0:0:0:0:
192,192,57515,5,0,0:0:0:0:
320,192,57603,5,0,0:0:0:0:
448,192,57603,1,0,0:0:0:0:
64,192,57603,1,0,0:0:0:0:
192,192,57691,1,0,0:0:0:0:
320,192,57779,1,0,0:0:0:0:
448,192,57779,1,0,0:0:0:0:
192,192,57868,1,0,0:0:0:0:
64,192,57956,1,0,0:0:0:0:
320,192,57956,1,0,0:0:0:0:
448,192,57956,1,0,0:0:0:0:
192,192,58044,1,0,0:0:0:0:
64,192,58132,1,0,0:0:0:0:
448,192,58132,1,0,0:0:0:0:
320,192,58221,1,0,0:0:0:0:
64,192,58309,1,0,0:0:0:0:
192,192,58309,1,0,0:0:0:0:
448,192,58309,1,0,0:0:0:0:
320,192,58397,1,0,0:0:0:0:
192,192,58485,1,0,0:0:0:0:
64,192,58485,1,0,0:0:0:0:
320,192,58573,1,0,0:0:0:0:
64,192,58662,5,0,0:0:0:0:
192,192,58662,1,0,0:0:0:0:
320,192,58662,1,0,0:0:0:0:
448,192,58662,1,0,0:0:0:0:
448,192,58838,1,0,0:0:0:0:
192,192,58926,1,0,0:0:0:0:
64,192,59015,1,0,0:0:0:0:
192,192,59015,1,0,0:0:0:0:
320,192,59015,1,0,0:0:0:0:
448,192,59015,1,0,0:0:0:0:
64,192,59191,1,0,0:0:0:0:
320,192,59279,1,0,0:0:0:0:
448,192,59368,1,0,0:0:0:0:
320,192,59368,1,0,0:0:0:0:
192,192,59368,1,0,0:0:0:0:
64,192,59368,1,0,0:0:0:0:
64,192,59544,1,0,0:0:0:0:
320,192,59544,1,0,0:0:0:0:
192,192,59632,1,0,0:0:0:0:
448,192,59721,1,0,0:0:0:0:
320,192,59721,1,0,0:0:0:0:
192,192,59809,1,0,0:0:0:0:
64,192,59897,1,0,0:0:0:0:
448,192,59897,1,0,0:0:0:0:
320,192,59985,1,0,0:0:0:0:
64,192,60073,1,0,0:0:0:0:
192,192,60073,1,0,0:0:0:0:
320,192,60073,1,0,0:0:0:0:
448,192,60073,1,0,0:0:0:0:
64,192,60250,1,0,0:0:0:0:
192,192,60338,1,0,0:0:0:0:
448,192,60426,1,0,0:0:0:0:
320,192,60426,1,0,0:0:0:0:
192,192,60426,1,0,0:0:0:0:
64,192,60426,1,0,0:0:0:0:
320,192,60603,1,0,0:0:0:0:
64,192,60603,1,0,0:0:0:0:
192,192,60691,1,0,0:0:0:0:
64,192,60779,1,0,0:0:0:0:
320,192,60779,1,0,0:0:0:0:
448,192,60779,1,0,0:0:0:0:
192,192,60868,1,0,0:0:0:0:
320,192,60956,1,0,0:0:0:0:
448,192,60956,1,0,0:0:0:0:
64,192,61044,1,0,0:0:0:0:
320,192,61132,1,0,0:0:0:0:
448,192,61132,1,0,0:0:0:0:
192,192,61132,1,0,0:0:0:0:
64,192,61221,1,0,0:0:0:0:
192,192,61309,1,0,0:0:0:0:
320,192,61309,1,0,0:0:0:0:
448,192,61397,1,0,0:0:0:0:
192,192,61485,1,0,0:0:0:0:
64,192,61485,1,0,0:0:0:0:
320,192,61485,1,0,0:0:0:0:
448,192,61573,1,0,0:0:0:0:
64,192,61662,1,0,0:0:0:0:
320,192,61662,1,0,0:0:0:0:
192,192,61750,1,0,0:0:0:0:
448,192,61838,1,0,0:0:0:0:
320,192,61838,1,0,0:0:0:0:
64,192,61838,1,0,0:0:0:0:
192,192,61926,1,0,0:0:0:0:
64,192,62015,1,0,0:0:0:0:
448,192,62015,1,0,0:0:0:0:
192,192,62103,1,0,0:0:0:0:
320,192,62191,1,0,0:0:0:0:
448,192,62191,1,0,0:0:0:0:
64,192,62191,1,0,0:0:0:0:
192,192,62279,1,0,0:0:0:0:
448,192,62368,1,0,0:0:0:0:
320,192,62368,1,0,0:0:0:0:
64,192,62456,1,0,0:0:0:0:
320,192,62544,1,0,0:0:0:0:
192,192,62544,1,0,0:0:0:0:
448,192,62544,1,0,0:0:0:0:
64,192,62632,1,0,0:0:0:0:
192,192,62721,1,0,0:0:0:0:
320,192,62721,1,0,0:0:0:0:
448,192,62809,1,0,0:0:0:0:
192,192,62897,1,0,0:0:0:0:
64,192,62897,1,0,0:0:0:0:
320,192,62897,1,0,0:0:0:0:
448,192,62985,1,0,0:0:0:0:
64,192,63073,1,0,0:0:0:0:
192,192,63073,1,0,0:0:0:0:
320,192,63162,1,0,0:0:0:0:
192,192,63250,1,0,0:0:0:0:
448,192,63250,1,0,0:0:0:0:
64,192,63250,1,0,0:0:0:0:
320,192,63338,1,0,0:0:0:0:
448,192,63426,1,0,0:0:0:0:
192,192,63426,1,0,0:0:0:0:
64,192,63515,1,0,0:0:0:0:
192,192,63603,1,0,0:0:0:0:
448,192,63603,1,0,0:0:0:0:
320,192,63603,1,0,0:0:0:0:
64,192,63691,1,0,0:0:0:0:
448,192,63779,1,0,0:0:0:0:
320,192,63779,1,0,0:0:0:0:
192,192,63868,1,0,0:0:0:0:
320,192,63956,1,0,0:0:0:0:
64,192,63956,1,0,0:0:0:0:
448,192,63956,1,0,0:0:0:0:
192,192,64044,1,0,0:0:0:0:
64,192,64132,1,0,0:0:0:0:
320,192,64132,1,0,0:0:0:0:
192,192,64221,1,0,0:0:0:0:
320,192,64309,1,0,0:0:0:0:
64,192,64309,1,0,0:0:0:0:
448,192,64309,1,0,0:0:0:0:
192,192,64397,1,0,0:0:0:0:
64,192,64485,1,0,0:0:0:0:
448,192,64485,1,0,0:0:0:0:
320,192,64573,1,0,0:0:0:0:
192,192,64662,1,0,0:0:0:0:
64,192,64662,1,0,0:0:0:0:
448,192,64662,1,0,0:0:0:0:
320,192,64750,1,0,0:0:0:0:
192,192,64838,1,0,0:0:0:0:
64,192,64838,1,0,0:0:0:0:
320,192,64926,1,0,0:0:0:0:
192,192,65015,1,0,0:0:0:0:
448,192,65015,1,0,0:0:0:0:
64,192,65015,1,0,0:0:0:0:
320,192,65103,1,0,0:0:0:0:
192,192,65191,1,0,0:0:0:0:
64,192,65191,1,0,0:0:0:0:
448,192,65279,1,0,0:0:0:0:
192,192,65368,1,0,0:0:0:0:
64,192,65368,1,0,0:0:0:0:
320,192,65368,1,0,0:0:0:0:
448,192,65456,1,0,0:0:0:0:
320,192,65544,1,0,0:0:0:0:
192,192,65544,1,0,0:0:0:0:
64,192,65632,1,0,0:0:0:0:
320,192,65721,1,0,0:0:0:0:
448,192,65721,1,0,0:0:0:0:
192,192,65721,1,0,0:0:0:0:
64,192,65809,1,0,0:0:0:0:
448,192,65897,1,0,0:0:0:0:
192,192,65897,1,0,0:0:0:0:
320,192,65985,1,0,0:0:0:0:
64,192,66073,1,0,0:0:0:0:
192,192,66073,1,0,0:0:0:0:
448,192,66073,1,0,0:0:0:0:
320,192,66162,1,0,0:0:0:0:
448,192,66250,1,0,0:0:0:0:
64,192,66250,1,0,0:0:0:0:
320,192,66338,1,0,0:0:0:0:
192,192,66426,1,0,0:0:0:0:
64,192,66426,1,0,0:0:0:0:
448,192,66426,1,0,0:0:0:0:
320,192,66515,1,0,0:0:0:0:
64,192,66603,1,0,0:0:0:0:
192,192,66603,1,0,0:0:0:0:
448,192,66691,1,0,0:0:0:0:
192,192,66779,1,0,0:0:0:0:
320,192,66779,1,0,0:0:0:0:
64,192,66779,1,0,0:0:0:0:
448,192,66868,1,0,0:0:0:0:
320,192,66956,1,0,0:0:0:0:
192,192,66956,1,0,0:0:0:0:
64,192,67044,1,0,0:0:0:0:
320,192,67132,1,0,0:0:0:0:
448,192,67132,1,0,0:0:0:0:
192,192,67132,1,0,0:0:0:0:
64,192,67221,1,0,0:0:0:0:
448,192,67309,1,0,0:0:0:0:
320,192,67309,1,0,0:0:0:0:
192,192,67397,1,0,0:0:0:0:
320,192,67485,1,0,0:0:0:0:
64,192,67485,1,0,0:0:0:0:
448,192,67485,1,0,0:0:0:0:
192,192,67573,1,0,0:0:0:0:
64,192,67662,1,0,0:0:0:0:
320,192,67662,1,0,0:0:0:0:
448,192,67750,1,0,0:0:0:0:
320,192,67838,1,0,0:0:0:0:
64,192,67838,1,0,0:0:0:0:
192,192,67838,1,0,0:0:0:0:
448,192,67926,1,0,0:0:0:0:
64,192,68015,1,0,0:0:0:0:
192,192,68015,1,0,0:0:0:0:
320,192,68103,1,0,0:0:0:0:
192,192,68191,1,0,0:0:0:0:
448,192,68191,1,0,0:0:0:0:
64,192,68191,1,0,0:0:0:0:
320,192,68279,1,0,0:0:0:0:
448,192,68368,1,0,0:0:0:0:
192,192,68368,1,0,0:0:0:0:
320,192,68456,1,0,0:0:0:0:
192,192,68544,1,0,0:0:0:0:
448,192,68544,1,0,0:0:0:0:
64,192,68544,1,0,0:0:0:0:
320,192,68632,1,0,0:0:0:0:
448,192,68721,1,0,0:0:0:0:
64,192,68721,1,0,0:0:0:0:
192,192,68809,5,0,0:0:0:0:
320,192,68897,5,0,0:0:0:0:
448,192,68897,1,0,0:0:0:0:
64,192,68897,1,0,0:0:0:0:
192,192,68985,1,0,0:0:0:0:
320,192,69073,1,0,0:0:0:0:
448,192,69073,1,0,0:0:0:0:
192,192,69162,1,0,0:0:0:0:
64,192,69250,1,0,0:0:0:0:
320,192,69250,1,0,0:0:0:0:
448,192,69250,1,0,0:0:0:0:
192,192,69338,1,0,0:0:0:0:
64,192,69426,1,0,0:0:0:0:
448,192,69426,1,0,0:0:0:0:
320,192,69515,1,0,0:0:0:0:
64,192,69603,1,0,0:0:0:0:
192,192,69603,1,0,0:0:0:0:
448,192,69603,1,0,0:0:0:0:
320,192,69691,1,0,0:0:0:0:
192,192,69779,1,0,0:0:0:0:
64,192,69779,1,0,0:0:0:0:
320,192,69868,1,0,0:0:0:0:
64,192,69956,5,0,0:0:0:0:
448,192,69956,1,0,0:0:0:0:
192,192,69956,1,0,0:0:0:0:
320,192,70044,1,0,0:0:0:0:
448,192,70132,1,0,0:0:0:0:
64,192,70132,1,0,0:0:0:0:
192,192,70221,1,0,0:0:0:0:
320,192,70309,1,0,0:0:0:0:
448,192,70309,1,0,0:0:0:0:
64,192,70309,1,0,0:0:0:0:
192,192,70397,1,0,0:0:0:0:
448,192,70485,1,0,0:0:0:0:
320,192,70485,1,0,0:0:0:0:
64,192,70573,1,0,0:0:0:0:
192,192,70662,1,0,0:0:0:0:
320,192,70662,1,0,0:0:0:0:
448,192,70662,1,0,0:0:0:0:
64,192,70750,1,0,0:0:0:0:
320,192,70838,1,0,0:0:0:0:
192,192,70838,1,0,0:0:0:0:
448,192,70926,1,0,0:0:0:0:
320,192,71015,1,0,0:0:0:0:
192,192,71015,1,0,0:0:0:0:
64,192,71015,1,0,0:0:0:0:
448,192,71103,1,0,0:0:0:0:
320,192,71191,1,0,0:0:0:0:
192,192,71191,1,0,0:0:0:0:
64,192,71279,1,0,0:0:0:0:
320,192,71368,1,0,0:0:0:0:
192,192,71368,1,0,0:0:0:0:
448,192,71456,1,0,0:0:0:0:
64,192,71544,5,0,0:0:0:0:
192,192,71544,1,0,0:0:0:0:
448,192,71632,1,0,0:0:0:0:
320,192,71632,1,0,0:0:0:0:
64,192,71721,1,0,0:0:0:0:
192,192,71721,1,0,0:0:0:0:
448,192,71809,1,0,0:0:0:0:
320,192,71809,1,0,0:0:0:0:
192,192,71897,1,0,0:0:0:0:
64,192,71897,1,0,0:0:0:0:
320,192,71985,1,0,0:0:0:0:
448,192,71985,1,0,0:0:0:0:
64,192,72073,5,0,0:0:0:0:
192,192,72073,1,0,0:0:0:0:
448,192,72073,1,0,0:0:0:0:
320,192,72073,1,0,0:0:0:0:
192,192,72250,1,0,0:0:0:0:
320,192,72250,1,0,0:0:0:0:
448,192,72426,1,0,0:0:0:0:
320,192,72426,1,0,0:0:0:0:
192,192,72426,1,0,0:0:0:0:
64,192,72426,1,0,0:0:0:0:
64,192,72603,1,0,0:0:0:0:
192,192,72603,1,0,0:0:0:0:
448,192,72779,1,0,0:0:0:0:
320,192,72779,1,0,0:0:0:0:
192,192,72779,1,0,0:0:0:0:
64,192,72956,1,0,0:0:0:0:
192,192,72956,1,0,0:0:0:0:
320,192,72956,1,0,0:0:0:0:
448,192,73132,1,0,0:0:0:0:
192,192,73132,1,0,0:0:0:0:
64,192,73132,1,0,0:0:0:0:
448,192,73309,1,0,0:0:0:0:
320,192,73309,1,0,0:0:0:0:
192,192,73309,1,0,0:0:0:0:
320,192,73485,1,0,0:0:0:0:
64,192,73485,1,0,0:0:0:0:
192,192,73573,1,0,0:0:0:0:
64,192,73662,1,0,0:0:0:0:
448,192,73662,1,0,0:0:0:0:
192,192,73750,1,0,0:0:0:0:
320,192,73838,1,0,0:0:0:0:
448,192,73838,1,0,0:0:0:0:
64,192,73838,1,0,0:0:0:0:
64,192,74015,1,0,0:0:0:0:
192,192,74015,1,0,0:0:0:0:
448,192,74015,1,0,0:0:0:0:
320,192,74191,1,0,0:0:0:0:
448,192,74191,1,0,0:0:0:0:
192,192,74191,1,0,0:0:0:0:
64,192,74368,1,0,0:0:0:0:
192,192,74368,1,0,0:0:0:0:
64,192,74544,1,0,0:0:0:0:
320,192,74544,1,0,0:0:0:0:
192,192,74632,1,0,0:0:0:0:
320,192,74721,1,0,0:0:0:0:
448,192,74809,1,0,0:0:0:0:
64,192,74897,1,0,0:0:0:0:
192,192,74897,1,0,0:0:0:0:
320,192,74897,1,0,0:0:0:0:
448,192,75073,1,0,0:0:0:0:
192,192,75073,1,0,0:0:0:0:
320,192,75162,1,0,0:0:0:0:
64,192,75162,1,0,0:0:0:0:
192,192,75250,1,0,0:0:0:0:
448,192,75250,1,0,0:0:0:0:
448,192,75426,1,0,0:0:0:0:
320,192,75426,1,0,0:0:0:0:
64,192,75426,1,0,0:0:0:0:
64,192,75603,1,0,0:0:0:0:
192,192,75603,1,0,0:0:0:0:
448,192,75603,1,0,0:0:0:0:
192,192,75779,1,0,0:0:0:0:
320,192,75779,1,0,0:0:0:0:
448,192,75779,1,0,0:0:0:0:
64,192,75956,1,0,0:0:0:0:
192,192,75956,1,0,0:0:0:0:
320,192,75956,1,0,0:0:0:0:
192,192,76132,1,0,0:0:0:0:
320,192,76132,1,0,0:0:0:0:
448,192,76221,1,0,0:0:0:0:
320,192,76309,1,0,0:0:0:0:
192,192,76309,1,0,0:0:0:0:
64,192,76309,1,0,0:0:0:0:
64,192,76485,1,0,0:0:0:0:
320,192,76485,1,0,0:0:0:0:
192,192,76573,1,0,0:0:0:0:
448,192,76573,1,0,0:0:0:0:
320,192,76662,1,0,0:0:0:0:
64,192,76662,1,0,0:0:0:0:
320,192,76838,1,0,0:0:0:0:
192,192,76838,1,0,0:0:0:0:
448,192,77015,128,0,77368:0:0:0:0:
64,192,77015,1,0,0:0:0:0:
320,192,77015,1,0,0:0:0:0:
192,192,77103,1,0,0:0:0:0:
64,192,77191,1,0,0:0:0:0:
64,192,77368,128,0,77721:0:0:0:0:
320,192,77368,1,0,0:0:0:0:
192,192,77368,1,0,0:0:0:0:
320,192,77721,1,0,0:0:0:0:
448,192,77721,1,0,0:0:0:0:
192,192,77721,1,0,0:0:0:0:
448,192,77838,1,0,0:0:0:0:
320,192,77838,1,0,0:0:0:0:
320,192,77956,1,0,0:0:0:0:
448,192,77956,1,0,0:0:0:0:
64,192,78073,1,0,0:0:0:0:
192,192,78073,1,0,0:0:0:0:
448,192,78073,1,0,0:0:0:0:
192,192,78191,1,0,0:0:0:0:
64,192,78191,1,0,0:0:0:0:
64,192,78309,1,0,0:0:0:0:
192,192,78309,1,0,0:0:0:0:
448,192,78426,1,0,0:0:0:0:
320,192,78426,1,0,0:0:0:0:
64,192,78426,1,0,0:0:0:0:
320,192,78544,1,0,0:0:0:0:
448,192,78544,1,0,0:0:0:0:
448,192,78662,1,0,0:0:0:0:
320,192,78662,1,0,0:0:0:0:
64,192,78779,1,0,0:0:0:0:
192,192,78779,1,0,0:0:0:0:
320,192,78779,1,0,0:0:0:0:
192,192,78897,1,0,0:0:0:0:
64,192,78897,1,0,0:0:0:0:
64,192,79015,1,0,0:0:0:0:
192,192,79015,1,0,0:0:0:0:
192,192,79132,1,0,0:0:0:0:
448,192,79132,1,0,0:0:0:0:
320,192,79132,1,0,0:0:0:0:
448,192,79250,1,0,0:0:0:0:
320,192,79250,1,0,0:0:0:0:
448,192,79368,1,0,0:0:0:0:
320,192,79368,1,0,0:0:0:0:
320,192,79485,1,0,0:0:0:0:
192,192,79485,1,0,0:0:0:0:
64,192,79485,1,0,0:0:0:0:
64,192,79603,1,0,0:0:0:0:
192,192,79603,1,0,0:0:0:0:
64,192,79721,1,0,0:0:0:0:
192,192,79721,1,0,0:0:0:0:
192,192,79838,1,0,0:0:0:0:
320,192,79838,1,0,0:0:0:0:
448,192,79838,1,0,0:0:0:0:
448,192,79956,1,0,0:0:0:0:
192,192,79956,1,0,0:0:0:0:
448,192,80073,1,0,0:0:0:0:
192,192,80073,1,0,0:0:0:0:
320,192,80191,1,0,0:0:0:0:
192,192,80191,1,0,0:0:0:0:
64,192,80191,1,0,0:0:0:0:
64,192,80309,1,0,0:0:0:0:
320,192,80309,1,0,0:0:0:0:
64,192,80426,1,0,0:0:0:0:
320,192,80426,1,0,0:0:0:0:
64,192,80544,1,0,0:0:0:0:
192,192,80544,1,0,0:0:0:0:
448,192,80544,1,0,0:0:0:0:
448,192,80779,1,0,0:0:0:0:
320,192,80779,1,0,0:0:0:0:
64,192,80897,1,0,0:0:0:0:
192,192,80897,1,0,0:0:0:0:
448,192,81015,1,0,0:0:0:0:
320,192,81015,1,0,0:0:0:0:
320,192,81132,1,0,0:0:0:0:
448,192,81132,1,0,0:0:0:0:
64,192,81250,1,0,0:0:0:0:
192,192,81250,1,0,0:0:0:0:
320,192,81250,1,0,0:0:0:0:
448,192,81485,1,0,0:0:0:0:
320,192,81485,1,0,0:0:0:0:
192,192,81603,1,0,0:0:0:0:
64,192,81603,1,0,0:0:0:0:
320,192,81721,1,0,0:0:0:0:
448,192,81721,1,0,0:0:0:0:
448,192,81838,1,0,0:0:0:0:
320,192,81838,1,0,0:0:0:0:
64,192,81956,1,0,0:0:0:0:
192,192,81956,1,0,0:0:0:0:
448,192,81956,1,0,0:0:0:0:
320,192,82132,1,0,0:0:0:0:
64,192,82221,1,0,0:0:0:0:
192,192,82221,1,0,0:0:0:0:
448,192,82309,1,0,0:0:0:0:
320,192,82309,1,0,0:0:0:0:
64,192,82397,1,0,0:0:0:0:
192,192,82485,1,0,0:0:0:0:
320,192,82485,1,0,0:0:0:0:
64,192,82662,1,0,0:0:0:0:
320,192,82662,1,0,0:0:0:0:
192,192,82662,1,0,0:0:0:0:
448,192,82838,1,0,0:0:0:0:
192,192,82838,1,0,0:0:0:0:
64,192,82838,1,0,0:0:0:0:
448,192,83015,1,0,0:0:0:0:
320,192,83015,1,0,0:0:0:0:
64,192,83015,1,0,0:0:0:0:
320,192,83191,1,0,0:0:0:0:
192,192,83191,1,0,0:0:0:0:
448,192,83191,1,0,0:0:0:0:
320,192,83368,1,0,0:0:0:0:
448,192,83368,1,0,0:0:0:0:
192,192,83368,1,0,0:0:0:0:
448,192,83485,1,0,0:0:0:0:
320,192,83485,1,0,0:0:0:0:
320,192,83603,1,0,0:0:0:0:
448,192,83603,1,0,0:0:0:0:
64,192,83721,1,0,0:0:0:0:
192,192,83721,1,0,0:0:0:0:
448,192,83721,1,0,0:0:0:0:
192,192,83838,1,0,0:0:0:0:
64,192,83838,1,0,0:0:0:0:
64,192,83956,1,0,0:0:0:0:
192,192,83956,1,0,0:0:0:0:
448,192,84073,1,0,0:0:0:0:
320,192,84073,1,0,0:0:0:0:
64,192,84073,1,0,0:0:0:0:
320,192,84191,1,0,0:0:0:0:
448,192,84191,1,0,0:0:0:0:
448,192,84309,1,0,0:0:0:0:
320,192,84309,1,0,0:0:0:0:
64,192,84426,1,0,0:0:0:0:
192,192,84426,1,0,0:0:0:0:
320,192,84426,1,0,0:0:0:0:
192,192,84544,1,0,0:0:0:0:
64,192,84544,1,0,0:0:0:0:
64,192,84662,1,0,0:0:0:0:
192,192,84662,1,0,0:0:0:0:
192,192,84779,1,0,0:0:0:0:
448,192,84779,1,0,0:0:0:0:
320,192,84779,1,0,0:0:0:0:
448,192,84897,1,0,0:0:0:0:
320,192,84897,1,0,0:0:0:0:
448,192,85015,1,0,0:0:0:0:
320,192,85015,1,0,0:0:0:0:
320,192,85132,1,0,0:0:0:0:
192,192,85132,1,0,0:0:0:0:
64,192,85132,1,0,0:0:0:0:
64,192,85250,1,0,0:0:0:0:
192,192,85250,1,0,0:0:0:0:
64,192,85368,1,0,0:0:0:0:
192,192,85368,1,0,0:0:0:0:
192,192,85485,1,0,0:0:0:0:
320,192,85485,1,0,0:0:0:0:
448,192,85485,1,0,0:0:0:0:
448,192,85603,1,0,0:0:0:0:
320,192,85603,1,0,0:0:0:0:
448,192,85721,1,0,0:0:0:0:
320,192,85721,1,0,0:0:0:0:
320,192,85838,1,0,0:0:0:0:
192,192,85838,1,0,0:0:0:0:
64,192,85838,1,0,0:0:0:0:
64,192,85956,1,0,0:0:0:0:
320,192,85956,1,0,0:0:0:0:
64,192,86073,1,0,0:0:0:0:
320,192,86073,1,0,0:0:0:0:
64,192,86191,1,0,0:0:0:0:
192,192,86191,1,0,0:0:0:0:
448,192,86191,1,0,0:0:0:0:
192,192,86309,1,0,0:0:0:0:
448,192,86309,1,0,0:0:0:0:
192,192,86426,1,0,0:0:0:0:
448,192,86426,1,0,0:0:0:0:
448,192,86544,128,0,86897:0:0:0:0:
192,192,86544,128,0,86897:0:0:0:0:
320,192,86544,1,0,0:0:0:0:
64,192,86544,1,0,0:0:0:0:
64,192,86897,1,0,0:0:0:0:
320,192,86897,1,0,0:0:0:0:
64,192,87015,1,0,0:0:0:0:
320,192,87015,1,0,0:0:0:0:
64,192,87132,1,0,0:0:0:0:
320,192,87132,1,0,0:0:0:0:
64,192,87250,128,0,87603:0:0:0:0:
320,192,87250,128,0,87603:0:0:0:0:
192,192,87250,1,0,0:0:0:0:
448,192,87250,1,0,0:0:0:0:
192,192,87603,1,0,0:0:0:0:
448,192,87603,1,0,0:0:0:0:
192,192,87721,1,0,0:0:0:0:
448,192,87721,1,0,0:0:0:0:
192,192,87838,1,0,0:0:0:0:
448,192,87838,1,0,0:0:0:0:
448,192,87956,1,0,0:0:0:0:
64,192,87956,1,0,0:0:0:0:
448,192,88073,1,0,0:0:0:0:
64,192,88073,1,0,0:0:0:0:
448,192,88191,1,0,0:0:0:0:
64,192,88191,1,0,0:0:0:0:
64,192,88309,1,0,0:0:0:0:
320,192,88309,1,0,0:0:0:0:
64,192,88426,1,0,0:0:0:0:
320,192,88426,1,0,0:0:0:0:
64,192,88544,1,0,0:0:0:0:
320,192,88544,1,0,0:0:0:0:
192,192,88662,128,0,89015:0:0:0:0:
448,192,88662,128,0,89015:0:0:0:0:
320,192,88662,1,0,0:0:0:0:
64,192,88662,1,0,0:0:0:0:
64,192,89015,1,0,0:0:0:0:
320,192,89015,1,0,0:0:0:0:
192,192,89103,1,0,0:0:0:0:
448,192,89103,1,0,0:0:0:0:
320,192,89191,1,0,0:0:0:0:
64,192,89191,1,0,0:0:0:0:
192,192,89279,1,0,0:0:0:0:
448,192,89279,1,0,0:0:0:0:
320,192,89368,1,0,0:0:0:0:
64,192,89368,1,0,0:0:0:0:
192,192,89456,1,0,0:0:0:0:
448,192,89456,1,0,0:0:0:0:
320,192,89544,1,0,0:0:0:0:
64,192,89544,1,0,0:0:0:0:
192,192,89632,1,0,0:0:0:0:
448,192,89632,1,0,0:0:0:0:
64,192,89721,128,0,90426:0:0:0:0:
320,192,89721,128,0,90426:0:0:0:0:
192,192,90073,1,0,0:0:0:0:
448,192,90426,1,0,0:0:0:0:
192,192,90426,1,0,0:0:0:0:
320,192,90515,1,0,0:0:0:0:
64,192,90515,1,0,0:0:0:0:
192,192,90603,1,0,0:0:0:0:
448,192,90603,1,0,0:0:0:0:
320,192,90691,1,0,0:0:0:0:
64,192,90691,1,0,0:0:0:0:
192,192,90779,1,0,0:0:0:0:
448,192,90779,1,0,0:0:0:0:
320,192,90868,1,0,0:0:0:0:
64,192,90868,1,0,0:0:0:0:
192,192,90956,1,0,0:0:0:0:
448,192,90956,1,0,0:0:0:0:
320,192,91044,1,0,0:0:0:0:
64,192,91044,1,0,0:0:0:0:
192,192,91132,128,0,91838:0:0:0:0:
448,192,91132,128,0,91838:0:0:0:0:
320,192,91485,1,0,0:0:0:0:
64,192,91838,1,0,0:0:0:0:
192,192,91926,1,0,0:0:0:0:
320,192,91926,1,0,0:0:0:0:
448,192,92015,1,0,0:0:0:0:
64,192,92015,1,0,0:0:0:0:
192,192,92103,1,0,0:0:0:0:
320,192,92103,1,0,0:0:0:0:
64,192,92191,1,0,0:0:0:0:
448,192,92191,1,0,0:0:0:0:
320,192,92279,1,0,0:0:0:0:
192,192,92279,1,0,0:0:0:0:
64,192,92368,1,0,0:0:0:0:
448,192,92368,1,0,0:0:0:0:
320,192,92456,1,0,0:0:0:0:
192,192,92456,1,0,0:0:0:0:
64,192,92544,128,0,93250:0:0:0:0:
448,192,92544,128,0,93250:0:0:0:0:
192,192,92897,1,0,0:0:0:0:
320,192,93250,1,0,0:0:0:0:
192,192,93250,1,0,0:0:0:0:
64,192,93338,1,0,0:0:0:0:
448,192,93338,1,0,0:0:0:0:
320,192,93426,1,0,0:0:0:0:
192,192,93426,1,0,0:0:0:0:
64,192,93515,1,0,0:0:0:0:
448,192,93515,1,0,0:0:0:0:
320,192,93603,1,0,0:0:0:0:
192,192,93603,1,0,0:0:0:0:
64,192,93691,1,0,0:0:0:0:
448,192,93691,1,0,0:0:0:0:
320,192,93779,1,0,0:0:0:0:
192,192,93779,1,0,0:0:0:0:
64,192,93868,1,0,0:0:0:0:
448,192,93868,1,0,0:0:0:0:
192,192,93956,128,0,94662:0:0:0:0:
320,192,93956,128,0,94662:0:0:0:0:
448,192,94309,1,0,0:0:0:0:
64,192,94662,1,0,0:0:0:0:
448,192,94662,1,0,0:0:0:0:
320,192,94750,1,0,0:0:0:0:
448,192,94838,1,0,0:0:0:0:
64,192,94838,1,0,0:0:0:0:
192,192,94926,1,0,0:0:0:0:
64,192,95015,1,0,0:0:0:0:
448,192,95015,1,0,0:0:0:0:
320,192,95103,1,0,0:0:0:0:
64,192,95191,1,0,0:0:0:0:
448,192,95191,1,0,0:0:0:0:
320,192,95279,1,0,0:0:0:0:
64,192,95368,1,0,0:0:0:0:
192,192,95368,1,0,0:0:0:0:
320,192,95456,1,0,0:0:0:0:
64,192,95544,1,0,0:0:0:0:
448,192,95544,1,0,0:0:0:0:
192,192,95632,1,0,0:0:0:0:
64,192,95721,1,0,0:0:0:0:
448,192,95721,1,0,0:0:0:0:
320,192,95809,1,0,0:0:0:0:
448,192,95897,1,0,0:0:0:0:
192,192,95897,1,0,0:0:0:0:
64,192,95985,1,0,0:0:0:0:
448,192,96073,1,0,0:0:0:0:
320,192,96073,1,0,0:0:0:0:
192,192,96162,1,0,0:0:0:0:
448,192,96250,1,0,0:0:0:0:
64,192,96250,1,0,0:0:0:0:
192,192,96338,1,0,0:0:0:0:
64,192,96426,1,0,0:0:0:0:
448,192,96426,1,0,0:0:0:0:
320,192,96515,1,0,0:0:0:0:
64,192,96603,1,0,0:0:0:0:
448,192,96603,1,0,0:0:0:0:
320,192,96691,1,0,0:0:0:0:
64,192,96779,1,0,0:0:0:0:
192,192,96779,1,0,0:0:0:0:
320,192,96868,1,0,0:0:0:0:
448,192,96956,1,0,0:0:0:0:
192,192,96956,1,0,0:0:0:0:
64,192,97044,1,0,0:0:0:0:
192,192,97132,1,0,0:0:0:0:
320,192,97132,1,0,0:0:0:0:
448,192,97221,1,0,0:0:0:0:
320,192,97309,1,0,0:0:0:0:
192,192,97309,1,0,0:0:0:0:
64,192,97397,1,0,0:0:0:0:
448,192,97485,1,0,0:0:0:0:
320,192,97485,1,0,0:0:0:0:
192,192,97485,1,0,0:0:0:0:
64,192,97662,1,0,0:0:0:0:
192,192,97662,1,0,0:0:0:0:
64,192,97750,1,0,0:0:0:0:
320,192,97750,1,0,0:0:0:0:
448,192,97838,1,0,0:0:0:0:
320,192,97838,1,0,0:0:0:0:
192,192,97838,1,0,0:0:0:0:
448,192,98015,1,0,0:0:0:0:
320,192,98015,1,0,0:0:0:0:
448,192,98103,1,0,0:0:0:0:
192,192,98103,1,0,0:0:0:0:
192,192,98191,1,0,0:0:0:0:
64,192,98191,1,0,0:0:0:0:
320,192,98191,1,0,0:0:0:0:
192,192,98368,1,0,0:0:0:0:
320,192,98368,1,0,0:0:0:0:
192,192,98456,1,0,0:0:0:0:
448,192,98456,1,0,0:0:0:0:
320,192,98544,1,0,0:0:0:0:
448,192,98544,1,0,0:0:0:0:
64,192,98544,1,0,0:0:0:0:
320,192,98721,1,0,0:0:0:0:
192,192,98721,1,0,0:0:0:0:
320,192,98809,1,0,0:0:0:0:
64,192,98809,1,0,0:0:0:0:
448,192,98897,1,0,0:0:0:0:
192,192,98897,128,0,99250:0:0:0:0:
64,192,98897,1,0,0:0:0:0:
448,192,99426,1,0,0:0:0:0:
64,192,99426,1,0,0:0:0:0:
320,192,99426,128,0,99603:0:0:0:0:
192,192,99779,1,0,0:0:0:0:
64,192,99779,1,0,0:0:0:0:
192,192,99868,1,0,0:0:0:0:
64,192,99868,1,0,0:0:0:0:
320,192,99956,128,0,100132:0:0:0:0:
64,192,99956,1,0,0:0:0:0:
448,192,99956,1,0,0:0:0:0:
320,192,100309,1,0,0:0:0:0:
448,192,100309,1,0,0:0:0:0:
192,192,100309,1,0,0:0:0:0:
448,192,100426,1,0,0:0:0:0:
320,192,100426,1,0,0:0:0:0:
320,192,100544,1,0,0:0:0:0:
448,192,100544,1,0,0:0:0:0:
64,192,100662,1,0,0:0:0:0:
192,192,100662,1,0,0:0:0:0:
448,192,100662,1,0,0:0:0:0:
192,192,100779,1,0,0:0:0:0:
64,192,100779,1,0,0:0:0:0:
64,192,100897,1,0,0:0:0:0:
192,192,100897,1,0,0:0:0:0:
448,192,101015,1,0,0:0:0:0:
320,192,101015,1,0,0:0:0:0:
64,192,101015,1,0,0:0:0:0:
320,192,101132,1,0,0:0:0:0:
448,192,101132,1,0,0:0:0:0:
448,192,101250,1,0,0:0:0:0:
320,192,101250,1,0,0:0:0:0:
64,192,101368,1,0,0:0:0:0:
192,192,101368,1,0,0:0:0:0:
320,192,101368,1,0,0:0:0:0:
192,192,101485,1,0,0:0:0:0:
64,192,101485,1,0,0:0:0:0:
64,192,101603,1,0,0:0:0:0:
192,192,101603,1,0,0:0:0:0:
320,192,101721,1,0,0:0:0:0:
448,192,101721,1,0,0:0:0:0:
192,192,101721,1,0,0:0:0:0:
192,192,101838,1,0,0:0:0:0:
448,192,101838,1,0,0:0:0:0:
448,192,101956,1,0,0:0:0:0:
192,192,101956,1,0,0:0:0:0:
320,192,102073,1,0,0:0:0:0:
192,192,102073,1,0,0:0:0:0:
64,192,102073,1,0,0:0:0:0:
64,192,102191,1,0,0:0:0:0:
320,192,102191,1,0,0:0:0:0:
64,192,102309,1,0,0:0:0:0:
320,192,102309,1,0,0:0:0:0:
192,192,102426,1,0,0:0:0:0:
320,192,102426,1,0,0:0:0:0:
448,192,102426,1,0,0:0:0:0:
448,192,102544,1,0,0:0:0:0:
192,192,102544,1,0,0:0:0:0:
448,192,102662,1,0,0:0:0:0:
192,192,102662,1,0,0:0:0:0:
320,192,102779,1,0,0:0:0:0:
192,192,102779,1,0,0:0:0:0:
64,192,102779,1,0,0:0:0:0:
64,192,102897,1,0,0:0:0:0:
320,192,102897,1,0,0:0:0:0:
64,192,103015,1,0,0:0:0:0:
320,192,103015,1,0,0:0:0:0:
64,192,103132,1,0,0:0:0:0:
192,192,103132,1,0,0:0:0:0:
448,192,103132,1,0,0:0:0:0:
64,192,103368,1,0,0:0:0:0:
192,192,103368,1,0,0:0:0:0:
448,192,103485,1,0,0:0:0:0:
320,192,103485,1,0,0:0:0:0:
64,192,103603,1,0,0:0:0:0:
192,192,103603,1,0,0:0:0:0:
192,192,103721,1,0,0:0:0:0:
64,192,103721,1,0,0:0:0:0:
448,192,103838,1,0,0:0:0:0:
320,192,103838,1,0,0:0:0:0:
192,192,103838,1,0,0:0:0:0:
64,192,104073,1,0,0:0:0:0:
192,192,104073,1,0,0:0:0:0:
320,192,104191,1,0,0:0:0:0:
448,192,104191,1,0,0:0:0:0:
192,192,104309,1,0,0:0:0:0:
64,192,104309,1,0,0:0:0:0:
64,192,104426,1,0,0:0:0:0:
192,192,104426,1,0,0:0:0:0:
448,192,104544,1,0,0:0:0:0:
320,192,104544,1,0,0:0:0:0:
64,192,104544,1,0,0:0:0:0:
192,192,104721,1,0,0:0:0:0:
448,192,104809,1,0,0:0:0:0:
320,192,104809,1,0,0:0:0:0:
64,192,104897,1,0,0:0:0:0:
192,192,104897,1,0,0:0:0:0:
448,192,104985,1,0,0:0:0:0:
320,192,105073,1,0,0:0:0:0:
192,192,105073,1,0,0:0:0:0:
448,192,105250,1,0,0:0:0:0:
192,192,105250,1,0,0:0:0:0:
320,192,105250,1,0,0:0:0:0:
64,192,105426,1,0,0:0:0:0:
320,192,105426,1,0,0:0:0:0:
448,192,105426,1,0,0:0:0:0:
64,192,105603,1,0,0:0:0:0:
192,192,105603,1,0,0:0:0:0:
448,192,105603,1,0,0:0:0:0:
192,192,105779,1,0,0:0:0:0:
320,192,105779,1,0,0:0:0:0:
64,192,105779,1,0,0:0:0:0:
192,192,105956,1,0,0:0:0:0:
64,192,105956,1,0,0:0:0:0:
320,192,105956,1,0,0:0:0:0:
64,192,106073,1,0,0:0:0:0:
192,192,106073,1,0,0:0:0:0:
192,192,106191,1,0,0:0:0:0:
64,192,106191,1,0,0:0:0:0:
448,192,106309,1,0,0:0:0:0:
320,192,106309,1,0,0:0:0:0:
64,192,106309,1,0,0:0:0:0:
320,192,106426,1,0,0:0:0:0:
448,192,106426,1,0,0:0:0:0:
448,192,106544,1,0,0:0:0:0:
320,192,106544,1,0,0:0:0:0:
64,192,106662,1,0,0:0:0:0:
192,192,106662,1,0,0:0:0:0:
448,192,106662,1,0,0:0:0:0:
192,192,106779,1,0,0:0:0:0:
64,192,106779,1,0,0:0:0:0:
64,192,106897,1,0,0:0:0:0:
192,192,106897,1,0,0:0:0:0:
448,192,107015,1,0,0:0:0:0:
320,192,107015,1,0,0:0:0:0:
192,192,107015,1,0,0:0:0:0:
320,192,107132,1,0,0:0:0:0:
448,192,107132,1,0,0:0:0:0:
448,192,107250,1,0,0:0:0:0:
320,192,107250,1,0,0:0:0:0:
192,192,107368,1,0,0:0:0:0:
64,192,107368,1,0,0:0:0:0:
320,192,107368,1,0,0:0:0:0:
320,192,107485,1,0,0:0:0:0:
64,192,107485,1,0,0:0:0:0:
64,192,107603,1,0,0:0:0:0:
320,192,107603,1,0,0:0:0:0:
192,192,107721,1,0,0:0:0:0:
320,192,107721,1,0,0:0:0:0:
448,192,107721,1,0,0:0:0:0:
448,192,107838,1,0,0:0:0:0:
192,192,107838,1,0,0:0:0:0:
448,192,107956,1,0,0:0:0:0:
192,192,107956,1,0,0:0:0:0:
320,192,108073,1,0,0:0:0:0:
192,192,108073,1,0,0:0:0:0:
64,192,108073,1,0,0:0:0:0:
64,192,108191,1,0,0:0:0:0:
320,192,108191,1,0,0:0:0:0:
64,192,108309,1,0,0:0:0:0:
320,192,108309,1,0,0:0:0:0:
192,192,108426,1,0,0:0:0:0:
320,192,108426,1,0,0:0:0:0:
448,192,108426,1,0,0:0:0:0:
448,192,108544,1,0,0:0:0:0:
192,192,108544,1,0,0:0:0:0:
448,192,108662,1,0,0:0:0:0:
192,192,108662,1,0,0:0:0:0:
448,192,108779,1,0,0:0:0:0:
320,192,108779,1,0,0:0:0:0:
64,192,108779,1,0,0:0:0:0:
64,192,108897,1,0,0:0:0:0:
320,192,108897,1,0,0:0:0:0:
64,192,109015,1,0,0:0:0:0:
320,192,109015,1,0,0:0:0:0:
64,192,109132,128,0,109485:0:0:0:0:
320,192,109132,128,0,109485:0:0:0:0:
192,192,109132,1,0,0:0:0:0:
448,192,109132,1,0,0:0:0:0:
448,192,109485,1,0,0:0:0:0:
192,192,109485,1,0,0:0:0:0:
448,192,109603,1,0,0:0:0:0:
192,192,109603,1,0,0:0:0:0:
448,192,109721,1,0,0:0:0:0:
192,192,109721,1,0,0:0:0:0:
192,192,109838,128,0,110191:0:0:0:0:
448,192,109838,128,0,110191:0:0:0:0:
320,192,110191,1,0,0:0:0:0:
64,192,110191,1,0,0:0:0:0:
64,192,110309,1,0,0:0:0:0:
320,192,110309,1,0,0:0:0:0:
64,192,110426,1,0,0:0:0:0:
320,192,110426,1,0,0:0:0:0:
64,192,110544,1,0,0:0:0:0:
448,192,110544,1,0,0:0:0:0:
64,192,110662,1,0,0:0:0:0:
448,192,110662,1,0,0:0:0:0:
64,192,110779,1,0,0:0:0:0:
448,192,110779,1,0,0:0:0:0:
448,192,110897,1,0,0:0:0:0:
192,192,110897,1,0,0:0:0:0:
448,192,111015,1,0,0:0:0:0:
192,192,111015,1,0,0:0:0:0:
448,192,111132,1,0,0:0:0:0:
192,192,111132,1,0,0:0:0:0:
448,192,111250,1,0,0:0:0:0:
192,192,111250,1,0,0:0:0:0:
64,192,111250,128,0,111603:0:0:0:0:
320,192,111250,128,0,111603:0:0:0:0:
192,192,111603,1,0,0:0:0:0:
448,192,111603,1,0,0:0:0:0:
320,192,111691,1,0,0:0:0:0:
64,192,111691,1,0,0:0:0:0:
192,192,111779,1,0,0:0:0:0:
448,192,111779,1,0,0:0:0:0:
320,192,111868,1,0,0:0:0:0:
64,192,111868,1,0,0:0:0:0:
192,192,111956,1,0,0:0:0:0:
448,192,111956,1,0,0:0:0:0:
320,192,112044,1,0,0:0:0:0:
64,192,112044,1,0,0:0:0:0:
192,192,112132,1,0,0:0:0:0:
448,192,112132,1,0,0:0:0:0:
320,192,112221,1,0,0:0:0:0:
64,192,112221,1,0,0:0:0:0:
192,192,112309,128,0,113015:0:0:0:0:
448,192,112309,128,0,113015:0:0:0:0:
64,192,112662,1,0,0:0:0:0:
320,192,113015,1,0,0:0:0:0:
64,192,113015,1,0,0:0:0:0:
192,192,113103,1,0,0:0:0:0:
448,192,113103,1,0,0:0:0:0:
320,192,113191,1,0,0:0:0:0:
64,192,113191,1,0,0:0:0:0:
192,192,113279,1,0,0:0:0:0:
448,192,113279,1,0,0:0:0:0:
320,192,113368,1,0,0:0:0:0:
64,192,113368,1,0,0:0:0:0:
192,192,113456,1,0,0:0:0:0:
448,192,113456,1,0,0:0:0:0:
320,192,113544,1,0,0:0:0:0:
64,192,113544,1,0,0:0:0:0:
192,192,113632,1,0,0:0:0:0:
448,192,113632,1,0,0:0:0:0:
64,192,113721,128,0,114426:0:0:0:0:
320,192,113721,128,0,114426:0:0:0:0:
448,192,114073,1,0,0:0:0:0:
448,192,114426,1,0,0:0:0:0:
320,192,114515,1,0,0:0:0:0:
192,192,114515,1,0,0:0:0:0:
64,192,114603,1,0,0:0:0:0:
448,192,114603,1,0,0:0:0:0:
192,192,114691,1,0,0:0:0:0:
320,192,114691,1,0,0:0:0:0:
448,192,114779,1,0,0:0:0:0:
64,192,114779,1,0,0:0:0:0:
192,192,114868,1,0,0:0:0:0:
320,192,114868,1,0,0:0:0:0:
448,192,114956,1,0,0:0:0:0:
64,192,114956,1,0,0:0:0:0:
320,192,115044,1,0,0:0:0:0:
192,192,115044,1,0,0:0:0:0:
64,192,115132,128,0,115838:0:0:0:0:
448,192,115132,128,0,115838:0:0:0:0:
192,192,115485,1,0,0:0:0:0:
192,192,115838,1,0,0:0:0:0:
320,192,115838,1,0,0:0:0:0:
448,192,115926,1,0,0:0:0:0:
64,192,115926,1,0,0:0:0:0:
192,192,116015,1,0,0:0:0:0:
320,192,116015,1,0,0:0:0:0:
64,192,116103,1,0,0:0:0:0:
448,192,116103,1,0,0:0:0:0:
320,192,116191,1,0,0:0:0:0:
192,192,116191,1,0,0:0:0:0:
64,192,116279,1,0,0:0:0:0:
448,192,116279,1,0,0:0:0:0:
320,192,116368,1,0,0:0:0:0:
192,192,116368,1,0,0:0:0:0:
64,192,116456,1,0,0:0:0:0:
448,192,116456,1,0,0:0:0:0:
320,192,116544,128,0,117250:0:0:0:0:
192,192,116544,128,0,117250:0:0:0:0:
448,192,116897,1,0,0:0:0:0:
64,192,117250,1,0,0:0:0:0:
448,192,117250,1,0,0:0:0:0:
192,192,117338,1,0,0:0:0:0:
64,192,117426,1,0,0:0:0:0:
448,192,117426,1,0,0:0:0:0:
320,192,117515,1,0,0:0:0:0:
448,192,117603,1,0,0:0:0:0:
64,192,117603,1,0,0:0:0:0:
192,192,117691,1,0,0:0:0:0:
448,192,117779,1,0,0:0:0:0:
64,192,117779,1,0,0:0:0:0:
192,192,117868,1,0,0:0:0:0:
448,192,117956,1,0,0:0:0:0:
320,192,117956,1,0,0:0:0:0:
192,192,118044,1,0,0:0:0:0:
448,192,118132,1,0,0:0:0:0:
64,192,118132,1,0,0:0:0:0:
320,192,118221,1,0,0:0:0:0:
448,192,118309,1,0,0:0:0:0:
64,192,118309,1,0,0:0:0:0:
192,192,118397,1,0,0:0:0:0:
64,192,118485,1,0,0:0:0:0:
320,192,118485,1,0,0:0:0:0:
448,192,118573,1,0,0:0:0:0:
64,192,118662,1,0,0:0:0:0:
192,192,118662,1,0,0:0:0:0:
320,192,118750,1,0,0:0:0:0:
64,192,118838,1,0,0:0:0:0:
448,192,118838,1,0,0:0:0:0:
320,192,118926,1,0,0:0:0:0:
448,192,119015,1,0,0:0:0:0:
64,192,119015,1,0,0:0:0:0:
192,192,119103,1,0,0:0:0:0:
448,192,119191,1,0,0:0:0:0:
64,192,119191,1,0,0:0:0:0:
192,192,119279,1,0,0:0:0:0:
448,192,119368,1,0,0:0:0:0:
320,192,119368,1,0,0:0:0:0:
192,192,119456,1,0,0:0:0:0:
64,192,119544,1,0,0:0:0:0:
320,192,119544,1,0,0:0:0:0:
448,192,119632,1,0,0:0:0:0:
320,192,119721,1,0,0:0:0:0:
192,192,119721,1,0,0:0:0:0:
64,192,119809,1,0,0:0:0:0:
192,192,119897,1,0,0:0:0:0:
320,192,119897,1,0,0:0:0:0:
448,192,119985,1,0,0:0:0:0:
64,192,120073,1,0,0:0:0:0:
192,192,120073,1,0,0:0:0:0:
320,192,120073,1,0,0:0:0:0:
448,192,120250,1,0,0:0:0:0:
320,192,120250,1,0,0:0:0:0:
448,192,120338,1,0,0:0:0:0:
192,192,120338,1,0,0:0:0:0:
64,192,120426,1,0,0:0:0:0:
192,192,120426,1,0,0:0:0:0:
320,192,120426,1,0,0:0:0:0:
64,192,120603,1,0,0:0:0:0:
192,192,120603,1,0,0:0:0:0:
64,192,120691,1,0,0:0:0:0:
320,192,120691,1,0,0:0:0:0:
320,192,120779,1,0,0:0:0:0:
448,192,120779,1,0,0:0:0:0:
192,192,120779,1,0,0:0:0:0:
320,192,120956,1,0,0:0:0:0:
192,192,120956,1,0,0:0:0:0:
320,192,121044,1,0,0:0:0:0:
64,192,121044,1,0,0:0:0:0:
192,192,121132,1,0,0:0:0:0:
64,192,121132,1,0,0:0:0:0:
448,192,121132,1,0,0:0:0:0:
192,192,121309,1,0,0:0:0:0:
320,192,121309,1,0,0:0:0:0:
192,192,121397,1,0,0:0:0:0:
448,192,121397,1,0,0:0:0:0:
64,192,121485,1,0,0:0:0:0:
448,192,121485,1,0,0:0:0:0:
192,192,121662,1,0,0:0:0:0:
320,192,121662,1,0,0:0:0:0:
448,192,121750,1,0,0:0:0:0:
64,192,121750,1,0,0:0:0:0:
192,192,121838,1,0,0:0:0:0:
320,192,121838,1,0,0:0:0:0:
448,192,121926,1,0,0:0:0:0:
64,192,121926,1,0,0:0:0:0:
192,192,122015,1,0,0:0:0:0:
320,192,122015,1,0,0:0:0:0:
64,192,122103,1,0,0:0:0:0:
320,192,122191,1,0,0:0:0:0:
448,192,122191,1,0,0:0:0:0:
320,192,122279,1,0,0:0:0:0:
448,192,122279,1,0,0:0:0:0:
448,192,122368,1,0,0:0:0:0:
320,192,122368,1,0,0:0:0:0:
448,192,122456,5,0,0:0:0:0:
320,192,122456,1,0,0:0:0:0:
192,192,122544,1,0,0:0:0:0:
64,192,122544,1,0,0:0:0:0:
64,192,122632,1,0,0:0:0:0:
192,192,122632,1,0,0:0:0:0:
192,192,122721,1,0,0:0:0:0:
64,192,122721,1,0,0:0:0:0:
64,192,122809,1,0,0:0:0:0:
192,192,122809,1,0,0:0:0:0:
320,192,122897,1,0,0:0:0:0:
448,192,122897,1,0,0:0:0:0:
64,192,122897,1,0,0:0:0:0:
448,192,123603,5,0,0:0:0:0:
320,192,123603,1,0,0:0:0:0:
192,192,123603,1,0,0:0:0:0:
64,192,123603,1,0,0:0:0:0:
64,192,123956,1,0,0:0:0:0:
192,192,123956,1,0,0:0:0:0:
320,192,123956,1,0,0:0:0:0:
448,192,123956,1,0,0:0:0:0:
448,192,124309,1,0,0:0:0:0:
192,192,124309,1,0,0:0:0:0:
64,192,124309,1,0,0:0:0:0:
320,192,124397,1,0,0:0:0:0:
192,192,124485,1,0,0:0:0:0:
64,192,124485,1,0,0:0:0:0:
448,192,124573,1,0,0:0:0:0:
192,192,124662,1,0,0:0:0:0:
64,192,124662,1,0,0:0:0:0:
320,192,124662,1,0,0:0:0:0:
448,192,124750,1,0,0:0:0:0:
320,192,124838,1,0,0:0:0:0:
192,192,124838,1,0,0:0:0:0:
64,192,124926,1,0,0:0:0:0:
320,192,125015,1,0,0:0:0:0:
448,192,125015,1,0,0:0:0:0:
192,192,125015,1,0,0:0:0:0:
64,192,125103,1,0,0:0:0:0:
448,192,125191,1,0,0:0:0:0:
192,192,125191,1,0,0:0:0:0:
320,192,125279,1,0,0:0:0:0:
64,192,125368,1,0,0:0:0:0:
192,192,125368,1,0,0:0:0:0:
448,192,125368,1,0,0:0:0:0:
320,192,125456,1,0,0:0:0:0:
448,192,125544,1,0,0:0:0:0:
64,192,125544,1,0,0:0:0:0:
320,192,125632,1,0,0:0:0:0:
192,192,125721,1,0,0:0:0:0:
64,192,125721,1,0,0:0:0:0:
448,192,125721,1,0,0:0:0:0:
320,192,125809,1,0,0:0:0:0:
64,192,125897,1,0,0:0:0:0:
192,192,125897,1,0,0:0:0:0:
448,192,125985,1,0,0:0:0:0:
192,192,126073,1,0,0:0:0:0:
320,192,126073,1,0,0:0:0:0:
64,192,126073,1,0,0:0:0:0:
448,192,126162,1,0,0:0:0:0:
320,192,126250,1,0,0:0:0:0:
192,192,126250,1,0,0:0:0:0:
64,192,126338,1,0,0:0:0:0:
320,192,126426,1,0,0:0:0:0:
448,192,126426,1,0,0:0:0:0:
192,192,126426,1,0,0:0:0:0:
64,192,126515,1,0,0:0:0:0:
448,192,126603,1,0,0:0:0:0:
320,192,126603,1,0,0:0:0:0:
192,192,126691,1,0,0:0:0:0:
320,192,126779,1,0,0:0:0:0:
64,192,126779,1,0,0:0:0:0:
448,192,126779,1,0,0:0:0:0:
192,192,126868,1,0,0:0:0:0:
64,192,126956,1,0,0:0:0:0:
320,192,126956,1,0,0:0:0:0:
448,192,127044,1,0,0:0:0:0:
320,192,127132,1,0,0:0:0:0:
64,192,127132,1,0,0:0:0:0:
192,192,127132,1,0,0:0:0:0:
448,192,127221,1,0,0:0:0:0:
64,192,127309,1,0,0:0:0:0:
192,192,127309,1,0,0:0:0:0:
320,192,127397,1,0,0:0:0:0:
192,192,127485,1,0,0:0:0:0:
448,192,127485,1,0,0:0:0:0:
64,192,127485,1,0,0:0:0:0:
320,192,127573,1,0,0:0:0:0:
448,192,127662,1,0,0:0:0:0:
192,192,127662,1,0,0:0:0:0:
320,192,127750,1,0,0:0:0:0:
192,192,127838,1,0,0:0:0:0:
448,192,127838,1,0,0:0:0:0:
64,192,127838,1,0,0:0:0:0:
320,192,127926,1,0,0:0:0:0:
448,192,128015,1,0,0:0:0:0:
64,192,128015,1,0,0:0:0:0:
192,192,128103,1,0,0:0:0:0:
320,192,128191,1,0,0:0:0:0:
448,192,128191,1,0,0:0:0:0:
64,192,128191,1,0,0:0:0:0:
192,192,128279,1,0,0:0:0:0:
320,192,128368,1,0,0:0:0:0:
448,192,128368,1,0,0:0:0:0:
192,192,128456,1,0,0:0:0:0:
320,192,128544,1,0,0:0:0:0:
64,192,128544,1,0,0:0:0:0:
448,192,128544,1,0,0:0:0:0:
192,192,128632,1,0,0:0:0:0:
320,192,128721,1,0,0:0:0:0:
448,192,128721,1,0,0:0:0:0:
64,192,128809,1,0,0:0:0:0:
320,192,128897,1,0,0:0:0:0:
448,192,128897,1,0,0:0:0:0:
192,192,128897,1,0,0:0:0:0:
64,192,128985,1,0,0:0:0:0:
192,192,129073,1,0,0:0:0:0:
320,192,129073,1,0,0:0:0:0:
448,192,129162,1,0,0:0:0:0:
192,192,129250,1,0,0:0:0:0:
64,192,129250,1,0,0:0:0:0:
320,192,129250,1,0,0:0:0:0:
448,192,129338,1,0,0:0:0:0:
64,192,129426,1,0,0:0:0:0:
320,192,129426,1,0,0:0:0:0:
192,192,129515,1,0,0:0:0:0:
448,192,129603,1,0,0:0:0:0:
320,192,129603,1,0,0:0:0:0:
64,192,129603,1,0,0:0:0:0:
192,192,129691,1,0,0:0:0:0:
64,192,129779,1,0,0:0:0:0:
448,192,129779,1,0,0:0:0:0:
192,192,129868,1,0,0:0:0:0:
320,192,129956,1,0,0:0:0:0:
448,192,129956,1,0,0:0:0:0:
64,192,129956,1,0,0:0:0:0:
192,192,130044,1,0,0:0:0:0:
448,192,130132,1,0,0:0:0:0:
320,192,130132,1,0,0:0:0:0:
64,192,130221,1,0,0:0:0:0:
320,192,130309,1,0,0:0:0:0:
192,192,130309,1,0,0:0:0:0:
448,192,130309,1,0,0:0:0:0:
64,192,130397,1,0,0:0:0:0:
192,192,130485,1,0,0:0:0:0:
320,192,130485,1,0,0:0:0:0:
448,192,130573,1,0,0:0:0:0:
192,192,130662,1,0,0:0:0:0:
64,192,130662,1,0,0:0:0:0:
320,192,130662,1,0,0:0:0:0:
448,192,130750,1,0,0:0:0:0:
64,192,130838,1,0,0:0:0:0:
192,192,130838,1,0,0:0:0:0:
320,192,130926,1,0,0:0:0:0:
192,192,131015,1,0,0:0:0:0:
448,192,131015,1,0,0:0:0:0:
64,192,131015,1,0,0:0:0:0:
320,192,131103,1,0,0:0:0:0:
448,192,131191,1,0,0:0:0:0:
192,192,131191,1,0,0:0:0:0:
64,192,131279,1,0,0:0:0:0:
192,192,131368,1,0,0:0:0:0:
448,192,131368,1,0,0:0:0:0:
320,192,131368,1,0,0:0:0:0:
64,192,131456,1,0,0:0:0:0:
448,192,131544,1,0,0:0:0:0:
320,192,131544,1,0,0:0:0:0:
192,192,131632,1,0,0:0:0:0:
320,192,131721,1,0,0:0:0:0:
64,192,131721,1,0,0:0:0:0:
448,192,131721,1,0,0:0:0:0:
192,192,131809,1,0,0:0:0:0:
64,192,131897,1,0,0:0:0:0:
320,192,131897,1,0,0:0:0:0:
192,192,131985,1,0,0:0:0:0:
320,192,132073,1,0,0:0:0:0:
64,192,132073,1,0,0:0:0:0:
448,192,132073,1,0,0:0:0:0:
192,192,132162,1,0,0:0:0:0:
64,192,132250,1,0,0:0:0:0:
448,192,132250,1,0,0:0:0:0:
320,192,132338,5,0,0:0:0:0:
192,192,132426,5,0,0:0:0:0:
64,192,132426,1,0,0:0:0:0:
448,192,132426,1,0,0:0:0:0:
320,192,132515,1,0,0:0:0:0:
192,192,132603,1,0,0:0:0:0:
64,192,132603,1,0,0:0:0:0:
320,192,132691,1,0,0:0:0:0:
448,192,132779,1,0,0:0:0:0:
192,192,132779,1,0,0:0:0:0:
64,192,132779,1,0,0:0:0:0:
320,192,132868,1,0,0:0:0:0:
448,192,132956,1,0,0:0:0:0:
64,192,132956,1,0,0:0:0:0:
192,192,133044,1,0,0:0:0:0:
448,192,133132,1,0,0:0:0:0:
320,192,133132,1,0,0:0:0:0:
64,192,133132,1,0,0:0:0:0:
192,192,133221,1,0,0:0:0:0:
320,192,133309,1,0,0:0:0:0:
448,192,133309,1,0,0:0:0:0:
192,192,133397,1,0,0:0:0:0:
448,192,133485,5,0,0:0:0:0:
192,192,133485,1,0,0:0:0:0:
320,192,133485,1,0,0:0:0:0:
64,192,133485,1,0,0:0:0:0:
64,192,133662,1,0,0:0:0:0:
320,192,133750,1,0,0:0:0:0:
448,192,133838,1,0,0:0:0:0:
320,192,133838,1,0,0:0:0:0:
192,192,133838,1,0,0:0:0:0:
64,192,133838,1,0,0:0:0:0:
448,192,134015,1,0,0:0:0:0:
192,192,134103,1,0,0:0:0:0:
64,192,134191,1,0,0:0:0:0:
192,192,134191,1,0,0:0:0:0:
320,192,134191,1,0,0:0:0:0:
448,192,134191,1,0,0:0:0:0:
448,192,134368,1,0,0:0:0:0:
192,192,134368,1,0,0:0:0:0:
320,192,134456,1,0,0:0:0:0:
64,192,134544,1,0,0:0:0:0:
192,192,134544,1,0,0:0:0:0:
320,192,134632,1,0,0:0:0:0:
448,192,134721,1,0,0:0:0:0:
64,192,134721,1,0,0:0:0:0:
192,192,134809,1,0,0:0:0:0:
448,192,134897,1,0,0:0:0:0:
320,192,134897,1,0,0:0:0:0:
192,192,134897,1,0,0:0:0:0:
64,192,134897,1,0,0:0:0:0:
448,192,135073,1,0,0:0:0:0:
320,192,135162,1,0,0:0:0:0:
64,192,135250,1,0,0:0:0:0:
192,192,135250,1,0,0:0:0:0:
320,192,135250,1,0,0:0:0:0:
448,192,135250,1,0,0:0:0:0:
192,192,135426,1,0,0:0:0:0:
448,192,135426,1,0,0:0:0:0:
320,192,135515,1,0,0:0:0:0:
448,192,135603,1,0,0:0:0:0:
192,192,135603,1,0,0:0:0:0:
64,192,135603,1,0,0:0:0:0:
320,192,135691,1,0,0:0:0:0:
192,192,135779,1,0,0:0:0:0:
64,192,135779,1,0,0:0:0:0:
448,192,135868,1,0,0:0:0:0:
192,192,135956,1,0,0:0:0:0:
64,192,135956,1,0,0:0:0:0:
320,192,135956,1,0,0:0:0:0:
448,192,136044,1,0,0:0:0:0:
320,192,136132,1,0,0:0:0:0:
192,192,136132,1,0,0:0:0:0:
64,192,136221,1,0,0:0:0:0:
320,192,136309,1,0,0:0:0:0:
448,192,136309,1,0,0:0:0:0:
192,192,136309,1,0,0:0:0:0:
64,192,136397,1,0,0:0:0:0:
448,192,136485,1,0,0:0:0:0:
192,192,136485,1,0,0:0:0:0:
320,192,136573,1,0,0:0:0:0:
64,192,136662,1,0,0:0:0:0:
192,192,136662,1,0,0:0:0:0:
448,192,136662,1,0,0:0:0:0:
320,192,136750,1,0,0:0:0:0:
448,192,136838,1,0,0:0:0:0:
64,192,136838,1,0,0:0:0:0:
320,192,136926,1,0,0:0:0:0:
192,192,137015,1,0,0:0:0:0:
64,192,137015,1,0,0:0:0:0:
448,192,137015,1,0,0:0:0:0:
320,192,137103,1,0,0:0:0:0:
64,192,137191,1,0,0:0:0:0:
192,192,137191,1,0,0:0:0:0:
448,192,137279,1,0,0:0:0:0:
192,192,137368,1,0,0:0:0:0:
320,192,137368,1,0,0:0:0:0:
64,192,137368,1,0,0:0:0:0:
448,192,137456,1,0,0:0:0:0:
320,192,137544,1,0,0:0:0:0:
192,192,137544,1,0,0:0:0:0:
64,192,137632,1,0,0:0:0:0:
320,192,137721,1,0,0:0:0:0:
448,192,137721,1,0,0:0:0:0:
192,192,137721,1,0,0:0:0:0:
64,192,137809,1,0,0:0:0:0:
448,192,137897,1,0,0:0:0:0:
320,192,137897,1,0,0:0:0:0:
192,192,137985,1,0,0:0:0:0:
320,192,138073,1,0,0:0:0:0:
64,192,138073,1,0,0:0:0:0:
448,192,138073,1,0,0:0:0:0:
192,192,138162,1,0,0:0:0:0:
64,192,138250,1,0,0:0:0:0:
320,192,138250,1,0,0:0:0:0:
448,192,138338,1,0,0:0:0:0:
320,192,138426,1,0,0:0:0:0:
64,192,138426,1,0,0:0:0:0:
192,192,138426,1,0,0:0:0:0:
448,192,138515,1,0,0:0:0:0:
64,192,138603,1,0,0:0:0:0:
192,192,138603,1,0,0:0:0:0:
320,192,138691,1,0,0:0:0:0:
192,192,138779,1,0,0:0:0:0:
448,192,138779,1,0,0:0:0:0:
64,192,138779,1,0,0:0:0:0:
320,192,138868,1,0,0:0:0:0:
448,192,138956,1,0,0:0:0:0:
192,192,138956,1,0,0:0:0:0:
320,192,139044,1,0,0:0:0:0:
192,192,139132,1,0,0:0:0:0:
448,192,139132,1,0,0:0:0:0:
64,192,139132,1,0,0:0:0:0:
320,192,139221,1,0,0:0:0:0:
448,192,139309,1,0,0:0:0:0:
64,192,139309,1,0,0:0:0:0:
192,192,139397,1,0,0:0:0:0:
320,192,139485,1,0,0:0:0:0:
448,192,139485,1,0,0:0:0:0:
64,192,139485,1,0,0:0:0:0:
192,192,139573,1,0,0:0:0:0:
320,192,139662,1,0,0:0:0:0:
448,192,139662,1,0,0:0:0:0:
192,192,139750,1,0,0:0:0:0:
320,192,139838,1,0,0:0:0:0:
64,192,139838,1,0,0:0:0:0:
448,192,139838,1,0,0:0:0:0:
192,192,139926,1,0,0:0:0:0:
320,192,140015,1,0,0:0:0:0:
448,192,140015,1,0,0:0:0:0:
64,192,140103,1,0,0:0:0:0:
320,192,140191,1,0,0:0:0:0:
448,192,140191,1,0,0:0:0:0:
192,192,140191,1,0,0:0:0:0:
64,192,140279,1,0,0:0:0:0:
192,192,140368,1,0,0:0:0:0:
320,192,140368,1,0,0:0:0:0:
448,192,140456,1,0,0:0:0:0:
192,192,140544,1,0,0:0:0:0:
64,192,140544,1,0,0:0:0:0:
320,192,140544,1,0,0:0:0:0:
448,192,140632,1,0,0:0:0:0:
64,192,140721,1,0,0:0:0:0:
320,192,140721,1,0,0:0:0:0:
192,192,140809,1,0,0:0:0:0:
448,192,140897,1,0,0:0:0:0:
320,192,140897,1,0,0:0:0:0:
64,192,140897,1,0,0:0:0:0:
192,192,140985,1,0,0:0:0:0:
64,192,141073,1,0,0:0:0:0:
448,192,141073,1,0,0:0:0:0:
192,192,141162,1,0,0:0:0:0:
320,192,141250,1,0,0:0:0:0:
448,192,141250,1,0,0:0:0:0:
64,192,141250,1,0,0:0:0:0:
192,192,141338,1,0,0:0:0:0:
448,192,141426,1,0,0:0:0:0:
320,192,141426,1,0,0:0:0:0:
64,192,141515,1,0,0:0:0:0:
320,192,141603,1,0,0:0:0:0:
192,192,141603,1,0,0:0:0:0:
448,192,141603,1,0,0:0:0:0:
64,192,141691,1,0,0:0:0:0:
192,192,141779,1,0,0:0:0:0:
320,192,141779,1,0,0:0:0:0:
448,192,141868,1,0,0:0:0:0:
192,192,141956,1,0,0:0:0:0:
64,192,141956,1,0,0:0:0:0:
320,192,141956,1,0,0:0:0:0:
448,192,142044,1,0,0:0:0:0:
64,192,142132,1,0,0:0:0:0:
192,192,142132,1,0,0:0:0:0:
320,192,142221,1,0,0:0:0:0:
192,192,142309,1,0,0:0:0:0:
448,192,142309,1,0,0:0:0:0:
64,192,142309,1,0,0:0:0:0:
320,192,142397,1,0,0:0:0:0:
448,192,142485,1,0,0:0:0:0:
192,192,142485,1,0,0:0:0:0:
64,192,142573,1,0,0:0:0:0:
192,192,142662,1,0,0:0:0:0:
448,192,142662,1,0,0:0:0:0:
320,192,142662,1,0,0:0:0:0:
64,192,142750,1,0,0:0:0:0:
448,192,142838,1,0,0:0:0:0:
320,192,142838,1,0,0:0:0:0:
192,192,142926,1,0,0:0:0:0:
320,192,143015,1,0,0:0:0:0:
64,192,143015,1,0,0:0:0:0:
448,192,143015,1,0,0:0:0:0:
192,192,143103,1,0,0:0:0:0:
64,192,143191,1,0,0:0:0:0:
320,192,143191,1,0,0:0:0:0:
192,192,143279,1,0,0:0:0:0:
320,192,143368,1,0,0:0:0:0:
64,192,143368,1,0,0:0:0:0:
448,192,143368,1,0,0:0:0:0:
192,192,143456,1,0,0:0:0:0:
64,192,143544,1,0,0:0:0:0:
448,192,143544,1,0,0:0:0:0:
320,192,143632,5,0,0:0:0:0:
192,192,143721,5,0,0:0:0:0:
64,192,143721,1,0,0:0:0:0:
448,192,143721,1,0,0:0:0:0:
320,192,143809,1,0,0:0:0:0:
192,192,143897,1,0,0:0:0:0:
64,192,143897,1,0,0:0:0:0:
320,192,143985,1,0,0:0:0:0:
448,192,144073,1,0,0:0:0:0:
192,192,144073,1,0,0:0:0:0:
64,192,144073,1,0,0:0:0:0:
320,192,144162,1,0,0:0:0:0:
448,192,144250,1,0,0:0:0:0:
64,192,144250,1,0,0:0:0:0:
192,192,144338,1,0,0:0:0:0:
448,192,144426,1,0,0:0:0:0:
320,192,144426,1,0,0:0:0:0:
64,192,144426,1,0,0:0:0:0:
192,192,144515,1,0,0:0:0:0:
320,192,144603,1,0,0:0:0:0:
448,192,144603,1,0,0:0:0:0:
192,192,144691,1,0,0:0:0:0:
448,192,144779,5,0,0:0:0:0:
64,192,144779,1,0,0:0:0:0:
320,192,144779,1,0,0:0:0:0:
192,192,144868,1,0,0:0:0:0:
64,192,144956,1,0,0:0:0:0:
448,192,144956,1,0,0:0:0:0:
320,192,145044,1,0,0:0:0:0:
192,192,145132,1,0,0:0:0:0:
64,192,145132,1,0,0:0:0:0:
448,192,145132,1,0,0:0:0:0:
320,192,145221,1,0,0:0:0:0:
64,192,145309,1,0,0:0:0:0:
192,192,145309,1,0,0:0:0:0:
448,192,145397,1,0,0:0:0:0:
320,192,145485,1,0,0:0:0:0:
192,192,145485,1,0,0:0:0:0:
64,192,145485,1,0,0:0:0:0:
448,192,145573,1,0,0:0:0:0:
192,192,145662,1,0,0:0:0:0:
320,192,145662,1,0,0:0:0:0:
64,192,145750,1,0,0:0:0:0:
192,192,145838,1,0,0:0:0:0:
320,192,145838,1,0,0:0:0:0:
448,192,145838,1,0,0:0:0:0:
64,192,145926,1,0,0:0:0:0:
192,192,146015,1,0,0:0:0:0:
320,192,146015,1,0,0:0:0:0:
448,192,146103,1,0,0:0:0:0:
192,192,146191,1,0,0:0:0:0:
320,192,146191,1,0,0:0:0:0:
64,192,146279,1,0,0:0:0:0:
448,192,146368,5,0,0:0:0:0:
320,192,146368,1,0,0:0:0:0:
64,192,146456,1,0,0:0:0:0:
192,192,146456,1,0,0:0:0:0:
448,192,146544,1,0,0:0:0:0:
320,192,146544,1,0,0:0:0:0:
64,192,146632,1,0,0:0:0:0:
192,192,146632,1,0,0:0:0:0:
320,192,146721,1,0,0:0:0:0:
448,192,146721,1,0,0:0:0:0:
192,192,146809,1,0,0:0:0:0:
64,192,146809,1,0,0:0:0:0:
448,192,146897,5,0,0:0:0:0:
64,192,146897,1,0,0:0:0:0:
320,192,146897,1,0,0:0:0:0:
192,192,146897,1,0,0:0:0:0:
320,192,147073,1,0,0:0:0:0:
192,192,147073,1,0,0:0:0:0:
64,192,147250,1,0,0:0:0:0:
192,192,147250,1,0,0:0:0:0:
320,192,147250,1,0,0:0:0:0:
448,192,147250,1,0,0:0:0:0:
448,192,147426,1,0,0:0:0:0:
320,192,147426,1,0,0:0:0:0:
64,192,147603,1,0,0:0:0:0:
192,192,147603,1,0,0:0:0:0:
320,192,147603,1,0,0:0:0:0:
448,192,147779,1,0,0:0:0:0:
320,192,147779,1,0,0:0:0:0:
192,192,147779,1,0,0:0:0:0:
64,192,147956,1,0,0:0:0:0:
320,192,147956,1,0,0:0:0:0:
448,192,147956,1,0,0:0:0:0:
64,192,148132,1,0,0:0:0:0:
192,192,148132,1,0,0:0:0:0:
320,192,148132,1,0,0:0:0:0:
192,192,148309,1,0,0:0:0:0:
448,192,148309,1,0,0:0:0:0:
320,192,148397,1,0,0:0:0:0:
448,192,148485,1,0,0:0:0:0:
64,192,148485,1,0,0:0:0:0:
320,192,148573,1,0,0:0:0:0:
192,192,148662,1,0,0:0:0:0:
64,192,148662,1,0,0:0:0:0:
448,192,148662,1,0,0:0:0:0:
64,192,148838,1,0,0:0:0:0:
192,192,148838,1,0,0:0:0:0:
448,192,148838,1,0,0:0:0:0:
320,192,149015,1,0,0:0:0:0:
448,192,149015,1,0,0:0:0:0:
192,192,149015,1,0,0:0:0:0:
64,192,149191,1,0,0:0:0:0:
64,192,149368,1,0,0:0:0:0:
320,192,149368,1,0,0:0:0:0:
192,192,149456,1,0,0:0:0:0:
320,192,149544,1,0,0:0:0:0:
448,192,149632,1,0,0:0:0:0:
64,192,149721,1,0,0:0:0:0:
192,192,149721,1,0,0:0:0:0:
320,192,149721,1,0,0:0:0:0:
448,192,149897,1,0,0:0:0:0:
192,192,149897,1,0,0:0:0:0:
320,192,149985,1,0,0:0:0:0:
64,192,149985,1,0,0:0:0:0:
192,192,150073,1,0,0:0:0:0:
448,192,150073,1,0,0:0:0:0:
448,192,150250,1,0,0:0:0:0:
320,192,150250,1,0,0:0:0:0:
64,192,150250,1,0,0:0:0:0:
64,192,150426,1,0,0:0:0:0:
192,192,150426,1,0,0:0:0:0:
448,192,150426,1,0,0:0:0:0:
192,192,150603,1,0,0:0:0:0:
320,192,150603,1,0,0:0:0:0:
448,192,150603,1,0,0:0:0:0:
64,192,150779,1,0,0:0:0:0:
192,192,150779,1,0,0:0:0:0:
320,192,150779,1,0,0:0:0:0:
192,192,150956,1,0,0:0:0:0:
320,192,150956,1,0,0:0:0:0:
448,192,151044,1,0,0:0:0:0:
320,192,151132,1,0,0:0:0:0:
192,192,151132,1,0,0:0:0:0:
64,192,151132,1,0,0:0:0:0:
64,192,151309,1,0,0:0:0:0:
320,192,151309,1,0,0:0:0:0:
192,192,151397,1,0,0:0:0:0:
448,192,151397,1,0,0:0:0:0:
320,192,151485,1,0,0:0:0:0:
64,192,151485,1,0,0:0:0:0:
64,192,151662,1,0,0:0:0:0:
192,192,151662,1,0,0:0:0:0:
192,192,151838,128,0,152191:0:0:0:0:
320,192,151838,1,0,0:0:0:0:
64,192,151838,1,0,0:0:0:0:
448,192,151926,1,0,0:0:0:0:
320,192,152015,1,0,0:0:0:0:
320,192,152191,1,0,0:0:0:0:
448,192,152191,1,0,0:0:0:0:
64,192,152191,128,0,152544:0:0:0:0:
448,192,152544,1,0,0:0:0:0:
320,192,152544,1,0,0:0:0:0:
192,192,152544,1,0,0:0:0:0:
192,192,152721,128,0,152897:0:0:0:0:
320,192,152721,128,0,152897:0:0:0:0:
448,192,152721,128,0,152897:0:0:0:0:
64,192,153073,1,0,0:0:0:0:
192,192,153073,1,0,0:0:0:0:
320,192,153073,1,0,0:0:0:0:
64,192,153250,128,0,153603:0:0:0:0:
192,192,153250,128,0,153603:0:0:0:0:
320,192,153250,1,0,0:0:0:0:
448,192,153426,1,0,0:0:0:0:
320,192,153515,1,0,0:0:0:0:
448,192,153603,128,0,153956:0:0:0:0:
320,192,153956,1,0,0:0:0:0:
192,192,153956,1,0,0:0:0:0:
320,192,154132,1,0,0:0:0:0:
64,192,154132,1,0,0:0:0:0:
320,192,154309,1,0,0:0:0:0:
192,192,154309,1,0,0:0:0:0:
320,192,154485,1,0,0:0:0:0:
64,192,154485,1,0,0:0:0:0:
320,192,154662,1,0,0:0:0:0:
192,192,154662,1,0,0:0:0:0:
64,192,154838,1,0,0:0:0:0:
320,192,154838,1,0,0:0:0:0:
320,192,155015,1,0,0:0:0:0:
192,192,155015,1,0,0:0:0:0:
448,192,155191,128,0,155368:0:0:0:0:
64,192,155191,128,0,155368:0:0:0:0:
320,192,155191,1,0,0:0:0:0:
192,192,155368,1,0,0:0:0:0:
320,192,155368,1,0,0:0:0:0:
192,192,155544,1,0,0:0:0:0:
448,192,155544,1,0,0:0:0:0:
192,192,155721,1,0,0:0:0:0:
320,192,155721,1,0,0:0:0:0:
192,192,155897,1,0,0:0:0:0:
448,192,155897,1,0,0:0:0:0:
192,192,156073,1,0,0:0:0:0:
320,192,156073,1,0,0:0:0:0:
448,192,156250,128,0,156426:0:0:0:0:
320,192,156250,1,0,0:0:0:0:
64,192,156250,1,0,0:0:0:0:
320,192,156426,128,0,156603:0:0:0:0:
192,192,156426,1,0,0:0:0:0:
192,192,156603,128,0,156779:0:0:0:0:
64,192,156603,1,0,0:0:0:0:
448,192,156779,1,0,0:0:0:0:
320,192,156779,1,0,0:0:0:0:
448,192,156956,1,0,0:0:0:0:
192,192,156956,1,0,0:0:0:0:
448,192,157132,1,0,0:0:0:0:
320,192,157132,1,0,0:0:0:0:
448,192,157309,1,0,0:0:0:0:
192,192,157309,1,0,0:0:0:0:
448,192,157485,1,0,0:0:0:0:
320,192,157485,1,0,0:0:0:0:
448,192,157662,1,0,0:0:0:0:
192,192,157662,1,0,0:0:0:0:
448,192,157838,1,0,0:0:0:0:
320,192,157838,1,0,0:0:0:0:
448,192,158015,128,0,158191:0:0:0:0:
64,192,158015,1,0,0:0:0:0:
320,192,158015,128,0,158191:0:0:0:0:
192,192,158015,1,0,0:0:0:0:
64,192,158191,1,0,0:0:0:0:
192,192,158191,1,0,0:0:0:0:
64,192,158368,1,0,0:0:0:0:
192,192,158368,1,0,0:0:0:0:
64,192,158544,1,0,0:0:0:0:
448,192,158544,128,0,158721:0:0:0:0:
64,192,158721,1,0,0:0:0:0:
192,192,158721,1,0,0:0:0:0:
64,192,158897,1,0,0:0:0:0:
320,192,158897,128,0,159073:0:0:0:0:
64,192,159073,1,0,0:0:0:0:
192,192,159073,1,0,0:0:0:0:
192,192,159250,128,0,159426:0:0:0:0:
448,192,159250,1,0,0:0:0:0:
64,192,159250,1,0,0:0:0:0:
320,192,159338,1,0,0:0:0:0:
448,192,159426,1,0,0:0:0:0:
320,192,159515,1,0,0:0:0:0:
448,192,159603,1,0,0:0:0:0:
64,192,159603,1,0,0:0:0:0:
192,192,159603,1,0,0:0:0:0:
320,192,159779,1,0,0:0:0:0:
64,192,159779,1,0,0:0:0:0:
320,192,159956,1,0,0:0:0:0:
192,192,159956,1,0,0:0:0:0:
320,192,160132,1,0,0:0:0:0:
64,192,160132,1,0,0:0:0:0:
320,192,160309,1,0,0:0:0:0:
192,192,160309,1,0,0:0:0:0:
64,192,160485,1,0,0:0:0:0:
320,192,160485,1,0,0:0:0:0:
320,192,160662,1,0,0:0:0:0:
192,192,160662,1,0,0:0:0:0:
448,192,160838,128,0,161015:0:0:0:0:
64,192,160838,128,0,161015:0:0:0:0:
320,192,160838,1,0,0:0:0:0:
192,192,161015,1,0,0:0:0:0:
320,192,161015,1,0,0:0:0:0:
192,192,161191,1,0,0:0:0:0:
448,192,161191,1,0,0:0:0:0:
192,192,161368,1,0,0:0:0:0:
320,192,161368,1,0,0:0:0:0:
192,192,161544,1,0,0:0:0:0:
448,192,161544,1,0,0:0:0:0:
192,192,161721,1,0,0:0:0:0:
320,192,161721,1,0,0:0:0:0:
448,192,161897,128,0,162073:0:0:0:0:
320,192,161897,1,0,0:0:0:0:
64,192,161897,1,0,0:0:0:0:
320,192,162073,128,0,162250:0:0:0:0:
192,192,162073,1,0,0:0:0:0:
192,192,162250,128,0,162426:0:0:0:0:
64,192,162250,1,0,0:0:0:0:
448,192,162426,1,0,0:0:0:0:
320,192,162426,1,0,0:0:0:0:
448,192,162603,1,0,0:0:0:0:
192,192,162603,1,0,0:0:0:0:
448,192,162779,1,0,0:0:0:0:
320,192,162779,1,0,0:0:0:0:
448,192,162956,1,0,0:0:0:0:
192,192,162956,1,0,0:0:0:0:
448,192,163132,1,0,0:0:0:0:
320,192,163132,1,0,0:0:0:0:
448,192,163309,1,0,0:0:0:0:
192,192,163309,1,0,0:0:0:0:
448,192,163485,1,0,0:0:0:0:
320,192,163485,1,0,0:0:0:0:
320,192,163662,128,0,163838:0:0:0:0:
448,192,163662,128,0,163838:0:0:0:0:
192,192,163662,1,0,0:0:0:0:
64,192,163662,1,0,0:0:0:0:
64,192,163838,1,0,0:0:0:0:
192,192,163838,1,0,0:0:0:0:
320,192,163926,1,0,0:0:0:0:
448,192,164015,1,0,0:0:0:0:
192,192,164015,1,0,0:0:0:0:
320,192,164103,1,0,0:0:0:0:
64,192,164191,1,0,0:0:0:0:
192,192,164191,1,0,0:0:0:0:
448,192,164279,1,0,0:0:0:0:
320,192,164368,1,0,0:0:0:0:
192,192,164368,1,0,0:0:0:0:
64,192,164456,1,0,0:0:0:0:
448,192,164544,1,0,0:0:0:0:
320,192,164544,1,0,0:0:0:0:
192,192,164632,1,0,0:0:0:0:
64,192,164721,1,0,0:0:0:0:
448,192,164721,1,0,0:0:0:0:
320,192,164809,1,0,0:0:0:0:
192,192,164897,1,0,0:0:0:0:
64,192,164897,1,0,0:0:0:0:
320,192,164985,1,0,0:0:0:0:
448,192,165073,1,0,0:0:0:0:
64,192,165073,1,0,0:0:0:0:
192,192,165162,1,0,0:0:0:0:
320,192,165250,1,0,0:0:0:0:
448,192,165250,1,0,0:0:0:0:
320,192,165338,1,0,0:0:0:0:
448,192,165426,1,0,0:0:0:0:
192,192,165426,1,0,0:0:0:0:
448,192,165515,1,0,0:0:0:0:
64,192,165603,1,0,0:0:0:0:
192,192,165603,1,0,0:0:0:0:
64,192,165691,1,0,0:0:0:0:
192,192,165779,1,0,0:0:0:0:
320,192,165779,1,0,0:0:0:0:
192,192,165868,1,0,0:0:0:0:
448,192,165956,1,0,0:0:0:0:
320,192,165956,1,0,0:0:0:0:
448,192,166044,1,0,0:0:0:0:
192,192,166132,1,0,0:0:0:0:
320,192,166132,1,0,0:0:0:0:
320,192,166221,1,0,0:0:0:0:
64,192,166309,1,0,0:0:0:0:
192,192,166309,1,0,0:0:0:0:
64,192,166397,1,0,0:0:0:0:
448,192,166485,1,0,0:0:0:0:
320,192,166485,1,0,0:0:0:0:
448,192,166573,1,0,0:0:0:0:
192,192,166662,1,0,0:0:0:0:
64,192,166662,1,0,0:0:0:0:
192,192,166750,1,0,0:0:0:0:
448,192,166838,1,0,0:0:0:0:
320,192,166838,1,0,0:0:0:0:
320,192,166926,1,0,0:0:0:0:
64,192,167015,1,0,0:0:0:0:
192,192,167015,1,0,0:0:0:0:
64,192,167103,1,0,0:0:0:0:
448,192,167191,1,0,0:0:0:0:
320,192,167191,1,0,0:0:0:0:
448,192,167279,1,0,0:0:0:0:
192,192,167368,1,0,0:0:0:0:
320,192,167368,1,0,0:0:0:0:
64,192,167456,1,0,0:0:0:0:
448,192,167544,1,0,0:0:0:0:
192,192,167544,1,0,0:0:0:0:
320,192,167632,1,0,0:0:0:0:
64,192,167721,1,0,0:0:0:0:
192,192,167721,1,0,0:0:0:0:
320,192,167809,1,0,0:0:0:0:
448,192,167897,1,0,0:0:0:0:
64,192,167897,1,0,0:0:0:0:
192,192,167985,1,0,0:0:0:0:
320,192,168073,1,0,0:0:0:0:
448,192,168073,1,0,0:0:0:0:
320,192,168162,1,0,0:0:0:0:
192,192,168250,1,0,0:0:0:0:
448,192,168250,1,0,0:0:0:0:
448,192,168338,1,0,0:0:0:0:
192,192,168426,1,0,0:0:0:0:
64,192,168426,1,0,0:0:0:0:
64,192,168515,1,0,0:0:0:0:
320,192,168603,1,0,0:0:0:0:
192,192,168603,1,0,0:0:0:0:
192,192,168691,1,0,0:0:0:0:
320,192,168779,1,0,0:0:0:0:
448,192,168779,1,0,0:0:0:0:
448,192,168868,1,0,0:0:0:0:
320,192,168956,1,0,0:0:0:0:
192,192,168956,1,0,0:0:0:0:
320,192,169044,1,0,0:0:0:0:
192,192,169132,1,0,0:0:0:0:
64,192,169132,1,0,0:0:0:0:
64,192,169221,1,0,0:0:0:0:
320,192,169309,1,0,0:0:0:0:
448,192,169309,1,0,0:0:0:0:
448,192,169397,1,0,0:0:0:0:
64,192,169485,1,0,0:0:0:0:
192,192,169485,1,0,0:0:0:0:
192,192,169573,1,0,0:0:0:0:
320,192,169662,1,0,0:0:0:0:
448,192,169662,1,0,0:0:0:0:
320,192,169750,1,0,0:0:0:0:
192,192,169838,1,0,0:0:0:0:
64,192,169838,1,0,0:0:0:0:
64,192,169926,1,0,0:0:0:0:
320,192,170015,1,0,0:0:0:0:
448,192,170015,1,0,0:0:0:0:
448,192,170103,1,0,0:0:0:0:
192,192,170191,1,0,0:0:0:0:
320,192,170191,1,0,0:0:0:0:
448,192,170279,1,0,0:0:0:0:
320,192,170368,1,0,0:0:0:0:
64,192,170368,1,0,0:0:0:0:
192,192,170456,1,0,0:0:0:0:
320,192,170544,1,0,0:0:0:0:
448,192,170544,1,0,0:0:0:0:
192,192,170632,1,0,0:0:0:0:
448,192,170721,1,0,0:0:0:0:
64,192,170721,1,0,0:0:0:0:
320,192,170809,1,0,0:0:0:0:
64,192,170897,1,0,0:0:0:0:
192,192,170897,1,0,0:0:0:0:
64,192,170985,1,0,0:0:0:0:
448,192,171073,1,0,0:0:0:0:
320,192,171073,1,0,0:0:0:0:
448,192,171162,1,0,0:0:0:0:
64,192,171250,1,0,0:0:0:0:
192,192,171250,1,0,0:0:0:0:
64,192,171338,1,0,0:0:0:0:
192,192,171426,1,0,0:0:0:0:
320,192,171426,1,0,0:0:0:0:
192,192,171515,1,0,0:0:0:0:
448,192,171603,1,0,0:0:0:0:
320,192,171603,1,0,0:0:0:0:
448,192,171691,1,0,0:0:0:0:
192,192,171779,1,0,0:0:0:0:
320,192,171779,1,0,0:0:0:0:
320,192,171868,1,0,0:0:0:0:
64,192,171956,1,0,0:0:0:0:
192,192,171956,1,0,0:0:0:0:
64,192,172044,1,0,0:0:0:0:
448,192,172132,1,0,0:0:0:0:
320,192,172132,1,0,0:0:0:0:
448,192,172221,1,0,0:0:0:0:
192,192,172309,1,0,0:0:0:0:
64,192,172309,1,0,0:0:0:0:
192,192,172397,1,0,0:0:0:0:
448,192,172485,1,0,0:0:0:0:
320,192,172485,1,0,0:0:0:0:
320,192,172573,1,0,0:0:0:0:
64,192,172662,1,0,0:0:0:0:
192,192,172662,1,0,0:0:0:0:
64,192,172750,1,0,0:0:0:0:
448,192,172838,1,0,0:0:0:0:
320,192,172838,1,0,0:0:0:0:
448,192,172926,1,0,0:0:0:0:
192,192,173015,1,0,0:0:0:0:
320,192,173015,1,0,0:0:0:0:
64,192,173103,1,0,0:0:0:0:
448,192,173191,1,0,0:0:0:0:
192,192,173191,1,0,0:0:0:0:
320,192,173279,1,0,0:0:0:0:
64,192,173368,1,0,0:0:0:0:
192,192,173368,1,0,0:0:0:0:
320,192,173456,1,0,0:0:0:0:
448,192,173544,1,0,0:0:0:0:
64,192,173544,1,0,0:0:0:0:
192,192,173632,1,0,0:0:0:0:
320,192,173721,1,0,0:0:0:0:
448,192,173721,1,0,0:0:0:0:
320,192,173809,1,0,0:0:0:0:
192,192,173897,1,0,0:0:0:0:
448,192,173897,1,0,0:0:0:0:
448,192,173985,1,0,0:0:0:0:
192,192,174073,1,0,0:0:0:0:
64,192,174073,1,0,0:0:0:0:
64,192,174162,1,0,0:0:0:0:
320,192,174250,1,0,0:0:0:0:
192,192,174250,1,0,0:0:0:0:
192,192,174338,1,0,0:0:0:0:
320,192,174426,1,0,0:0:0:0:
448,192,174426,1,0,0:0:0:0:
448,192,174515,1,0,0:0:0:0:
320,192,174603,1,0,0:0:0:0:
192,192,174603,1,0,0:0:0:0:
320,192,174691,1,0,0:0:0:0:
192,192,174779,1,0,0:0:0:0:
64,192,174779,1,0,0:0:0:0:
64,192,174868,1,0,0:0:0:0:
320,192,174956,1,0,0:0:0:0:
448,192,174956,1,0,0:0:0:0:
448,192,175044,1,0,0:0:0:0:
64,192,175132,1,0,0:0:0:0:
192,192,175132,1,0,0:0:0:0:
192,192,175221,1,0,0:0:0:0:
320,192,175309,1,0,0:0:0:0:
448,192,175309,1,0,0:0:0:0:
320,192,175397,1,0,0:0:0:0:
192,192,175485,1,0,0:0:0:0:
64,192,175485,1,0,0:0:0:0:
64,192,175573,1,0,0:0:0:0:
320,192,175662,1,0,0:0:0:0:
448,192,175662,1,0,0:0:0:0:
448,192,175750,1,0,0:0:0:0:
320,192,175838,1,0,0:0:0:0:
192,192,175838,1,0,0:0:0:0:
64,192,175926,1,0,0:0:0:0:
192,192,176015,1,0,0:0:0:0:
448,192,176015,1,0,0:0:0:0:
320,192,176103,1,0,0:0:0:0:
192,192,176191,1,0,0:0:0:0:
64,192,176191,1,0,0:0:0:0:
320,192,176279,1,0,0:0:0:0:
64,192,176368,1,0,0:0:0:0:
448,192,176368,1,0,0:0:0:0:
192,192,176456,1,0,0:0:0:0:
64,192,176544,1,0,0:0:0:0:
320,192,176544,1,0,0:0:0:0:
448,192,176544,1,0,0:0:0:0:
448,192,176662,1,0,0:0:0:0:
192,192,176662,1,0,0:0:0:0:
448,192,176779,1,0,0:0:0:0:
320,192,176779,1,0,0:0:0:0:
64,192,176897,1,0,0:0:0:0:
192,192,176897,1,0,0:0:0:0:
448,192,176897,1,0,0:0:0:0:
192,192,177015,1,0,0:0:0:0:
320,192,177015,1,0,0:0:0:0:
192,192,177132,1,0,0:0:0:0:
64,192,177132,1,0,0:0:0:0:
320,192,177250,1,0,0:0:0:0:
192,192,177250,1,0,0:0:0:0:
64,192,177368,1,0,0:0:0:0:
320,192,177368,1,0,0:0:0:0:
448,192,177368,1,0,0:0:0:0:
64,192,177485,1,0,0:0:0:0:
320,192,177485,1,0,0:0:0:0:
448,192,177485,1,0,0:0:0:0:
192,192,177603,1,0,0:0:0:0:
448,192,177603,1,0,0:0:0:0:
320,192,177721,1,0,0:0:0:0:
192,192,177721,1,0,0:0:0:0:
64,192,177838,1,0,0:0:0:0:
320,192,177838,1,0,0:0:0:0:
64,192,177956,1,0,0:0:0:0:
320,192,177956,1,0,0:0:0:0:
448,192,177956,1,0,0:0:0:0:
64,192,178073,1,0,0:0:0:0:
192,192,178073,1,0,0:0:0:0:
320,192,178073,1,0,0:0:0:0:
64,192,178191,1,0,0:0:0:0:
192,192,178191,1,0,0:0:0:0:
448,192,178191,1,0,0:0:0:0:
448,192,178309,1,0,0:0:0:0:
320,192,178309,1,0,0:0:0:0:
320,192,178426,1,0,0:0:0:0:
192,192,178426,1,0,0:0:0:0:
64,192,178544,1,0,0:0:0:0:
192,192,178544,1,0,0:0:0:0:
320,192,178662,1,0,0:0:0:0:
192,192,178662,1,0,0:0:0:0:
64,192,178662,1,0,0:0:0:0:
448,192,178662,1,0,0:0:0:0:
64,192,179368,128,0,180662:0:0:0:0:
192,192,179368,128,0,180309:0:0:0:0:
320,192,179368,128,0,180426:0:0:0:0:
448,192,179368,1,0,0:0:0:0:
448,192,179721,1,0,0:0:0:0:
448,192,180073,1,0,0:0:0:0:
448,192,180426,1,0,0:0:0:0:
192,192,180426,128,0,180544:0:0:0:0:
320,192,180544,128,0,181368:0:0:0:0:
192,192,180662,128,0,181368:0:0:0:0:
64,192,180779,128,0,181132:0:0:0:0:
448,192,180779,1,0,0:0:0:0:
448,192,181132,1,0,0:0:0:0:
64,192,181250,128,0,181721:0:0:0:0:
448,192,181485,1,0,0:0:0:0:
192,192,181485,128,0,182073:0:0:0:0:
320,192,181485,128,0,182073:0:0:0:0:
448,192,181838,1,0,0:0:0:0:
64,192,181838,128,0,182073:0:0:0:0:
448,192,182191,128,0,183132:0:0:0:0:
320,192,182191,128,0,183250:0:0:0:0:
192,192,182191,128,0,183368:0:0:0:0:
64,192,182191,1,0,0:0:0:0:
64,192,182544,1,0,0:0:0:0:
64,192,182897,1,0,0:0:0:0:
64,192,183250,1,0,0:0:0:0:
448,192,183250,128,0,184191:0:0:0:0:
320,192,183368,128,0,183485:0:0:0:0:
192,192,183485,128,0,184309:0:0:0:0:
320,192,183603,128,0,184779:0:0:0:0:
64,192,183603,128,0,183838:0:0:0:0:
64,192,183956,128,0,184426:0:0:0:0:
448,192,184309,128,0,184662:0:0:0:0:
192,192,184426,128,0,184897:0:0:0:0:
64,192,184544,128,0,184897:0:0:0:0:
448,192,184779,128,0,184897:0:0:0:0:
320,192,184897,1,0,0:0:0:0:
64,192,185015,1,0,0:0:0:0:
192,192,185015,1,0,0:0:0:0:
448,192,185015,1,0,0:0:0:0:
64,192,185368,1,0,0:0:0:0:
320,192,185368,1,0,0:0:0:0:
64,192,185485,1,0,0:0:0:0:
320,192,185485,1,0,0:0:0:0:
64,192,185603,1,0,0:0:0:0:
320,192,185603,1,0,0:0:0:0:
64,192,185721,1,0,0:0:0:0:
320,192,185721,1,0,0:0:0:0:
448,192,185721,1,0,0:0:0:0:
64,192,186073,1,0,0:0:0:0:
320,192,186073,1,0,0:0:0:0:
64,192,186191,1,0,0:0:0:0:
320,192,186191,1,0,0:0:0:0:
64,192,186309,1,0,0:0:0:0:
320,192,186309,1,0,0:0:0:0:
64,192,186426,1,0,0:0:0:0:
320,192,186426,1,0,0:0:0:0:
64,192,186779,1,0,0:0:0:0:
320,192,186779,1,0,0:0:0:0:
64,192,186897,1,0,0:0:0:0:
320,192,186897,1,0,0:0:0:0:
64,192,187015,1,0,0:0:0:0:
320,192,187015,1,0,0:0:0:0:
64,192,187132,1,0,0:0:0:0:
320,192,187132,1,0,0:0:0:0:
448,192,187132,1,0,0:0:0:0:
64,192,187250,1,0,0:0:0:0:
320,192,187250,1,0,0:0:0:0:
64,192,187368,1,0,0:0:0:0:
320,192,187368,1,0,0:0:0:0:
64,192,187485,1,0,0:0:0:0:
320,192,187485,1,0,0:0:0:0:
64,192,187603,1,0,0:0:0:0:
320,192,187603,1,0,0:0:0:0:
64,192,187721,1,0,0:0:0:0:
320,192,187721,1,0,0:0:0:0:
192,192,187838,1,0,0:0:0:0:
448,192,187838,1,0,0:0:0:0:
192,192,188191,1,0,0:0:0:0:
448,192,188191,1,0,0:0:0:0:
192,192,188309,1,0,0:0:0:0:
448,192,188309,1,0,0:0:0:0:
192,192,188426,1,0,0:0:0:0:
448,192,188426,1,0,0:0:0:0:
192,192,188544,1,0,0:0:0:0:
448,192,188544,1,0,0:0:0:0:
64,192,188544,1,0,0:0:0:0:
192,192,188897,1,0,0:0:0:0:
448,192,188897,1,0,0:0:0:0:
192,192,189015,1,0,0:0:0:0:
448,192,189015,1,0,0:0:0:0:
192,192,189132,1,0,0:0:0:0:
448,192,189132,1,0,0:0:0:0:
192,192,189250,1,0,0:0:0:0:
448,192,189250,1,0,0:0:0:0:
192,192,189603,1,0,0:0:0:0:
448,192,189603,1,0,0:0:0:0:
192,192,189721,1,0,0:0:0:0:
448,192,189721,1,0,0:0:0:0:
192,192,189838,1,0,0:0:0:0:
448,192,189838,1,0,0:0:0:0:
192,192,189956,1,0,0:0:0:0:
448,192,189956,1,0,0:0:0:0:
64,192,189956,1,0,0:0:0:0:
192,192,190073,1,0,0:0:0:0:
448,192,190073,1,0,0:0:0:0:
192,192,190191,1,0,0:0:0:0:
448,192,190191,1,0,0:0:0:0:
192,192,190309,1,0,0:0:0:0:
448,192,190309,1,0,0:0:0:0:
192,192,190426,1,0,0:0:0:0:
448,192,190426,1,0,0:0:0:0:
192,192,190544,1,0,0:0:0:0:
448,192,190544,1,0,0:0:0:0:
320,192,190662,1,0,0:0:0:0:
448,192,190662,1,0,0:0:0:0:
448,192,191015,1,0,0:0:0:0:
320,192,191015,1,0,0:0:0:0:
320,192,191132,1,0,0:0:0:0:
448,192,191132,1,0,0:0:0:0:
448,192,191250,1,0,0:0:0:0:
320,192,191250,1,0,0:0:0:0:
320,192,191368,1,0,0:0:0:0:
448,192,191368,1,0,0:0:0:0:
192,192,191368,1,0,0:0:0:0:
448,192,191721,1,0,0:0:0:0:
320,192,191721,1,0,0:0:0:0:
320,192,191838,1,0,0:0:0:0:
448,192,191838,1,0,0:0:0:0:
448,192,191956,1,0,0:0:0:0:
320,192,191956,1,0,0:0:0:0:
320,192,192073,1,0,0:0:0:0:
448,192,192073,1,0,0:0:0:0:
320,192,192426,1,0,0:0:0:0:
448,192,192426,1,0,0:0:0:0:
320,192,192544,1,0,0:0:0:0:
448,192,192544,1,0,0:0:0:0:
320,192,192662,1,0,0:0:0:0:
448,192,192662,1,0,0:0:0:0:
320,192,192779,1,0,0:0:0:0:
448,192,192779,1,0,0:0:0:0:
192,192,192779,1,0,0:0:0:0:
320,192,192897,1,0,0:0:0:0:
448,192,192897,1,0,0:0:0:0:
320,192,193015,1,0,0:0:0:0:
448,192,193015,1,0,0:0:0:0:
320,192,193132,1,0,0:0:0:0:
448,192,193132,1,0,0:0:0:0:
320,192,193250,1,0,0:0:0:0:
448,192,193250,1,0,0:0:0:0:
320,192,193368,1,0,0:0:0:0:
448,192,193368,1,0,0:0:0:0:
320,192,193485,1,0,0:0:0:0:
64,192,193485,1,0,0:0:0:0:
320,192,193838,1,0,0:0:0:0:
64,192,193838,1,0,0:0:0:0:
320,192,193956,1,0,0:0:0:0:
64,192,193956,1,0,0:0:0:0:
320,192,194073,1,0,0:0:0:0:
64,192,194073,1,0,0:0:0:0:
320,192,194191,1,0,0:0:0:0:
64,192,194191,1,0,0:0:0:0:
448,192,194191,1,0,0:0:0:0:
64,192,194544,1,0,0:0:0:0:
320,192,194544,1,0,0:0:0:0:
64,192,194662,1,0,0:0:0:0:
320,192,194662,1,0,0:0:0:0:
64,192,194779,1,0,0:0:0:0:
320,192,194779,1,0,0:0:0:0:
192,192,194897,1,0,0:0:0:0:
320,192,194897,1,0,0:0:0:0:
320,192,195250,1,0,0:0:0:0:
192,192,195250,1,0,0:0:0:0:
320,192,195368,1,0,0:0:0:0:
192,192,195368,1,0,0:0:0:0:
192,192,195485,1,0,0:0:0:0:
320,192,195485,1,0,0:0:0:0:
320,192,195603,1,0,0:0:0:0:
192,192,195603,1,0,0:0:0:0:
64,192,195603,1,0,0:0:0:0:
448,192,195603,1,0,0:0:0:0:
320,192,195721,1,0,0:0:0:0:
192,192,195721,1,0,0:0:0:0:
192,192,195838,1,0,0:0:0:0:
320,192,195838,1,0,0:0:0:0:
320,192,195956,1,0,0:0:0:0:
192,192,195956,1,0,0:0:0:0:
192,192,196073,1,0,0:0:0:0:
320,192,196073,1,0,0:0:0:0:
320,192,196191,1,0,0:0:0:0:
192,192,196191,1,0,0:0:0:0:
64,192,196309,1,0,0:0:0:0:
320,192,196309,1,0,0:0:0:0:
320,192,196662,1,0,0:0:0:0:
64,192,196662,1,0,0:0:0:0:
320,192,196779,1,0,0:0:0:0:
64,192,196779,1,0,0:0:0:0:
320,192,196897,1,0,0:0:0:0:
64,192,196897,1,0,0:0:0:0:
320,192,197015,1,0,0:0:0:0:
64,192,197015,1,0,0:0:0:0:
448,192,197015,1,0,0:0:0:0:
64,192,197368,1,0,0:0:0:0:
320,192,197368,1,0,0:0:0:0:
64,192,197485,1,0,0:0:0:0:
320,192,197485,1,0,0:0:0:0:
64,192,197603,1,0,0:0:0:0:
320,192,197603,1,0,0:0:0:0:
64,192,197721,1,0,0:0:0:0:
320,192,197721,1,0,0:0:0:0:
64,192,198073,1,0,0:0:0:0:
320,192,198073,1,0,0:0:0:0:
64,192,198191,1,0,0:0:0:0:
320,192,198191,1,0,0:0:0:0:
64,192,198309,1,0,0:0:0:0:
320,192,198309,1,0,0:0:0:0:
64,192,198426,1,0,0:0:0:0:
320,192,198426,1,0,0:0:0:0:
448,192,198426,1,0,0:0:0:0:
64,192,198544,1,0,0:0:0:0:
320,192,198544,1,0,0:0:0:0:
64,192,198662,1,0,0:0:0:0:
320,192,198662,1,0,0:0:0:0:
64,192,198779,1,0,0:0:0:0:
320,192,198779,1,0,0:0:0:0:
64,192,198897,1,0,0:0:0:0:
320,192,198897,1,0,0:0:0:0:
64,192,199015,1,0,0:0:0:0:
320,192,199015,1,0,0:0:0:0:
192,192,199132,1,0,0:0:0:0:
320,192,199132,1,0,0:0:0:0:
192,192,199485,1,0,0:0:0:0:
320,192,199485,1,0,0:0:0:0:
320,192,199603,1,0,0:0:0:0:
192,192,199603,1,0,0:0:0:0:
192,192,199721,1,0,0:0:0:0:
320,192,199721,1,0,0:0:0:0:
320,192,199838,1,0,0:0:0:0:
192,192,199838,1,0,0:0:0:0:
448,192,199838,1,0,0:0:0:0:
192,192,200191,1,0,0:0:0:0:
320,192,200191,1,0,0:0:0:0:
320,192,200309,1,0,0:0:0:0:
192,192,200309,1,0,0:0:0:0:
192,192,200426,1,0,0:0:0:0:
320,192,200426,1,0,0:0:0:0:
192,192,200544,1,0,0:0:0:0:
320,192,200544,1,0,0:0:0:0:
320,192,200897,1,0,0:0:0:0:
192,192,200897,1,0,0:0:0:0:
192,192,201015,1,0,0:0:0:0:
320,192,201015,1,0,0:0:0:0:
320,192,201132,1,0,0:0:0:0:
192,192,201132,1,0,0:0:0:0:
192,192,201250,1,0,0:0:0:0:
320,192,201250,1,0,0:0:0:0:
448,192,201250,1,0,0:0:0:0:
320,192,201368,1,0,0:0:0:0:
192,192,201368,1,0,0:0:0:0:
192,192,201485,1,0,0:0:0:0:
320,192,201485,1,0,0:0:0:0:
320,192,201603,1,0,0:0:0:0:
192,192,201603,1,0,0:0:0:0:
192,192,201721,1,0,0:0:0:0:
320,192,201721,1,0,0:0:0:0:
320,192,201838,1,0,0:0:0:0:
192,192,201838,1,0,0:0:0:0:
448,192,201956,1,0,0:0:0:0:
320,192,201956,1,0,0:0:0:0:
448,192,202309,1,0,0:0:0:0:
320,192,202309,1,0,0:0:0:0:
320,192,202426,1,0,0:0:0:0:
448,192,202426,1,0,0:0:0:0:
448,192,202544,1,0,0:0:0:0:
320,192,202544,1,0,0:0:0:0:
320,192,202662,1,0,0:0:0:0:
448,192,202662,1,0,0:0:0:0:
192,192,202662,1,0,0:0:0:0:
448,192,203015,1,0,0:0:0:0:
320,192,203015,1,0,0:0:0:0:
320,192,203132,1,0,0:0:0:0:
448,192,203132,1,0,0:0:0:0:
448,192,203250,1,0,0:0:0:0:
320,192,203250,1,0,0:0:0:0:
448,192,203368,1,0,0:0:0:0:
320,192,203368,1,0,0:0:0:0:
448,192,203721,1,0,0:0:0:0:
320,192,203721,1,0,0:0:0:0:
320,192,203838,1,0,0:0:0:0:
448,192,203838,1,0,0:0:0:0:
448,192,203956,1,0,0:0:0:0:
320,192,203956,1,0,0:0:0:0:
320,192,204073,1,0,0:0:0:0:
448,192,204073,1,0,0:0:0:0:
192,192,204073,1,0,0:0:0:0:
448,192,204191,1,0,0:0:0:0:
320,192,204191,1,0,0:0:0:0:
320,192,204309,1,0,0:0:0:0:
448,192,204309,1,0,0:0:0:0:
448,192,204426,1,0,0:0:0:0:
320,192,204426,1,0,0:0:0:0:
320,192,204544,1,0,0:0:0:0:
448,192,204544,1,0,0:0:0:0:
448,192,204662,1,0,0:0:0:0:
320,192,204662,1,0,0:0:0:0:
448,192,204779,1,0,0:0:0:0:
64,192,204779,1,0,0:0:0:0:
320,192,205132,1,0,0:0:0:0:
64,192,205132,1,0,0:0:0:0:
320,192,205250,1,0,0:0:0:0:
64,192,205250,1,0,0:0:0:0:
320,192,205368,1,0,0:0:0:0:
64,192,205368,1,0,0:0:0:0:
320,192,205485,1,0,0:0:0:0:
64,192,205485,1,0,0:0:0:0:
448,192,205485,1,0,0:0:0:0:
320,192,205838,1,0,0:0:0:0:
64,192,205838,1,0,0:0:0:0:
320,192,205956,1,0,0:0:0:0:
64,192,205956,1,0,0:0:0:0:
320,192,206073,1,0,0:0:0:0:
64,192,206073,1,0,0:0:0:0:
192,192,206191,1,0,0:0:0:0:
320,192,206191,1,0,0:0:0:0:
192,192,206544,1,0,0:0:0:0:
320,192,206544,1,0,0:0:0:0:
320,192,206662,1,0,0:0:0:0:
192,192,206662,1,0,0:0:0:0:
192,192,206779,1,0,0:0:0:0:
320,192,206779,1,0,0:0:0:0:
320,192,206897,1,0,0:0:0:0:
192,192,206897,1,0,0:0:0:0:
64,192,206897,1,0,0:0:0:0:
448,192,206897,1,0,0:0:0:0:
320,192,207015,1,0,0:0:0:0:
192,192,207015,1,0,0:0:0:0:
192,192,207132,1,0,0:0:0:0:
320,192,207132,1,0,0:0:0:0:
320,192,207250,1,0,0:0:0:0:
192,192,207250,1,0,0:0:0:0:
320,192,207368,1,0,0:0:0:0:
192,192,207368,1,0,0:0:0:0:
192,192,207485,1,0,0:0:0:0:
320,192,207485,1,0,0:0:0:0:
448,192,207603,128,0,210073:0:0:0:0:
64,192,207603,1,0,0:0:0:0:
192,192,207603,1,0,0:0:0:0:
192,192,207956,1,0,0:0:0:0:
64,192,207956,1,0,0:0:0:0:
320,192,207956,1,0,0:0:0:0:
64,192,208073,1,0,0:0:0:0:
192,192,208073,1,0,0:0:0:0:
192,192,208191,1,0,0:0:0:0:
64,192,208191,1,0,0:0:0:0:
192,192,208309,1,0,0:0:0:0:
64,192,208309,1,0,0:0:0:0:
320,192,208309,1,0,0:0:0:0:
192,192,208662,1,0,0:0:0:0:
64,192,208662,1,0,0:0:0:0:
320,192,208662,1,0,0:0:0:0:
64,192,208779,1,0,0:0:0:0:
192,192,208779,1,0,0:0:0:0:
192,192,208897,1,0,0:0:0:0:
64,192,208897,1,0,0:0:0:0:
64,192,209015,1,0,0:0:0:0:
192,192,209015,1,0,0:0:0:0:
320,192,209015,1,0,0:0:0:0:
192,192,209368,1,0,0:0:0:0:
64,192,209368,1,0,0:0:0:0:
320,192,209368,1,0,0:0:0:0:
192,192,209485,1,0,0:0:0:0:
64,192,209485,1,0,0:0:0:0:
64,192,209603,1,0,0:0:0:0:
192,192,209603,1,0,0:0:0:0:
192,192,209721,1,0,0:0:0:0:
64,192,209721,1,0,0:0:0:0:
320,192,209721,1,0,0:0:0:0:
64,192,209838,1,0,0:0:0:0:
192,192,209838,1,0,0:0:0:0:
192,192,209956,1,0,0:0:0:0:
64,192,209956,1,0,0:0:0:0:
320,192,210073,1,0,0:0:0:0:
64,192,210073,1,0,0:0:0:0:
192,192,210073,1,0,0:0:0:0:
320,192,210191,1,0,0:0:0:0:
64,192,210191,1,0,0:0:0:0:
320,192,210309,1,0,0:0:0:0:
64,192,210309,1,0,0:0:0:0:
320,192,210426,128,0,212897:0:0:0:0:
64,192,210426,1,0,0:0:0:0:
448,192,210426,1,0,0:0:0:0:
64,192,210779,1,0,0:0:0:0:
448,192,210779,1,0,0:0:0:0:
192,192,210779,1,0,0:0:0:0:
448,192,210897,1,0,0:0:0:0:
64,192,210897,1,0,0:0:0:0:
448,192,211015,1,0,0:0:0:0:
64,192,211015,1,0,0:0:0:0:
448,192,211132,1,0,0:0:0:0:
64,192,211132,1,0,0:0:0:0:
192,192,211132,1,0,0:0:0:0:
64,192,211485,1,0,0:0:0:0:
448,192,211485,1,0,0:0:0:0:
192,192,211485,1,0,0:0:0:0:
64,192,211603,1,0,0:0:0:0:
448,192,211603,1,0,0:0:0:0:
64,192,211721,1,0,0:0:0:0:
448,192,211721,1,0,0:0:0:0:
64,192,211838,1,0,0:0:0:0:
448,192,211838,1,0,0:0:0:0:
192,192,211838,1,0,0:0:0:0:
64,192,212191,1,0,0:0:0:0:
448,192,212191,1,0,0:0:0:0:
192,192,212191,1,0,0:0:0:0:
64,192,212309,1,0,0:0:0:0:
448,192,212309,1,0,0:0:0:0:
64,192,212426,1,0,0:0:0:0:
448,192,212426,1,0,0:0:0:0:
64,192,212544,1,0,0:0:0:0:
192,192,212544,1,0,0:0:0:0:
448,192,212544,1,0,0:0:0:0:
64,192,212662,1,0,0:0:0:0:
448,192,212662,1,0,0:0:0:0:
64,192,212779,1,0,0:0:0:0:
448,192,212779,1,0,0:0:0:0:
64,192,212897,1,0,0:0:0:0:
448,192,212897,1,0,0:0:0:0:
192,192,212897,1,0,0:0:0:0:
64,192,213015,1,0,0:0:0:0:
448,192,213015,1,0,0:0:0:0:
64,192,213132,1,0,0:0:0:0:
448,192,213132,1,0,0:0:0:0:
64,192,213250,128,0,215721:0:0:0:0:
448,192,213250,1,0,0:0:0:0:
192,192,213250,1,0,0:0:0:0:
448,192,213603,1,0,0:0:0:0:
192,192,213603,1,0,0:0:0:0:
320,192,213603,1,0,0:0:0:0:
192,192,213721,1,0,0:0:0:0:
448,192,213721,1,0,0:0:0:0:
448,192,213838,1,0,0:0:0:0:
192,192,213838,1,0,0:0:0:0:
192,192,213956,1,0,0:0:0:0:
448,192,213956,1,0,0:0:0:0:
320,192,213956,1,0,0:0:0:0:
448,192,214309,1,0,0:0:0:0:
192,192,214309,1,0,0:0:0:0:
320,192,214309,1,0,0:0:0:0:
192,192,214426,1,0,0:0:0:0:
448,192,214426,1,0,0:0:0:0:
448,192,214544,1,0,0:0:0:0:
192,192,214544,1,0,0:0:0:0:
448,192,214662,1,0,0:0:0:0:
192,192,214662,1,0,0:0:0:0:
320,192,214662,1,0,0:0:0:0:
448,192,215015,1,0,0:0:0:0:
192,192,215015,1,0,0:0:0:0:
320,192,215015,1,0,0:0:0:0:
192,192,215132,1,0,0:0:0:0:
448,192,215132,1,0,0:0:0:0:
448,192,215250,1,0,0:0:0:0:
192,192,215250,1,0,0:0:0:0:
192,192,215368,1,0,0:0:0:0:
448,192,215368,1,0,0:0:0:0:
320,192,215368,1,0,0:0:0:0:
448,192,215485,1,0,0:0:0:0:
192,192,215485,1,0,0:0:0:0:
192,192,215603,1,0,0:0:0:0:
448,192,215603,1,0,0:0:0:0:
192,192,215721,1,0,0:0:0:0:
448,192,215721,1,0,0:0:0:0:
320,192,215721,1,0,0:0:0:0:
192,192,215838,1,0,0:0:0:0:
448,192,215838,1,0,0:0:0:0:
192,192,215956,1,0,0:0:0:0:
448,192,215956,1,0,0:0:0:0:
192,192,216073,128,0,218544:0:0:0:0:
320,192,216073,1,0,0:0:0:0:
448,192,216073,1,0,0:0:0:0:
320,192,216426,1,0,0:0:0:0:
448,192,216426,1,0,0:0:0:0:
64,192,216426,1,0,0:0:0:0:
448,192,216544,1,0,0:0:0:0:
320,192,216544,1,0,0:0:0:0:
320,192,216662,1,0,0:0:0:0:
448,192,216662,1,0,0:0:0:0:
448,192,216779,1,0,0:0:0:0:
320,192,216779,1,0,0:0:0:0:
64,192,216779,1,0,0:0:0:0:
320,192,217132,1,0,0:0:0:0:
448,192,217132,1,0,0:0:0:0:
64,192,217132,1,0,0:0:0:0:
448,192,217250,1,0,0:0:0:0:
320,192,217250,1,0,0:0:0:0:
320,192,217368,1,0,0:0:0:0:
448,192,217368,1,0,0:0:0:0:
448,192,217485,1,0,0:0:0:0:
320,192,217485,1,0,0:0:0:0:
64,192,217485,1,0,0:0:0:0:
448,192,217838,1,0,0:0:0:0:
320,192,217838,1,0,0:0:0:0:
64,192,217838,1,0,0:0:0:0:
320,192,217956,1,0,0:0:0:0:
448,192,217956,1,0,0:0:0:0:
448,192,218073,1,0,0:0:0:0:
320,192,218073,1,0,0:0:0:0:
448,192,218191,1,0,0:0:0:0:
64,192,218191,1,0,0:0:0:0:
320,192,218191,1,0,0:0:0:0:
320,192,218309,1,0,0:0:0:0:
448,192,218309,1,0,0:0:0:0:
320,192,218426,1,0,0:0:0:0:
448,192,218426,1,0,0:0:0:0:
320,192,218544,1,0,0:0:0:0:
448,192,218544,1,0,0:0:0:0:
64,192,218544,1,0,0:0:0:0:
320,192,218662,1,0,0:0:0:0:
448,192,218662,1,0,0:0:0:0:
320,192,218779,1,0,0:0:0:0:
448,192,218779,1,0,0:0:0:0:
320,192,218897,128,0,221368:0:0:0:0:
192,192,218897,1,0,0:0:0:0:
64,192,218897,1,0,0:0:0:0:
192,192,219250,1,0,0:0:0:0:
64,192,219250,1,0,0:0:0:0:
448,192,219250,1,0,0:0:0:0:
192,192,219368,1,0,0:0:0:0:
64,192,219368,1,0,0:0:0:0:
64,192,219485,1,0,0:0:0:0:
192,192,219485,1,0,0:0:0:0:
192,192,219603,1,0,0:0:0:0:
64,192,219603,1,0,0:0:0:0:
448,192,219603,1,0,0:0:0:0:
192,192,219956,1,0,0:0:0:0:
64,192,219956,1,0,0:0:0:0:
448,192,219956,1,0,0:0:0:0:
64,192,220073,1,0,0:0:0:0:
192,192,220073,1,0,0:0:0:0:
192,192,220191,1,0,0:0:0:0:
64,192,220191,1,0,0:0:0:0:
64,192,220309,1,0,0:0:0:0:
192,192,220309,1,0,0:0:0:0:
448,192,220309,1,0,0:0:0:0:
192,192,220662,1,0,0:0:0:0:
64,192,220662,1,0,0:0:0:0:
448,192,220662,1,0,0:0:0:0:
64,192,220779,1,0,0:0:0:0:
192,192,220779,1,0,0:0:0:0:
192,192,220897,1,0,0:0:0:0:
64,192,220897,1,0,0:0:0:0:
64,192,221015,1,0,0:0:0:0:
192,192,221015,1,0,0:0:0:0:
448,192,221015,1,0,0:0:0:0:
192,192,221132,1,0,0:0:0:0:
64,192,221132,1,0,0:0:0:0:
64,192,221250,1,0,0:0:0:0:
192,192,221250,1,0,0:0:0:0:
448,192,221368,1,0,0:0:0:0:
192,192,221368,1,0,0:0:0:0:
448,192,221485,1,0,0:0:0:0:
192,192,221485,1,0,0:0:0:0:
448,192,221603,1,0,0:0:0:0:
192,192,221603,1,0,0:0:0:0:
448,192,221721,128,0,224191:0:0:0:0:
192,192,221721,1,0,0:0:0:0:
320,192,221721,1,0,0:0:0:0:
320,192,222073,1,0,0:0:0:0:
192,192,222073,1,0,0:0:0:0:
64,192,222073,1,0,0:0:0:0:
192,192,222191,1,0,0:0:0:0:
320,192,222191,1,0,0:0:0:0:
320,192,222309,1,0,0:0:0:0:
192,192,222309,1,0,0:0:0:0:
192,192,222426,1,0,0:0:0:0:
320,192,222426,1,0,0:0:0:0:
64,192,222426,1,0,0:0:0:0:
320,192,222779,1,0,0:0:0:0:
192,192,222779,1,0,0:0:0:0:
64,192,222779,1,0,0:0:0:0:
192,192,222897,1,0,0:0:0:0:
320,192,222897,1,0,0:0:0:0:
320,192,223015,1,0,0:0:0:0:
192,192,223015,1,0,0:0:0:0:
192,192,223132,1,0,0:0:0:0:
320,192,223132,1,0,0:0:0:0:
64,192,223132,1,0,0:0:0:0:
192,192,223485,1,0,0:0:0:0:
320,192,223485,1,0,0:0:0:0:
64,192,223485,1,0,0:0:0:0:
320,192,223603,1,0,0:0:0:0:
192,192,223603,1,0,0:0:0:0:
192,192,223721,1,0,0:0:0:0:
320,192,223721,1,0,0:0:0:0:
320,192,223838,1,0,0:0:0:0:
192,192,223838,1,0,0:0:0:0:
64,192,223838,1,0,0:0:0:0:
192,192,223956,1,0,0:0:0:0:
320,192,223956,1,0,0:0:0:0:
320,192,224073,1,0,0:0:0:0:
192,192,224073,1,0,0:0:0:0:
192,192,224191,1,0,0:0:0:0:
320,192,224191,1,0,0:0:0:0:
64,192,224191,1,0,0:0:0:0:
192,192,224309,1,0,0:0:0:0:
320,192,224309,1,0,0:0:0:0:
192,192,224426,1,0,0:0:0:0:
320,192,224426,1,0,0:0:0:0:
192,192,224544,128,0,227015:0:0:0:0:
320,192,224544,1,0,0:0:0:0:
448,192,224544,1,0,0:0:0:0:
448,192,224897,1,0,0:0:0:0:
320,192,224897,1,0,0:0:0:0:
64,192,224897,1,0,0:0:0:0:
320,192,225015,1,0,0:0:0:0:
448,192,225015,1,0,0:0:0:0:
448,192,225132,1,0,0:0:0:0:
320,192,225132,1,0,0:0:0:0:
320,192,225250,1,0,0:0:0:0:
448,192,225250,1,0,0:0:0:0:
64,192,225250,1,0,0:0:0:0:
448,192,225603,1,0,0:0:0:0:
320,192,225603,1,0,0:0:0:0:
64,192,225603,1,0,0:0:0:0:
320,192,225721,1,0,0:0:0:0:
448,192,225721,1,0,0:0:0:0:
448,192,225838,1,0,0:0:0:0:
320,192,225838,1,0,0:0:0:0:
64,192,225956,1,0,0:0:0:0:
320,192,225956,1,0,0:0:0:0:
448,192,225956,1,0,0:0:0:0:
448,192,226309,1,0,0:0:0:0:
320,192,226309,1,0,0:0:0:0:
64,192,226309,1,0,0:0:0:0:
320,192,226426,1,0,0:0:0:0:
448,192,226426,1,0,0:0:0:0:
448,192,226544,1,0,0:0:0:0:
320,192,226544,1,0,0:0:0:0:
320,192,226662,1,0,0:0:0:0:
448,192,226662,1,0,0:0:0:0:
64,192,226662,1,0,0:0:0:0:
448,192,226779,1,0,0:0:0:0:
320,192,226779,1,0,0:0:0:0:
320,192,226897,1,0,0:0:0:0:
448,192,226897,1,0,0:0:0:0:
320,192,227015,1,0,0:0:0:0:
448,192,227015,1,0,0:0:0:0:
64,192,227015,1,0,0:0:0:0:
320,192,227132,1,0,0:0:0:0:
448,192,227132,1,0,0:0:0:0:
320,192,227250,1,0,0:0:0:0:
448,192,227250,1,0,0:0:0:0:
320,192,227368,128,0,228779:0:0:0:0:
448,192,227368,1,0,0:0:0:0:
64,192,227368,1,0,0:0:0:0:
64,192,227721,1,0,0:0:0:0:
448,192,227721,1,0,0:0:0:0:
192,192,227721,1,0,0:0:0:0:
64,192,227838,1,0,0:0:0:0:
448,192,227838,1,0,0:0:0:0:
64,192,227956,1,0,0:0:0:0:
448,192,227956,1,0,0:0:0:0:
64,192,228073,1,0,0:0:0:0:
448,192,228073,1,0,0:0:0:0:
192,192,228073,1,0,0:0:0:0:
448,192,228426,1,0,0:0:0:0:
64,192,228426,1,0,0:0:0:0:
192,192,228426,1,0,0:0:0:0:
448,192,228544,1,0,0:0:0:0:
64,192,228544,1,0,0:0:0:0:
448,192,228662,1,0,0:0:0:0:
64,192,228662,1,0,0:0:0:0:
448,192,228779,5,0,0:0:0:0:
64,192,228779,1,0,0:0:0:0:
192,192,228779,1,0,0:0:0:0:
64,192,228897,1,0,0:0:0:0:
192,192,228897,1,0,0:0:0:0:
448,192,229015,5,0,0:0:0:0:
320,192,229015,1,0,0:0:0:0:
320,192,229132,1,0,0:0:0:0:
448,192,229132,1,0,0:0:0:0:
64,192,229250,1,0,0:0:0:0:
192,192,229250,1,0,0:0:0:0:
192,192,229368,1,0,0:0:0:0:
64,192,229368,1,0,0:0:0:0:
192,192,229485,1,0,0:0:0:0:
320,192,229485,1,0,0:0:0:0:
448,192,229485,1,0,0:0:0:0:
320,192,229603,1,0,0:0:0:0:
448,192,229603,1,0,0:0:0:0:
192,192,229721,1,0,0:0:0:0:
64,192,229721,1,0,0:0:0:0:
448,192,229838,1,0,0:0:0:0:
64,192,229838,1,0,0:0:0:0:
320,192,229956,1,0,0:0:0:0:
192,192,229956,1,0,0:0:0:0:
192,192,230073,1,0,0:0:0:0:
64,192,230073,1,0,0:0:0:0:
64,192,230191,5,0,0:0:0:0:
320,192,230191,1,0,0:0:0:0:
192,192,230279,1,0,0:0:0:0:
448,192,230279,1,0,0:0:0:0:
320,192,230368,1,0,0:0:0:0:
64,192,230368,1,0,0:0:0:0:
192,192,230456,1,0,0:0:0:0:
448,192,230456,1,0,0:0:0:0:
320,192,230544,1,0,0:0:0:0:
64,192,230544,1,0,0:0:0:0:
448,192,230632,1,0,0:0:0:0:
192,192,230632,1,0,0:0:0:0:
64,192,230721,1,0,0:0:0:0:
320,192,230721,1,0,0:0:0:0:
192,192,230809,1,0,0:0:0:0:
448,192,230809,1,0,0:0:0:0:
64,192,230897,128,0,231603:0:0:0:0:
320,192,230897,128,0,231603:0:0:0:0:
448,192,231250,1,0,0:0:0:0:
448,192,231603,1,0,0:0:0:0:
192,192,231603,1,0,0:0:0:0:
320,192,231691,1,0,0:0:0:0:
64,192,231691,1,0,0:0:0:0:
192,192,231779,1,0,0:0:0:0:
448,192,231779,1,0,0:0:0:0:
320,192,231868,1,0,0:0:0:0:
64,192,231868,1,0,0:0:0:0:
192,192,231956,1,0,0:0:0:0:
448,192,231956,1,0,0:0:0:0:
320,192,232044,1,0,0:0:0:0:
64,192,232044,1,0,0:0:0:0:
192,192,232132,1,0,0:0:0:0:
448,192,232132,1,0,0:0:0:0:
320,192,232221,1,0,0:0:0:0:
64,192,232221,1,0,0:0:0:0:
192,192,232309,128,0,233015:0:0:0:0:
448,192,232309,128,0,233015:0:0:0:0:
64,192,232662,1,0,0:0:0:0:
64,192,233015,1,0,0:0:0:0:
192,192,233103,1,0,0:0:0:0:
320,192,233103,1,0,0:0:0:0:
448,192,233191,1,0,0:0:0:0:
64,192,233191,1,0,0:0:0:0:
192,192,233279,1,0,0:0:0:0:
320,192,233279,1,0,0:0:0:0:
448,192,233368,1,0,0:0:0:0:
64,192,233368,1,0,0:0:0:0:
192,192,233456,1,0,0:0:0:0:
320,192,233456,1,0,0:0:0:0:
448,192,233544,1,0,0:0:0:0:
64,192,233544,1,0,0:0:0:0:
192,192,233632,1,0,0:0:0:0:
320,192,233632,1,0,0:0:0:0:
64,192,233721,128,0,234426:0:0:0:0:
448,192,233721,128,0,234426:0:0:0:0:
320,192,234073,1,0,0:0:0:0:
192,192,234426,1,0,0:0:0:0:
320,192,234426,1,0,0:0:0:0:
448,192,234515,1,0,0:0:0:0:
64,192,234515,1,0,0:0:0:0:
192,192,234603,1,0,0:0:0:0:
320,192,234603,1,0,0:0:0:0:
448,192,234691,5,0,0:0:0:0:
64,192,234691,1,0,0:0:0:0:
192,192,234779,1,0,0:0:0:0:
320,192,234779,1,0,0:0:0:0:
448,192,234868,1,0,0:0:0:0:
64,192,234868,1,0,0:0:0:0:
192,192,234956,1,0,0:0:0:0:
320,192,234956,1,0,0:0:0:0:
448,192,235044,1,0,0:0:0:0:
64,192,235044,1,0,0:0:0:0:
192,192,235132,128,0,235838:0:0:0:0:
320,192,235132,128,0,235838:0:0:0:0:
64,192,235485,1,0,0:0:0:0:
64,192,235838,5,0,0:0:0:0:
448,192,235838,1,0,0:0:0:0:
192,192,235926,1,0,0:0:0:0:
64,192,236015,1,0,0:0:0:0:
448,192,236015,1,0,0:0:0:0:
320,192,236103,1,0,0:0:0:0:
448,192,236191,1,0,0:0:0:0:
64,192,236191,1,0,0:0:0:0:
192,192,236279,1,0,0:0:0:0:
448,192,236368,1,0,0:0:0:0:
64,192,236368,1,0,0:0:0:0:
192,192,236456,1,0,0:0:0:0:
448,192,236544,1,0,0:0:0:0:
320,192,236544,1,0,0:0:0:0:
192,192,236632,1,0,0:0:0:0:
448,192,236721,1,0,0:0:0:0:
64,192,236721,1,0,0:0:0:0:
320,192,236809,1,0,0:0:0:0:
448,192,236897,1,0,0:0:0:0:
64,192,236897,1,0,0:0:0:0:
192,192,236985,1,0,0:0:0:0:
64,192,237073,1,0,0:0:0:0:
320,192,237073,1,0,0:0:0:0:
448,192,237162,1,0,0:0:0:0:
64,192,237250,1,0,0:0:0:0:
192,192,237250,1,0,0:0:0:0:
320,192,237338,1,0,0:0:0:0:
64,192,237426,1,0,0:0:0:0:
448,192,237426,1,0,0:0:0:0:
320,192,237515,1,0,0:0:0:0:
448,192,237603,1,0,0:0:0:0:
64,192,237603,1,0,0:0:0:0:
192,192,237691,1,0,0:0:0:0:
448,192,237779,1,0,0:0:0:0:
64,192,237779,1,0,0:0:0:0:
192,192,237868,1,0,0:0:0:0:
448,192,237956,1,0,0:0:0:0:
320,192,237956,1,0,0:0:0:0:
192,192,238044,1,0,0:0:0:0:
64,192,238132,1,0,0:0:0:0:
320,192,238132,1,0,0:0:0:0:
448,192,238221,1,0,0:0:0:0:
320,192,238309,1,0,0:0:0:0:
192,192,238309,1,0,0:0:0:0:
448,192,238397,1,0,0:0:0:0:
192,192,238485,1,0,0:0:0:0:
64,192,238485,1,0,0:0:0:0:
320,192,238573,1,0,0:0:0:0:
192,192,238662,1,0,0:0:0:0:
448,192,238662,1,0,0:0:0:0:
64,192,238838,1,0,0:0:0:0:
192,192,238838,1,0,0:0:0:0:
64,192,238926,1,0,0:0:0:0:
320,192,238926,1,0,0:0:0:0:
192,192,239015,1,0,0:0:0:0:
320,192,239015,1,0,0:0:0:0:
448,192,239015,1,0,0:0:0:0:
192,192,239191,1,0,0:0:0:0:
64,192,239191,1,0,0:0:0:0:
192,192,239279,1,0,0:0:0:0:
320,192,239279,1,0,0:0:0:0:
320,192,239368,1,0,0:0:0:0:
448,192,239368,1,0,0:0:0:0:
64,192,239368,1,0,0:0:0:0:
320,192,239544,1,0,0:0:0:0:
64,192,239544,1,0,0:0:0:0:
320,192,239632,1,0,0:0:0:0:
192,192,239632,1,0,0:0:0:0:
192,192,239721,1,0,0:0:0:0:
448,192,239721,1,0,0:0:0:0:
64,192,239721,1,0,0:0:0:0:
448,192,239897,1,0,0:0:0:0:
192,192,239897,1,0,0:0:0:0:
448,192,239985,1,0,0:0:0:0:
320,192,239985,1,0,0:0:0:0:
64,192,240073,1,0,0:0:0:0:
320,192,240073,1,0,0:0:0:0:
192,192,240073,1,0,0:0:0:0:
64,192,240250,1,0,0:0:0:0:
320,192,240250,1,0,0:0:0:0:
448,192,240338,1,0,0:0:0:0:
192,192,240338,1,0,0:0:0:0:
64,192,240426,1,0,0:0:0:0:
320,192,240426,1,0,0:0:0:0:
448,192,240603,1,0,0:0:0:0:
192,192,240603,1,0,0:0:0:0:
64,192,240691,1,0,0:0:0:0:
320,192,240691,1,0,0:0:0:0:
448,192,240779,1,0,0:0:0:0:
192,192,240779,1,0,0:0:0:0:
320,192,240956,1,0,0:0:0:0:
448,192,240956,1,0,0:0:0:0:
320,192,241044,5,0,0:0:0:0:
448,192,241044,1,0,0:0:0:0:
448,192,241132,5,0,0:0:0:0:
320,192,241132,1,0,0:0:0:0:
64,192,241221,1,0,0:0:0:0:
192,192,241221,1,0,0:0:0:0:
192,192,241309,1,0,0:0:0:0:
64,192,241309,1,0,0:0:0:0:
192,192,241397,1,0,0:0:0:0:
64,192,241397,1,0,0:0:0:0:
64,192,241485,1,0,0:0:0:0:
192,192,241485,1,0,0:0:0:0:
320,192,241485,1,0,0:0:0:0:
448,192,241485,1,0,0:0:0:0:
192,192,242191,1,0,0:0:0:0:
64,192,242191,1,0,0:0:0:0:
320,192,242191,1,0,0:0:0:0:
448,192,242191,1,0,0:0:0:0:
192,192,242544,1,0,0:0:0:0:
64,192,242544,1,0,0:0:0:0:
448,192,242544,1,0,0:0:0:0:
320,192,242544,1,0,0:0:0:0:
448,192,242897,1,0,0:0:0:0:
320,192,242897,1,0,0:0:0:0:
64,192,242897,1,0,0:0:0:0:
192,192,242985,1,0,0:0:0:0:
448,192,243073,1,0,0:0:0:0:
320,192,243073,1,0,0:0:0:0:
64,192,243162,1,0,0:0:0:0:
192,192,243250,1,0,0:0:0:0:
448,192,243250,1,0,0:0:0:0:
320,192,243250,1,0,0:0:0:0:
64,192,243338,1,0,0:0:0:0:
320,192,243426,1,0,0:0:0:0:
192,192,243426,1,0,0:0:0:0:
448,192,243515,1,0,0:0:0:0:
320,192,243603,1,0,0:0:0:0:
64,192,243603,1,0,0:0:0:0:
192,192,243603,1,0,0:0:0:0:
448,192,243691,1,0,0:0:0:0:
320,192,243779,1,0,0:0:0:0:
64,192,243779,1,0,0:0:0:0:
192,192,243868,1,0,0:0:0:0:
64,192,243956,1,0,0:0:0:0:
320,192,243956,1,0,0:0:0:0:
448,192,243956,1,0,0:0:0:0:
192,192,244044,1,0,0:0:0:0:
448,192,244132,1,0,0:0:0:0:
64,192,244132,1,0,0:0:0:0:
192,192,244221,1,0,0:0:0:0:
64,192,244309,1,0,0:0:0:0:
448,192,244309,1,0,0:0:0:0:
320,192,244309,1,0,0:0:0:0:
192,192,244397,1,0,0:0:0:0:
320,192,244485,1,0,0:0:0:0:
448,192,244485,1,0,0:0:0:0:
64,192,244573,1,0,0:0:0:0:
448,192,244662,1,0,0:0:0:0:
192,192,244662,1,0,0:0:0:0:
320,192,244662,1,0,0:0:0:0:
64,192,244750,1,0,0:0:0:0:
320,192,244838,1,0,0:0:0:0:
192,192,244838,1,0,0:0:0:0:
448,192,244926,1,0,0:0:0:0:
320,192,245015,1,0,0:0:0:0:
64,192,245015,1,0,0:0:0:0:
192,192,245015,1,0,0:0:0:0:
448,192,245103,1,0,0:0:0:0:
192,192,245191,1,0,0:0:0:0:
64,192,245191,1,0,0:0:0:0:
320,192,245279,1,0,0:0:0:0:
64,192,245368,1,0,0:0:0:0:
448,192,245368,1,0,0:0:0:0:
192,192,245368,1,0,0:0:0:0:
320,192,245456,1,0,0:0:0:0:
192,192,245544,1,0,0:0:0:0:
448,192,245544,1,0,0:0:0:0:
64,192,245632,1,0,0:0:0:0:
320,192,245721,1,0,0:0:0:0:
448,192,245721,1,0,0:0:0:0:
192,192,245721,1,0,0:0:0:0:
64,192,245809,1,0,0:0:0:0:
320,192,245897,1,0,0:0:0:0:
448,192,245897,1,0,0:0:0:0:
192,192,245985,1,0,0:0:0:0:
448,192,246073,1,0,0:0:0:0:
64,192,246073,1,0,0:0:0:0:
320,192,246073,1,0,0:0:0:0:
192,192,246162,1,0,0:0:0:0:
320,192,246250,1,0,0:0:0:0:
64,192,246250,1,0,0:0:0:0:
192,192,246338,1,0,0:0:0:0:
448,192,246426,1,0,0:0:0:0:
64,192,246426,1,0,0:0:0:0:
320,192,246426,1,0,0:0:0:0:
192,192,246515,1,0,0:0:0:0:
448,192,246603,1,0,0:0:0:0:
64,192,246603,1,0,0:0:0:0:
320,192,246691,1,0,0:0:0:0:
448,192,246779,1,0,0:0:0:0:
64,192,246779,1,0,0:0:0:0:
192,192,246779,1,0,0:0:0:0:
320,192,246868,1,0,0:0:0:0:
64,192,246956,1,0,0:0:0:0:
192,192,246956,1,0,0:0:0:0:
320,192,247044,1,0,0:0:0:0:
64,192,247132,1,0,0:0:0:0:
448,192,247132,1,0,0:0:0:0:
192,192,247132,1,0,0:0:0:0:
320,192,247221,1,0,0:0:0:0:
64,192,247309,1,0,0:0:0:0:
192,192,247309,1,0,0:0:0:0:
448,192,247397,1,0,0:0:0:0:
320,192,247485,1,0,0:0:0:0:
64,192,247485,1,0,0:0:0:0:
192,192,247485,1,0,0:0:0:0:
448,192,247573,1,0,0:0:0:0:
192,192,247662,1,0,0:0:0:0:
320,192,247662,1,0,0:0:0:0:
64,192,247750,1,0,0:0:0:0:
192,192,247838,1,0,0:0:0:0:
448,192,247838,1,0,0:0:0:0:
320,192,247838,1,0,0:0:0:0:
64,192,247926,1,0,0:0:0:0:
192,192,248015,1,0,0:0:0:0:
448,192,248015,1,0,0:0:0:0:
320,192,248103,1,0,0:0:0:0:
448,192,248191,1,0,0:0:0:0:
192,192,248191,1,0,0:0:0:0:
64,192,248191,1,0,0:0:0:0:
320,192,248279,1,0,0:0:0:0:
64,192,248368,1,0,0:0:0:0:
448,192,248368,1,0,0:0:0:0:
320,192,248456,1,0,0:0:0:0:
448,192,248544,1,0,0:0:0:0:
64,192,248544,1,0,0:0:0:0:
192,192,248544,1,0,0:0:0:0:
320,192,248632,1,0,0:0:0:0:
192,192,248721,1,0,0:0:0:0:
64,192,248721,1,0,0:0:0:0:
448,192,248809,1,0,0:0:0:0:
64,192,248897,1,0,0:0:0:0:
320,192,248897,1,0,0:0:0:0:
192,192,248897,1,0,0:0:0:0:
448,192,248985,1,0,0:0:0:0:
192,192,249073,1,0,0:0:0:0:
320,192,249073,1,0,0:0:0:0:
64,192,249162,1,0,0:0:0:0:
192,192,249250,1,0,0:0:0:0:
448,192,249250,1,0,0:0:0:0:
320,192,249250,1,0,0:0:0:0:
64,192,249338,1,0,0:0:0:0:
320,192,249426,1,0,0:0:0:0:
448,192,249426,1,0,0:0:0:0:
192,192,249515,1,0,0:0:0:0:
448,192,249603,1,0,0:0:0:0:
64,192,249603,1,0,0:0:0:0:
320,192,249603,1,0,0:0:0:0:
192,192,249691,1,0,0:0:0:0:
320,192,249779,1,0,0:0:0:0:
64,192,249779,1,0,0:0:0:0:
448,192,249868,1,0,0:0:0:0:
192,192,249956,1,0,0:0:0:0:
64,192,249956,1,0,0:0:0:0:
320,192,249956,1,0,0:0:0:0:
448,192,250044,1,0,0:0:0:0:
192,192,250132,1,0,0:0:0:0:
64,192,250132,1,0,0:0:0:0:
320,192,250221,1,0,0:0:0:0:
64,192,250309,1,0,0:0:0:0:
448,192,250309,1,0,0:0:0:0:
192,192,250309,1,0,0:0:0:0:
320,192,250397,1,0,0:0:0:0:
192,192,250485,1,0,0:0:0:0:
448,192,250485,1,0,0:0:0:0:
320,192,250573,1,0,0:0:0:0:
64,192,250662,1,0,0:0:0:0:
448,192,250662,1,0,0:0:0:0:
192,192,250662,1,0,0:0:0:0:
320,192,250750,1,0,0:0:0:0:
64,192,250838,1,0,0:0:0:0:
448,192,250838,1,0,0:0:0:0:
192,192,250926,5,0,0:0:0:0:
320,192,251015,5,0,0:0:0:0:
64,192,251015,1,0,0:0:0:0:
448,192,251015,1,0,0:0:0:0:
192,192,251103,1,0,0:0:0:0:
448,192,251191,1,0,0:0:0:0:
320,192,251191,1,0,0:0:0:0:
192,192,251279,1,0,0:0:0:0:
448,192,251368,1,0,0:0:0:0:
320,192,251368,1,0,0:0:0:0:
64,192,251368,1,0,0:0:0:0:
192,192,251456,1,0,0:0:0:0:
448,192,251544,1,0,0:0:0:0:
64,192,251544,1,0,0:0:0:0:
320,192,251632,1,0,0:0:0:0:
448,192,251721,1,0,0:0:0:0:
192,192,251721,1,0,0:0:0:0:
64,192,251721,1,0,0:0:0:0:
320,192,251809,1,0,0:0:0:0:
64,192,251897,1,0,0:0:0:0:
192,192,251897,1,0,0:0:0:0:
320,192,251985,1,0,0:0:0:0:
64,192,252073,5,0,0:0:0:0:
448,192,252073,1,0,0:0:0:0:
320,192,252073,1,0,0:0:0:0:
192,192,252073,1,0,0:0:0:0:
448,192,252250,1,0,0:0:0:0:
192,192,252338,1,0,0:0:0:0:
320,192,252426,1,0,0:0:0:0:
448,192,252426,1,0,0:0:0:0:
64,192,252426,1,0,0:0:0:0:
192,192,252426,1,0,0:0:0:0:
64,192,252603,1,0,0:0:0:0:
320,192,252691,1,0,0:0:0:0:
192,192,252779,1,0,0:0:0:0:
64,192,252779,1,0,0:0:0:0:
448,192,252779,1,0,0:0:0:0:
320,192,252779,1,0,0:0:0:0:
320,192,252956,1,0,0:0:0:0:
64,192,252956,1,0,0:0:0:0:
192,192,253044,1,0,0:0:0:0:
320,192,253132,1,0,0:0:0:0:
448,192,253132,1,0,0:0:0:0:
192,192,253221,1,0,0:0:0:0:
448,192,253309,1,0,0:0:0:0:
64,192,253309,1,0,0:0:0:0:
320,192,253397,1,0,0:0:0:0:
320,192,253485,1,0,0:0:0:0:
448,192,253485,1,0,0:0:0:0:
64,192,253485,1,0,0:0:0:0:
192,192,253485,1,0,0:0:0:0:
64,192,253662,1,0,0:0:0:0:
192,192,253750,1,0,0:0:0:0:
192,192,253838,1,0,0:0:0:0:
64,192,253838,1,0,0:0:0:0:
448,192,253838,1,0,0:0:0:0:
320,192,253838,1,0,0:0:0:0:
64,192,254015,1,0,0:0:0:0:
320,192,254015,1,0,0:0:0:0:
192,192,254103,1,0,0:0:0:0:
448,192,254191,1,0,0:0:0:0:
320,192,254191,1,0,0:0:0:0:
64,192,254191,1,0,0:0:0:0:
192,192,254279,1,0,0:0:0:0:
448,192,254368,1,0,0:0:0:0:
320,192,254368,1,0,0:0:0:0:
64,192,254456,1,0,0:0:0:0:
192,192,254544,1,0,0:0:0:0:
448,192,254544,1,0,0:0:0:0:
320,192,254544,1,0,0:0:0:0:
64,192,254632,1,0,0:0:0:0:
320,192,254721,1,0,0:0:0:0:
192,192,254721,1,0,0:0:0:0:
448,192,254809,1,0,0:0:0:0:
320,192,254897,1,0,0:0:0:0:
64,192,254897,1,0,0:0:0:0:
192,192,254897,1,0,0:0:0:0:
448,192,254985,1,0,0:0:0:0:
320,192,255073,1,0,0:0:0:0:
64,192,255073,1,0,0:0:0:0:
192,192,255162,1,0,0:0:0:0:
64,192,255250,1,0,0:0:0:0:
320,192,255250,1,0,0:0:0:0:
448,192,255250,1,0,0:0:0:0:
192,192,255338,1,0,0:0:0:0:
448,192,255426,1,0,0:0:0:0:
64,192,255426,1,0,0:0:0:0:
192,192,255515,1,0,0:0:0:0:
64,192,255603,1,0,0:0:0:0:
448,192,255603,1,0,0:0:0:0:
320,192,255603,1,0,0:0:0:0:
192,192,255691,1,0,0:0:0:0:
320,192,255779,1,0,0:0:0:0:
448,192,255779,1,0,0:0:0:0:
64,192,255868,1,0,0:0:0:0:
448,192,255956,1,0,0:0:0:0:
192,192,255956,1,0,0:0:0:0:
320,192,255956,1,0,0:0:0:0:
64,192,256044,1,0,0:0:0:0:
320,192,256132,1,0,0:0:0:0:
192,192,256132,1,0,0:0:0:0:
448,192,256221,1,0,0:0:0:0:
320,192,256309,1,0,0:0:0:0:
64,192,256309,1,0,0:0:0:0:
192,192,256309,1,0,0:0:0:0:
448,192,256397,1,0,0:0:0:0:
192,192,256485,1,0,0:0:0:0:
64,192,256485,1,0,0:0:0:0:
320,192,256573,1,0,0:0:0:0:
64,192,256662,1,0,0:0:0:0:
448,192,256662,1,0,0:0:0:0:
192,192,256662,1,0,0:0:0:0:
320,192,256750,1,0,0:0:0:0:
192,192,256838,1,0,0:0:0:0:
448,192,256838,1,0,0:0:0:0:
64,192,256926,1,0,0:0:0:0:
320,192,257015,1,0,0:0:0:0:
448,192,257015,1,0,0:0:0:0:
192,192,257015,1,0,0:0:0:0:
64,192,257103,1,0,0:0:0:0:
320,192,257191,1,0,0:0:0:0:
448,192,257191,1,0,0:0:0:0:
192,192,257279,1,0,0:0:0:0:
448,192,257368,1,0,0:0:0:0:
64,192,257368,1,0,0:0:0:0:
320,192,257368,1,0,0:0:0:0:
192,192,257456,1,0,0:0:0:0:
320,192,257544,1,0,0:0:0:0:
64,192,257544,1,0,0:0:0:0:
192,192,257632,1,0,0:0:0:0:
448,192,257721,1,0,0:0:0:0:
64,192,257721,1,0,0:0:0:0:
320,192,257721,1,0,0:0:0:0:
192,192,257809,1,0,0:0:0:0:
448,192,257897,1,0,0:0:0:0:
64,192,257897,1,0,0:0:0:0:
320,192,257985,1,0,0:0:0:0:
448,192,258073,1,0,0:0:0:0:
64,192,258073,1,0,0:0:0:0:
192,192,258073,1,0,0:0:0:0:
320,192,258162,1,0,0:0:0:0:
64,192,258250,1,0,0:0:0:0:
192,192,258250,1,0,0:0:0:0:
320,192,258338,1,0,0:0:0:0:
64,192,258426,1,0,0:0:0:0:
448,192,258426,1,0,0:0:0:0:
192,192,258426,1,0,0:0:0:0:
320,192,258515,1,0,0:0:0:0:
64,192,258603,1,0,0:0:0:0:
192,192,258603,1,0,0:0:0:0:
448,192,258691,1,0,0:0:0:0:
320,192,258779,1,0,0:0:0:0:
64,192,258779,1,0,0:0:0:0:
192,192,258779,1,0,0:0:0:0:
448,192,258868,1,0,0:0:0:0:
192,192,258956,1,0,0:0:0:0:
320,192,258956,1,0,0:0:0:0:
64,192,259044,1,0,0:0:0:0:
192,192,259132,1,0,0:0:0:0:
448,192,259132,1,0,0:0:0:0:
320,192,259132,1,0,0:0:0:0:
64,192,259221,1,0,0:0:0:0:
192,192,259309,1,0,0:0:0:0:
448,192,259309,1,0,0:0:0:0:
320,192,259397,1,0,0:0:0:0:
448,192,259485,1,0,0:0:0:0:
192,192,259485,1,0,0:0:0:0:
64,192,259485,1,0,0:0:0:0:
320,192,259573,1,0,0:0:0:0:
64,192,259662,1,0,0:0:0:0:
448,192,259662,1,0,0:0:0:0:
320,192,259750,1,0,0:0:0:0:
448,192,259838,1,0,0:0:0:0:
64,192,259838,1,0,0:0:0:0:
192,192,259838,1,0,0:0:0:0:
320,192,259926,1,0,0:0:0:0:
192,192,260015,1,0,0:0:0:0:
64,192,260015,1,0,0:0:0:0:
448,192,260103,1,0,0:0:0:0:
64,192,260191,1,0,0:0:0:0:
320,192,260191,1,0,0:0:0:0:
192,192,260191,1,0,0:0:0:0:
448,192,260279,1,0,0:0:0:0:
192,192,260368,1,0,0:0:0:0:
320,192,260368,1,0,0:0:0:0:
64,192,260456,1,0,0:0:0:0:
192,192,260544,1,0,0:0:0:0:
448,192,260544,1,0,0:0:0:0:
320,192,260544,1,0,0:0:0:0:
64,192,260632,1,0,0:0:0:0:
320,192,260721,1,0,0:0:0:0:
448,192,260721,1,0,0:0:0:0:
192,192,260809,1,0,0:0:0:0:
448,192,260897,1,0,0:0:0:0:
64,192,260897,1,0,0:0:0:0:
320,192,260897,1,0,0:0:0:0:
192,192,260985,1,0,0:0:0:0:
320,192,261073,1,0,0:0:0:0:
64,192,261073,1,0,0:0:0:0:
448,192,261162,1,0,0:0:0:0:
192,192,261250,1,0,0:0:0:0:
64,192,261250,1,0,0:0:0:0:
320,192,261250,1,0,0:0:0:0:
448,192,261338,1,0,0:0:0:0:
192,192,261426,1,0,0:0:0:0:
64,192,261426,1,0,0:0:0:0:
320,192,261515,1,0,0:0:0:0:
64,192,261603,1,0,0:0:0:0:
448,192,261603,1,0,0:0:0:0:
192,192,261603,1,0,0:0:0:0:
320,192,261691,1,0,0:0:0:0:
192,192,261779,1,0,0:0:0:0:
448,192,261779,1,0,0:0:0:0:
320,192,261868,1,0,0:0:0:0:
64,192,261956,1,0,0:0:0:0:
448,192,261956,1,0,0:0:0:0:
192,192,261956,1,0,0:0:0:0:
320,192,262044,1,0,0:0:0:0:
64,192,262132,1,0,0:0:0:0:
448,192,262132,1,0,0:0:0:0:
192,192,262221,5,0,0:0:0:0:
320,192,262309,5,0,0:0:0:0:
64,192,262309,1,0,0:0:0:0:
448,192,262309,1,0,0:0:0:0:
192,192,262397,1,0,0:0:0:0:
448,192,262485,1,0,0:0:0:0:
320,192,262485,1,0,0:0:0:0:
192,192,262573,1,0,0:0:0:0:
448,192,262662,1,0,0:0:0:0:
320,192,262662,1,0,0:0:0:0:
64,192,262662,1,0,0:0:0:0:
192,192,262750,1,0,0:0:0:0:
448,192,262838,1,0,0:0:0:0:
64,192,262838,1,0,0:0:0:0:
320,192,262926,1,0,0:0:0:0:
448,192,263015,1,0,0:0:0:0:
192,192,263015,1,0,0:0:0:0:
64,192,263015,1,0,0:0:0:0:
320,192,263103,1,0,0:0:0:0:
64,192,263191,1,0,0:0:0:0:
192,192,263191,1,0,0:0:0:0:
320,192,263279,1,0,0:0:0:0:
64,192,263368,5,0,0:0:0:0:
192,192,263368,1,0,0:0:0:0:
448,192,263368,1,0,0:0:0:0:
320,192,263456,1,0,0:0:0:0:
64,192,263544,1,0,0:0:0:0:
448,192,263544,1,0,0:0:0:0:
192,192,263632,1,0,0:0:0:0:
64,192,263721,1,0,0:0:0:0:
448,192,263721,1,0,0:0:0:0:
320,192,263721,1,0,0:0:0:0:
192,192,263809,1,0,0:0:0:0:
320,192,263897,1,0,0:0:0:0:
448,192,263897,1,0,0:0:0:0:
64,192,263985,1,0,0:0:0:0:
448,192,264073,1,0,0:0:0:0:
320,192,264073,1,0,0:0:0:0:
192,192,264073,1,0,0:0:0:0:
64,192,264162,1,0,0:0:0:0:
320,192,264250,1,0,0:0:0:0:
448,192,264338,1,0,0:0:0:0:
192,192,264338,1,0,0:0:0:0:
64,192,264426,1,0,0:0:0:0:
320,192,264426,1,0,0:0:0:0:
448,192,264515,1,0,0:0:0:0:
192,192,264515,1,0,0:0:0:0:
64,192,264603,1,0,0:0:0:0:
448,192,264691,1,0,0:0:0:0:
320,192,264691,1,0,0:0:0:0:
192,192,264779,1,0,0:0:0:0:
64,192,264779,1,0,0:0:0:0:
320,192,264868,1,0,0:0:0:0:
448,192,264868,1,0,0:0:0:0:
64,192,264956,5,0,0:0:0:0:
192,192,264956,1,0,0:0:0:0:
192,192,265044,1,0,0:0:0:0:
64,192,265044,1,0,0:0:0:0:
448,192,265132,1,0,0:0:0:0:
320,192,265132,1,0,0:0:0:0:
320,192,265221,1,0,0:0:0:0:
448,192,265221,1,0,0:0:0:0:
64,192,265309,1,0,0:0:0:0:
192,192,265309,1,0,0:0:0:0:
192,192,265397,1,0,0:0:0:0:
64,192,265397,1,0,0:0:0:0:
320,192,265485,128,0,266779:0:0:0:0:
192,192,265485,128,0,269603:0:0:0:0:
64,192,265485,128,0,266779:0:0:0:0:
448,192,265485,128,0,268191:0:0:0:0:
64,192,266897,128,0,268191:0:0:0:0:
320,192,266897,128,0,271015:0:0:0:0:
64,192,268309,128,0,269603:0:0:0:0:
448,192,268309,128,0,271015:0:0:0:0:
64,192,269721,128,0,273838:0:0:0:0:
192,192,269721,128,0,272426:0:0:0:0:
448,192,271132,128,0,275250:0:0:0:0:
320,192,271132,128,0,272426:0:0:0:0:
192,192,272544,128,0,275250:0:0:0:0:
320,192,272544,128,0,273838:0:0:0:0:
64,192,273956,128,0,275250:0:0:0:0:
320,192,273956,128,0,275250:0:0:0:0:
448,192,275368,128,0,276073:0:0:0:0:
64,192,275368,1,0,0:0:0:0:
192,192,275368,1,0,0:0:0:0:
320,192,275412,1,0,0:0:0:0:
320,192,275721,1,0,0:0:0:0:
192,192,275721,1,0,0:0:0:0:
64,192,275897,1,0,0:0:0:0:
320,192,275897,1,0,0:0:0:0:
320,192,276073,1,0,0:0:0:0:
192,192,276073,1,0,0:0:0:0:
64,192,276073,1,0,0:0:0:0:
448,192,276250,1,0,0:0:0:0:
192,192,276250,1,0,0:0:0:0:
64,192,276250,1,0,0:0:0:0:
320,192,276426,1,0,0:0:0:0:
448,192,276426,1,0,0:0:0:0:
192,192,276426,1,0,0:0:0:0:
64,192,276603,1,0,0:0:0:0:
320,192,276603,1,0,0:0:0:0:
192,192,276603,1,0,0:0:0:0:
192,192,276779,1,0,0:0:0:0:
320,192,276779,1,0,0:0:0:0:
448,192,276779,1,0,0:0:0:0:
64,192,276868,1,0,0:0:0:0:
192,192,276956,1,0,0:0:0:0:
320,192,276956,1,0,0:0:0:0:
448,192,276956,1,0,0:0:0:0:
64,192,277044,1,0,0:0:0:0:
192,192,277132,1,0,0:0:0:0:
448,192,277132,1,0,0:0:0:0:
320,192,277132,1,0,0:0:0:0:
64,192,277221,1,0,0:0:0:0:
192,192,277309,1,0,0:0:0:0:
320,192,277309,1,0,0:0:0:0:
448,192,277309,1,0,0:0:0:0:
64,192,277397,1,0,0:0:0:0:
192,192,277485,1,0,0:0:0:0:
320,192,277485,1,0,0:0:0:0:
448,192,277573,1,0,0:0:0:0:
320,192,277662,1,0,0:0:0:0:
192,192,277662,1,0,0:0:0:0:
64,192,277662,1,0,0:0:0:0:
448,192,277750,1,0,0:0:0:0:
320,192,277838,1,0,0:0:0:0:
192,192,277838,1,0,0:0:0:0:
64,192,277926,1,0,0:0:0:0:
192,192,278015,1,0,0:0:0:0:
320,192,278015,1,0,0:0:0:0:
448,192,278015,1,0,0:0:0:0:
64,192,278103,1,0,0:0:0:0:
448,192,278191,1,0,0:0:0:0:
320,192,278191,1,0,0:0:0:0:
192,192,278279,1,0,0:0:0:0:
320,192,278368,1,0,0:0:0:0:
64,192,278368,1,0,0:0:0:0:
448,192,278368,1,0,0:0:0:0:
192,192,278456,1,0,0:0:0:0:
320,192,278544,1,0,0:0:0:0:
448,192,278544,1,0,0:0:0:0:
64,192,278544,1,0,0:0:0:0:
192,192,278632,1,0,0:0:0:0:
320,192,278721,1,0,0:0:0:0:
64,192,278721,1,0,0:0:0:0:
448,192,278721,1,0,0:0:0:0:
192,192,278809,1,0,0:0:0:0:
320,192,278897,1,0,0:0:0:0:
448,192,278897,1,0,0:0:0:0:
192,192,278985,1,0,0:0:0:0:
64,192,279073,1,0,0:0:0:0:
320,192,279073,1,0,0:0:0:0:
448,192,279073,1,0,0:0:0:0:
192,192,279162,1,0,0:0:0:0:
64,192,279250,1,0,0:0:0:0:
448,192,279250,1,0,0:0:0:0:
320,192,279338,1,0,0:0:0:0:
448,192,279426,1,0,0:0:0:0:
192,192,279426,1,0,0:0:0:0:
64,192,279426,1,0,0:0:0:0:
320,192,279515,1,0,0:0:0:0:
64,192,279603,1,0,0:0:0:0:
192,192,279603,1,0,0:0:0:0:
320,192,279691,1,0,0:0:0:0:
448,192,279779,1,0,0:0:0:0:
192,192,279779,1,0,0:0:0:0:
64,192,279779,1,0,0:0:0:0:
320,192,279868,1,0,0:0:0:0:
192,192,279956,1,0,0:0:0:0:
448,192,279956,1,0,0:0:0:0:
64,192,279956,1,0,0:0:0:0:
320,192,280044,1,0,0:0:0:0:
192,192,280132,1,0,0:0:0:0:
448,192,280132,1,0,0:0:0:0:
64,192,280132,1,0,0:0:0:0:
320,192,280221,1,0,0:0:0:0:
192,192,280309,1,0,0:0:0:0:
64,192,280309,1,0,0:0:0:0:
320,192,280397,1,0,0:0:0:0:
448,192,280485,1,0,0:0:0:0:
192,192,280485,1,0,0:0:0:0:
64,192,280485,1,0,0:0:0:0:
320,192,280573,1,0,0:0:0:0:
448,192,280662,1,0,0:0:0:0:
192,192,280662,1,0,0:0:0:0:
64,192,280750,1,0,0:0:0:0:
192,192,280838,1,0,0:0:0:0:
320,192,280838,1,0,0:0:0:0:
448,192,280838,1,0,0:0:0:0:
64,192,280926,1,0,0:0:0:0:
448,192,281015,1,0,0:0:0:0:
320,192,281015,1,0,0:0:0:0:
192,192,281103,1,0,0:0:0:0:
320,192,281191,1,0,0:0:0:0:
64,192,281191,1,0,0:0:0:0:
448,192,281191,1,0,0:0:0:0:
192,192,281279,1,0,0:0:0:0:
320,192,281368,1,0,0:0:0:0:
64,192,281368,1,0,0:0:0:0:
448,192,281368,1,0,0:0:0:0:
192,192,281456,1,0,0:0:0:0:
320,192,281544,1,0,0:0:0:0:
64,192,281544,1,0,0:0:0:0:
448,192,281544,1,0,0:0:0:0:
192,192,281632,1,0,0:0:0:0:
320,192,281721,1,0,0:0:0:0:
64,192,281721,1,0,0:0:0:0:
448,192,281809,1,0,0:0:0:0:
192,192,281897,1,0,0:0:0:0:
320,192,281897,1,0,0:0:0:0:
64,192,281897,1,0,0:0:0:0:
448,192,281985,1,0,0:0:0:0:
192,192,282073,1,0,0:0:0:0:
320,192,282073,1,0,0:0:0:0:
64,192,282162,1,0,0:0:0:0:
320,192,282250,1,0,0:0:0:0:
192,192,282250,1,0,0:0:0:0:
448,192,282250,1,0,0:0:0:0:
64,192,282338,1,0,0:0:0:0:
192,192,282426,1,0,0:0:0:0:
448,192,282426,1,0,0:0:0:0:
320,192,282515,1,0,0:0:0:0:
192,192,282603,1,0,0:0:0:0:
448,192,282603,1,0,0:0:0:0:
64,192,282603,1,0,0:0:0:0:
320,192,282691,1,0,0:0:0:0:
192,192,282779,1,0,0:0:0:0:
448,192,282779,1,0,0:0:0:0:
64,192,282779,1,0,0:0:0:0:
320,192,282868,1,0,0:0:0:0:
192,192,282956,1,0,0:0:0:0:
448,192,282956,1,0,0:0:0:0:
64,192,282956,1,0,0:0:0:0:
320,192,283044,1,0,0:0:0:0:
192,192,283132,1,0,0:0:0:0:
64,192,283132,1,0,0:0:0:0:
448,192,283221,1,0,0:0:0:0:
320,192,283309,1,0,0:0:0:0:
192,192,283309,1,0,0:0:0:0:
64,192,283309,1,0,0:0:0:0:
448,192,283397,1,0,0:0:0:0:
320,192,283485,1,0,0:0:0:0:
192,192,283485,1,0,0:0:0:0:
64,192,283573,1,0,0:0:0:0:
192,192,283662,1,0,0:0:0:0:
320,192,283662,1,0,0:0:0:0:
448,192,283662,1,0,0:0:0:0:
64,192,283750,1,0,0:0:0:0:
448,192,283838,1,0,0:0:0:0:
320,192,283838,1,0,0:0:0:0:
192,192,283926,1,0,0:0:0:0:
448,192,284015,1,0,0:0:0:0:
64,192,284015,1,0,0:0:0:0:
320,192,284015,1,0,0:0:0:0:
192,192,284103,1,0,0:0:0:0:
320,192,284191,1,0,0:0:0:0:
64,192,284191,1,0,0:0:0:0:
448,192,284191,1,0,0:0:0:0:
192,192,284279,1,0,0:0:0:0:
320,192,284368,1,0,0:0:0:0:
64,192,284368,1,0,0:0:0:0:
448,192,284368,1,0,0:0:0:0:
192,192,284456,1,0,0:0:0:0:
320,192,284544,1,0,0:0:0:0:
448,192,284544,1,0,0:0:0:0:
64,192,284632,1,0,0:0:0:0:
192,192,284721,1,0,0:0:0:0:
320,192,284721,1,0,0:0:0:0:
448,192,284721,1,0,0:0:0:0:
64,192,284809,1,0,0:0:0:0:
192,192,284897,1,0,0:0:0:0:
448,192,284897,1,0,0:0:0:0:
320,192,284985,1,0,0:0:0:0:
448,192,285073,1,0,0:0:0:0:
192,192,285073,1,0,0:0:0:0:
64,192,285073,1,0,0:0:0:0:
320,192,285162,1,0,0:0:0:0:
448,192,285250,1,0,0:0:0:0:
192,192,285250,1,0,0:0:0:0:
64,192,285338,1,0,0:0:0:0:
192,192,285426,1,0,0:0:0:0:
320,192,285426,1,0,0:0:0:0:
448,192,285426,1,0,0:0:0:0:
64,192,285515,1,0,0:0:0:0:
192,192,285603,1,0,0:0:0:0:
320,192,285603,1,0,0:0:0:0:
448,192,285603,1,0,0:0:0:0:
64,192,285691,1,0,0:0:0:0:
192,192,285779,1,0,0:0:0:0:
320,192,285779,1,0,0:0:0:0:
448,192,285779,1,0,0:0:0:0:
64,192,285868,1,0,0:0:0:0:
192,192,285956,1,0,0:0:0:0:
448,192,285956,1,0,0:0:0:0:
320,192,286044,1,0,0:0:0:0:
448,192,286132,1,0,0:0:0:0:
192,192,286132,1,0,0:0:0:0:
64,192,286132,1,0,0:0:0:0:
320,192,286221,1,0,0:0:0:0:
448,192,286309,1,0,0:0:0:0:
64,192,286309,1,0,0:0:0:0:
192,192,286397,1,0,0:0:0:0:
64,192,286485,1,0,0:0:0:0:
320,192,286485,1,0,0:0:0:0:
448,192,286485,1,0,0:0:0:0:
192,192,286573,1,0,0:0:0:0:
64,192,286662,1,0,0:0:0:0:
320,192,286662,1,0,0:0:0:0:
448,192,286750,1,0,0:0:0:0:
320,192,286838,1,0,0:0:0:0:
192,192,286838,1,0,0:0:0:0:
64,192,286838,1,0,0:0:0:0:
448,192,286926,5,0,0:0:0:0:
320,192,287015,1,0,0:0:0:0:
192,192,287015,1,0,0:0:0:0:
64,192,287103,1,0,0:0:0:0:
192,192,287191,1,0,0:0:0:0:
448,192,287191,1,0,0:0:0:0:
320,192,287191,1,0,0:0:0:0:
64,192,287279,1,0,0:0:0:0:
192,192,287368,1,0,0:0:0:0:
320,192,287368,1,0,0:0:0:0:
448,192,287456,1,0,0:0:0:0:
320,192,287544,1,0,0:0:0:0:
192,192,287544,1,0,0:0:0:0:
64,192,287544,1,0,0:0:0:0:
448,192,287632,1,0,0:0:0:0:
320,192,287721,1,0,0:0:0:0:
192,192,287721,1,0,0:0:0:0:
64,192,287809,1,0,0:0:0:0:
448,192,287809,1,0,0:0:0:0:
192,192,287897,1,0,0:0:0:0:
320,192,287897,1,0,0:0:0:0:
448,192,287985,1,0,0:0:0:0:
64,192,287985,1,0,0:0:0:0:
192,192,288073,1,0,0:0:0:0:
320,192,288073,1,0,0:0:0:0:
448,192,288073,1,0,0:0:0:0:
64,192,288073,1,0,0:0:0:0:
448,192,288426,1,0,0:0:0:0:
320,192,288426,1,0,0:0:0:0:
64,192,288426,1,0,0:0:0:0:
192,192,288426,1,0,0:0:0:0:
64,192,289250,128,0,289485:0:0:0:0:
320,192,289250,128,0,289485:0:0:0:0:
192,192,289250,1,0,0:0:0:0:
448,192,289250,1,0,0:0:0:0:
192,192,289485,128,0,290779:0:0:0:0:
448,192,289485,128,0,290779:0:0:0:0:
