osu file format v14

[General]
AudioFilename: audio.mp3
AudioLeadIn: 0
PreviewTime: 92042
Countdown: 0
SampleSet: Soft
StackLeniency: 0.7
Mode: 0
LetterboxInBreaks: 0
WidescreenStoryboard: 1

[Editor]
Bookmarks: 9758,26494,43230,59967,76703,93440,110176,126912,143649,160385
DistanceSpacing: 1.2
BeatDivisor: 4
GridSize: 4
TimelineZoom: 1.9

[Metadata]
Title:The Way I Are feat Keri Hilson & D.O.E.
TitleUnicode:The Way I Are feat Keri Hilson & D.O.E.
Artist:Timbaland
ArtistUnicode:Timbaland
Creator:Irreversible
Version:Talk To Me Gurl (by Irroli)
Source:
Tags:shock value featuring voli -space- baby it's alright now you ain't gotta flaunt for me exotic holidays sad story only inside matters team dissie
BeatmapID:1410103
BeatmapSetID:666253

[Difficulty]
HPDrainRate:6
CircleSize:4
OverallDifficulty:8
ApproachRate:8.5
SliderMultiplier:1.76
SliderTickRate:1

[Events]
//Background and Video events
0,0,"Free-desktop-wallpaper-of-Bench-City-scapes.jpg",0,0
//Break Periods
//Storyboard Layer 0 (Background)
//Storyboard Layer 1 (Fail)
//Storyboard Layer 2 (Pass)
//Storyboard Layer 3 (Foreground)
//Storyboard Sound Samples

[TimingPoints]
9793,523.012552301255,4,2,1,40,1,0
21560,-80,4,2,1,40,0,0
22083,-100,4,2,1,40,0,0
26529,-100,4,2,2,60,0,0
27836,-125,4,2,2,60,0,0
28359,-166.666666666667,4,2,2,60,0,0
28882,-100,4,2,2,60,0,0
32021,-125,4,2,2,60,0,0
32544,-166.666666666667,4,2,2,60,0,0
33851,-100,4,2,2,60,0,0
35420,-100,4,2,2,47,0,0
35943,-100,4,2,2,35,0,0
36466,-100,4,2,2,47,0,0
36728,-166.666666666667,4,2,2,47,0,0
36989,-166.666666666667,4,2,2,60,0,0
37512,-125,4,2,2,60,0,0
40912,-200,4,2,2,60,0,0
42219,-83.3333333333333,4,2,2,85,0,0
43265,-68.9655172413793,4,2,1,70,0,1
43658,-68.9655172413793,4,2,1,5,0,1
43788,-68.9655172413793,4,2,1,70,0,1
46796,-68.9655172413793,4,2,1,5,0,1
46926,-68.9655172413793,4,2,1,70,0,1
48888,-68.9655172413793,4,2,1,5,0,1
49018,-68.9655172413793,4,2,1,70,0,1
50980,-68.9655172413793,4,2,1,5,0,1
51110,-68.9655172413793,4,2,1,70,0,1
55164,-68.9655172413793,4,2,1,5,0,1
55295,-68.9655172413793,4,2,1,70,0,1
57256,-68.9655172413793,4,2,1,5,0,1
57387,-68.9655172413793,4,2,1,70,0,1
59479,-100,4,2,1,70,0,0
59871,-71.4285714285714,4,2,1,5,0,0
60002,-71.4285714285714,4,2,1,70,0,1
67847,-100,4,2,1,70,0,1
68370,-71.4285714285714,4,2,1,70,0,1
75169,-78.7401574803149,4,2,1,60,0,0
75692,-86.9565217391304,4,2,2,60,0,0
76215,-100,4,2,2,60,0,0
78046,-125,4,2,2,60,0,0
78569,-166.666666666667,4,2,2,60,0,0
78830,-100,4,2,2,60,0,0
82230,-125,4,2,2,60,0,0
82753,-166.666666666667,4,2,2,60,0,0
83276,-200,4,2,2,60,0,0
83799,-100,4,2,2,60,0,0
86414,-125,4,2,2,60,0,0
86937,-166.666666666667,4,2,2,60,0,0
87198,-100,4,2,2,40,0,0
91121,-200,4,2,2,60,0,0
92428,-100,4,2,2,85,0,0
93344,-68.9655172413793,4,2,2,60,0,0
93475,-68.9655172413793,4,2,1,70,0,1
93867,-68.9655172413793,4,2,1,5,0,1
93998,-68.9655172413793,4,2,1,70,0,1
99097,-68.9655172413793,4,2,1,5,0,1
99228,-68.9655172413793,4,2,1,70,0,1
100143,-68.9655172413793,4,2,1,5,0,1
100274,-68.9655172413793,4,2,1,70,0,1
105765,-80,4,2,1,70,0,1
107138,-80,4,2,1,5,0,1
107596,-80,4,2,1,70,0,1
109688,-80,4,2,1,70,0,0
110211,-71.4285714285714,4,2,1,70,0,1
126947,-100,4,2,1,60,0,0
143684,-100,4,2,1,50,0,0

[Colours]
Combo1 : 63,158,130
Combo2 : 192,192,192
Combo3 : 0,84,187

[HitObjects]
245,101,9793,5,4,0:1:0:0:
245,101,9923,1,0,0:0:0:0:
245,101,10054,1,0,0:0:0:0:
225,231,10316,2,0,L|167:238,1,44,8|0,0:0|0:0,0:0:0:0:
105,190,10577,1,0,0:0:0:0:
335,136,10839,1,2,0:0:0:0:
335,136,10969,1,0,0:0:0:0:
335,136,11100,1,0,0:0:0:0:
227,325,11362,2,0,L|169:332,1,44,8|0,0:0|0:0,0:0:0:0:
107,284,11623,1,0,0:0:0:0:
377,234,11885,5,2,0:0:0:0:
377,234,12015,1,0,0:0:0:0:
377,234,12146,1,0,0:0:0:0:
195,168,12408,2,0,L|171:114,1,44,8|0,0:0|0:0,0:0:0:0:
200,42,12669,1,0,0:0:0:0:
378,63,12931,1,2,0:0:0:0:
378,63,13061,1,0,0:0:0:0:
378,63,13192,1,2,3:0:0:0:
281,259,13454,2,0,L|239:243,1,44,8|0,0:0|0:0,0:0:0:0:
195,168,13715,1,2,3:0:0:0:
61,307,13977,5,4,0:1:0:0:
61,307,14107,1,0,0:0:0:0:
61,307,14238,1,0,0:0:0:0:
37,127,14500,2,0,L|34:65,1,44,8|0,0:0|0:0,0:0:0:0:
88,12,14761,1,0,0:0:0:0:
0,222,15023,1,2,0:0:0:0:
0,222,15153,1,0,0:0:0:0:
0,222,15284,1,0,0:0:0:0:
152,105,15546,2,0,L|175:47,1,44,8|0,0:0|0:0,0:0:0:0:
246,22,15807,1,0,0:0:0:0:
104,211,16069,5,2,0:0:0:0:
104,211,16199,1,0,0:0:0:0:
104,211,16330,1,0,0:0:0:0:
237,305,16592,2,0,L|313:298,1,44,8|0,0:0|0:0,0:0:0:0:
362,333,16853,1,0,0:0:0:0:
202,162,17115,1,2,0:0:0:0:
202,162,17245,1,0,0:0:0:0:
202,162,17376,1,8,3:0:0:0:
374,238,17638,2,0,L|417:233,1,44,8|0,0:0|0:0,0:0:0:0:
499,266,17899,1,8,3:0:0:0:
401,86,18161,5,4,0:1:0:0:
401,86,18291,1,0,0:0:0:0:
401,86,18422,1,0,0:0:0:0:
230,131,18684,2,0,L|187:126,1,44,8|0,0:0|0:0,0:0:0:0:
117,71,18945,1,0,0:0:0:0:
302,56,19207,1,2,0:0:0:0:
302,56,19337,1,0,0:0:0:0:
302,56,19468,1,0,0:0:0:0:
146,199,19730,2,0,L|103:204,1,44,8|0,0:0|0:0,0:0:0:0:
33,147,19991,1,0,0:0:0:0:
155,292,20253,6,0,L|198:297,1,44,2|0,0:0|3:0,0:0:0:0:
272,248,20514,2,0,L|315:243,2,44,0|0|8,0:0|0:0|0:0,0:0:0:0:
320,72,21037,1,0,3:0:0:0:
444,224,21299,2,0,L|449:270,1,44,2|0,0:0|0:0,0:0:0:0:
497,151,21560,6,0,L|508:41,1,110,2|8,3:0|0:0,0:0:0:0:
214,75,22083,1,2,3:0:0:0:
401,212,22345,5,4,0:1:0:0:
401,212,22476,1,0,0:0:0:0:
401,212,22606,1,0,0:0:0:0:
258,67,22868,2,0,L|186:81,1,44,8|0,0:0|0:0,0:0:0:0:
130,50,23129,1,0,0:0:0:0:
364,106,23391,1,2,0:0:0:0:
364,106,23522,1,0,0:0:0:0:
364,106,23652,1,0,0:0:0:0:
174,191,23914,2,0,L|100:185,1,44,8|0,0:0|0:0,0:0:0:0:
54,141,24175,1,0,0:0:0:0:
244,150,24437,6,0,P|255:189|250:218,2,44,2|0|0,0:0|0:0|0:0,0:0:0:0:
316,88,24960,2,0,P|326:48|345:26,1,44,8|0,0:0|0:0,0:0:0:0:
480,92,25221,6,0,L|388:88,1,88,4|2,3:0|0:0,0:0:0:0:
327,46,25614,1,2,3:0:0:0:
327,46,25744,5,0,0:0:0:0:
185,338,26006,1,8,0:0:0:0:
120,88,26267,1,0,1:0:0:0:
392,296,26529,6,0,P|460:280|488:243,1,88,6|0,1:0|0:0,0:0:0:0:
471,269,26921,1,0,0:0:0:0:
471,269,27052,1,8,0:2:0:0:
120,88,27313,6,0,L|108:200,1,88,2|0,0:0|3:0,0:0:0:0:
185,338,27836,6,0,L|175:244,1,70.4,0|8,0:0|0:0,0:0:0:0:
272,192,28359,6,0,L|264:261,1,52.7999983886719,2|4,0:0|3:0,0:0:0:0:
344,312,28752,5,4,3:0:0:0:
344,312,28882,2,0,P|387:309|423:285,2,88,0|8|0,0:0|0:0|0:0,0:0:0:0:
264,104,29667,1,4,3:0:0:0:
362,235,29928,1,0,0:0:0:0:
185,338,30190,2,0,L|81:334,1,88,8|0,0:0|0:0,0:0:0:0:
362,235,30713,6,0,L|456:228,1,88,4|0,0:1|0:0,0:0:0:0:
284,112,31236,1,8,0:0:0:0:
96,333,31498,6,0,P|76:295|76:251,1,88,2|4,0:0|3:0,0:0:0:0:
204,248,32021,6,0,P|213:214|234:186,1,70.4,0|8,0:0|0:0,0:0:0:0:
328,244,32544,6,0,P|350:232|376:231,1,52.7999983886719,2|4,0:0|3:0,0:0:0:0:
388,312,33067,6,0,P|411:319|430:336,2,52.7999983886719,0|0|0,0:0|3:0|0:0,0:0:0:0:
464,192,33720,1,0,0:0:0:0:
464,192,33851,6,0,P|473:149|462:107,1,88,0|8,1:0|3:0,0:0:0:0:
384,40,34243,1,0,0:0:0:0:
367,57,34374,2,0,P|356:98|365:141,1,88,8|0,1:2|0:0,0:0:0:0:
280,336,34897,5,6,1:0:0:0:
72,316,35159,1,0,0:0:0:0:
48,232,35420,5,8,0:0:0:0:
208,216,35682,1,0,0:0:0:0:
244,140,35943,5,2,0:1:0:0:
124,128,36205,1,0,0:0:0:0:
88,52,36466,5,8,0:0:0:0:
321,112,36728,2,0,P|326:144|322:176,1,52.7999983886719,0|2,3:0|3:0,0:0:0:0:
325,164,37120,1,0,3:0:0:0:
325,164,37251,1,0,3:0:0:0:
124,128,37512,5,8,0:0:0:0:
384,56,37774,1,2,0:0:0:0:
317,318,38035,2,0,P|308:286|311:247,1,70.4,2|0,3:0|0:0,0:0:0:0:
392,280,38427,1,0,0:0:0:0:
392,280,38558,2,0,P|401:312|397:350,1,70.4,8|0,0:0|0:0,0:0:0:0:
64,328,39081,5,0,1:0:0:0:
311,249,39343,1,4,3:0:0:0:
64,328,39604,2,0,P|112:332|136:340,1,70.4,8|0,0:0|0:0,0:0:0:0:
311,249,40127,2,0,P|265:265|244:279,2,70.4,0|0|8,3:0|3:0|0:0,0:0:0:0:
146,71,40912,6,0,L|138:172,2,88,2|8|4,3:0|3:0|3:0,0:0:0:0:
145,70,42219,6,0,L|89:74,1,52.7999983886719,0|0,1:0|0:0,0:0:0:0:
310,249,42481,6,0,P|362:269|446:265,2,105.599996777344,2|8|0,0:0|0:0|0:0,0:0:0:0:
156,336,43265,6,0,P|151:260|80:318,1,191.400005841065,4|0,1:1|0:0,0:0:0:0:
156,336,43788,2,0,L|283:323,1,127.600003894043,8|0,0:0|0:0,0:0:0:0:
414,83,44311,1,2,0:0:0:0:
328,240,44573,1,0,0:0:0:0:
414,83,44834,1,8,0:0:0:0:
282,323,45096,1,0,0:0:0:0:
488,125,45357,6,0,P|495:55|454:7,1,127.600003894043,2|0,0:0|0:0,0:0:0:0:
328,240,45880,2,0,L|466:229,1,127.600003894043,8|0,0:0|0:0,0:0:0:0:
224,105,46403,2,0,B|109:73|136:153|12:105,1,191.400005841065,6|0,0:0|0:0,0:0:0:0:
37,113,46926,1,8,0:0:0:0:
181,223,47188,1,4,3:0:0:0:
178,17,47449,5,4,0:0:0:0:
178,17,47580,1,0,0:0:0:0:
178,17,47711,1,0,0:0:0:0:
385,60,47972,1,8,0:0:0:0:
183,123,48234,1,0,0:0:0:0:
443,179,48495,6,0,B|427:327|427:327|396:288,1,191.400005841065,2|0,3:0|0:0,0:0:0:0:
318,230,49018,2,0,B|304:92,1,127.600003894043,8|0,0:0|0:0,0:0:0:0:
183,123,49411,1,0,0:0:0:0:
183,123,49541,6,0,P|117:146|43:114,1,127.600003894043,4|0,3:0|0:0,0:0:0:0:
241,36,50064,2,0,P|307:13|381:45,1,127.600003894043,8|0,0:0|0:0,0:0:0:0:
512,130,50587,2,0,B|363:145|363:145|402:176,1,191.400005841065,2|0,0:0|0:0,0:0:0:0:
395,171,51110,1,8,0:0:0:0:
241,36,51372,1,0,1:0:0:0:
221,245,51634,5,4,1:0:0:0:
221,245,51764,1,0,3:0:0:0:
221,245,51895,1,0,3:0:0:0:
368,47,52157,2,0,L|502:59,1,127.600003894043,8|0,0:0|0:0,0:0:0:0:
179,134,52680,5,2,0:0:0:0:
368,47,52941,1,0,3:0:0:0:
338,214,53203,1,8,0:0:0:0:
241,36,53464,1,0,3:0:0:0:
435,183,53726,6,0,P|439:243|384:309,1,127.600003894043,4|0,1:0|0:0,0:0:0:0:
241,36,54249,2,0,L|387:49,1,127.600003894043,8|2,0:0|0:0,0:0:0:0:
338,214,54772,2,0,B|268:220|268:220|225:208|225:208|143:216,1,191.400005841065,2|0,0:0|0:0,0:0:0:0:
148,215,55295,1,8,0:0:0:0:
324,326,55556,1,4,3:0:0:0:
65,257,55818,5,4,0:1:0:0:
65,257,55948,1,0,3:0:0:0:
65,257,56079,1,0,3:0:0:0:
287,133,56341,1,8,0:0:0:0:
105,80,56602,1,0,0:0:0:0:
244,208,56864,2,0,P|325:215|375:123,1,191.400005841065,2|0,0:0|0:0,0:0:0:0:
287,133,57387,2,0,L|358:262,1,127.600003894043,8|0,0:0|0:0,0:0:0:0:
161,89,57910,5,2,0:0:0:0:
377,32,58171,1,0,0:0:0:0:
193,171,58433,2,0,P|118:168|76:101,1,127.600003894043,8|0,0:0|0:0,0:0:0:0:
249,36,58956,2,0,L|383:31,1,127.600003894043,2|0,3:0|0:0,0:0:0:0:
512,172,59479,6,0,L|378:167,1,132,2|0,3:0|0:0,0:0:0:0:
380,167,60002,6,0,P|400:208|400:240,1,61.5999981201172,4|0,1:1|0:0,0:0:0:0:
340,288,60263,2,0,P|325:331|302:353,1,61.5999981201172,0|0,0:0|0:0,0:0:0:0:
198,342,60525,2,0,L|64:347,1,123.199996240234,8|0,0:0|0:0,0:0:0:0:
74,346,60917,1,0,0:0:0:0:
74,346,61048,6,0,L|70:255,1,61.5999981201172,2|0,0:0|0:0,0:0:0:0:
52,192,61309,1,0,0:0:0:0:
256,256,61571,1,8,0:0:0:0:
460,192,61832,1,0,0:0:0:0:
256,40,62094,6,0,P|209:79|192:137,1,123.199996240234,2|0,0:0|0:0,0:0:0:0:
396,288,62617,2,0,P|443:249|460:191,1,123.199996240234,8|0,0:0|0:0,0:0:0:0:
192,136,63140,2,0,B|340:128|340:128|311:150,1,184.799994360352,2|0,0:0|0:0,0:0:0:0:
198,217,63663,2,0,P|139:199|110:145,1,123.199996240234,8|0,0:0|0:0,0:0:0:0:
110,148,64186,6,0,L|114:228,1,61.5999981201172,4|0,0:0|0:0,0:0:0:0:
56,344,64447,2,0,L|59:282,1,61.5999981201172,0|0,0:0|0:0,0:0:0:0:
113,209,64709,1,8,0:0:0:0:
256,352,64970,2,0,L|317:348,1,61.5999981201172,0|0,0:0|0:0,0:0:0:0:
457,291,65232,2,0,L|395:287,1,61.5999981201172,2|0,3:0|0:0,0:0:0:0:
317,348,65493,1,0,0:0:0:0:
457,158,65755,6,0,B|472:76|472:76|456:40,1,123.199996240234,8|0,0:0|0:0,0:0:0:0:
176,108,66278,1,4,3:0:0:0:
256,192,66539,1,0,0:0:0:0:
336,108,66801,1,8,0:0:0:0:
55,158,67062,1,0,0:0:0:0:
56,40,67324,6,0,B|40:76|40:76|54:158,1,123.199996240234,2|0,0:0|0:0,0:0:0:0:
256,275,67847,2,0,B|266:215|266:215|254:189,1,88,8|0,0:0|1:0,0:0:0:0:
255,191,68370,6,0,P|288:180|335:187,1,61.5999981201172,4|0,1:0|3:0,0:0:0:0:
408,123,68631,2,0,P|439:138|467:176,1,61.5999981201172,0|0,3:0|0:0,0:0:0:0:
432,328,68893,2,0,L|300:324,1,123.199996240234,8|0,0:0|0:0,0:0:0:0:
256,352,69285,1,0,0:0:0:0:
204,324,69416,2,0,L|80:327,1,123.199996240234,2|0,0:0|3:0,0:0:0:0:
36,192,69939,5,8,0:0:0:0:
204,76,70200,1,0,3:0:0:0:
431,312,70462,6,0,P|455:255|457:194,1,123.199996240234,4|0,1:0|0:0,0:0:0:0:
204,76,70985,2,0,P|180:132|178:193,1,123.199996240234,8|2,0:0|0:0,0:0:0:0:
457,194,71508,2,0,B|485:171|485:171|337:179,1,184.799994360352,2|0,0:0|0:0,0:0:0:0:
249,234,72031,2,0,P|177:274|125:246,1,123.199996240234,8|4,0:0|3:0,0:0:0:0:
84,204,72423,5,0,0:0:0:0:
144,148,72554,2,0,P|166:164|182:196,1,61.5999981201172,4|0,0:1|3:0,0:0:0:0:
330,194,72816,2,0,P|343:166|368:148,1,61.5999981201172,0|0,3:0|0:0,0:0:0:0:
453,187,73077,2,0,L|330:194,1,123.199996240234,8|0,0:0|0:0,0:0:0:0:
256,308,73469,1,0,3:0:0:0:
213,333,73599,1,2,0:0:0:0:
165,343,73730,1,0,0:0:0:0:
117,338,73861,1,0,0:0:0:0:
165,41,74123,5,8,0:0:0:0:
256,192,74385,1,0,0:0:0:0:
24,156,74646,6,0,B|44:144|44:144|143:147,1,123.199996240234,2|0,0:0|0:0,0:0:0:0:
117,338,75169,6,0,B|127:331|127:331|227:335,1,111.759999147339,8|0,0:0|0:0,0:0:0:0:
256,192,75692,6,0,B|266:185|266:185|366:189,1,101.200001930237,2|0,3:0|0:0,0:0:0:0:
344,300,76084,1,0,0:0:0:0:
344,300,76215,6,0,B|353:294|353:294|444:297,1,88,2|0,3:0|0:0,0:0:0:0:
304,96,76738,5,6,1:0:0:0:
226,334,77000,1,0,0:0:0:0:
438,191,77261,1,8,0:2:0:0:
256,192,77523,6,0,P|219:161|203:117,1,88,2|0,0:0|3:0,0:0:0:0:
84,199,78046,6,0,P|61:171|28:156,1,70.4,0|8,0:0|0:0,0:0:0:0:
86,85,78569,6,0,P|66:67|55:43,1,52.7999983886719,2|4,0:0|3:0,0:0:0:0:
136,19,78961,5,4,3:0:0:0:
150,13,79092,2,0,L|256:25,1,88,0|8,0:0|0:0,0:0:0:0:
318,86,79615,1,0,0:0:0:0:
84,199,79876,5,4,3:0:0:0:
237,22,80138,1,0,0:0:0:0:
166,276,80399,1,8,0:0:0:0:
2,122,80661,1,0,0:0:0:0:
273,145,80922,6,0,L|265:239,1,88,4|0,0:1|0:0,0:0:0:0:
237,22,81445,1,8,0:0:0:0:
273,145,81707,6,0,P|323:144|370:125,1,88,2|0,0:0|3:3,0:0:0:0:
265,232,82230,6,0,P|228:232|194:246,1,70.4,0|8,0:0|0:0,0:0:0:0:
339,280,82753,6,0,P|364:279|388:269,1,52.7999983886719,2|4,0:0|3:0,0:0:0:0:
277,342,83276,6,0,P|254:342|233:350,2,44,0|0|0,3:0|3:0|0:0,0:0:0:0:
384,357,83930,5,0,0:0:0:0:
384,357,84060,2,0,L|390:256,1,88,0|8,1:0|3:0,0:0:0:0:
289,146,84453,1,0,0:0:0:0:
289,146,84583,2,0,L|294:233,1,88,8|0,1:2|0:0,0:0:0:0:
396,28,85106,5,6,1:0:0:0:
153,42,85368,1,0,0:0:0:0:
294,233,85629,1,8,0:0:0:0:
87,100,85891,6,0,P|65:58|72:14,1,88,0|2,0:0|0:1,0:0:0:0:
176,156,86414,6,0,P|188:117|219:95,1,70.4,0|8,0:0|0:0,0:0:0:0:
245,241,86937,6,0,P|268:228|293:232,1,52.7999983886719,0|2,0:0|1:1,0:0:0:0:
427,308,87460,5,0,3:0:0:0:
143,259,87721,1,8,0:0:0:0:
298,89,87983,1,2,0:0:0:0:
271,352,88244,1,2,3:0:0:0:
156,99,88506,5,0,0:0:0:0:
424,136,88767,1,8,0:0:0:0:
271,352,89029,1,0,1:0:0:0:
412,48,89290,6,0,L|423:135,1,88,4|4,1:0|3:0,0:0:0:0:
221,16,89813,2,0,L|308:4,1,88,8|0,0:0|0:0,0:0:0:0:
252,158,90336,2,0,L|164:146,1,88,0|0,3:0|3:0,0:0:0:0:
35,29,90859,1,8,0:0:0:0:
70,194,91121,6,0,P|68:233|29:289,2,88,2|8|4,3:0|3:0|3:0,0:0:0:0:
200,66,92428,6,0,L|259:73,1,44,0|0,1:0|0:0,0:0:0:0:
308,145,92690,1,2,0:0:0:0:
133,301,92951,1,8,0:0:0:0:
38,59,93213,1,0,1:0:0:0:
58,300,93475,6,0,P|117:227|200:266,1,191.400005841065,4|0,1:1|0:0,0:0:0:0:
256,332,93998,2,0,B|288:344|288:344|392:332,1,127.600003894043,8|0,0:0|0:0,0:0:0:0:
443,179,94521,5,2,0:0:0:0:
278,39,94782,1,0,0:0:0:0:
134,36,95044,1,8,0:0:0:0:
108,336,95305,1,0,0:0:0:0:
40,108,95567,6,0,P|72:164|144:205,1,127.600003894043,2|0,0:0|0:0,0:0:0:0:
464,308,96090,2,0,P|403:291|340:302,1,127.600003894043,8|0,0:0|0:0,0:0:0:0:
211,59,96613,2,0,P|153:113|133:36,1,191.400005841065,6|0,0:0|0:0,0:0:0:0:
175,31,97136,1,8,0:0:0:0:
340,301,97397,2,0,P|398:275|461:275,1,127.600003894043,4|4,3:0|0:0,0:0:0:0:
461,275,97789,1,0,0:0:0:0:
461,275,97920,1,0,0:0:0:0:
172,301,98182,6,0,B|143:318|143:318|31:306,1,127.600003894043,8|0,0:0|0:0,0:0:0:0:
160,109,98705,2,0,L|172:301,1,191.400005841065,2|0,3:0|0:0,0:0:0:0:
341,300,99228,2,0,B|371:317|371:317|483:305,1,127.600003894043,8|0,0:0|0:0,0:0:0:0:
380,232,99620,1,0,0:0:0:0:
341,300,99751,2,0,L|353:108,1,191.400005841065,4|0,3:0|0:0,0:0:0:0:
463,77,100274,2,0,B|370:67|370:67|340:83,1,127.600003894043,8|0,0:0|0:0,0:0:0:0:
176,104,100797,6,0,P|103:178|83:76,1,255.200007788086,2|8,0:0|0:0,0:0:0:0:
243,180,101581,2,0,P|145:257|25:220,1,255.200007788086,0|0,1:0|3:0,0:0:0:0:
226,306,102366,2,0,P|167:331|103:334,1,127.600003894043,8|0,0:0|0:0,0:0:0:0:
322,87,102889,5,2,0:0:0:0:
409,334,103150,2,0,P|384:275|381:211,2,127.600003894043,0|8|0,3:0|0:0|3:0,0:0:0:0:
444,140,103935,1,4,1:0:0:0:
256,244,104196,1,0,0:0:0:0:
68,140,104458,1,8,0:0:0:0:
256,36,104719,2,0,L|256:108,1,63.8000019470215,2|0,0:0|0:0,0:0:0:0:
256,244,104981,6,0,P|208:292|156:204,1,191.400005841065,2|0,0:0|0:0,0:0:0:0:
68,140,105504,1,8,0:0:0:0:
256,36,105765,1,4,3:0:0:0:
436,148,106027,5,4,0:1:0:0:
436,148,106158,1,0,3:0:0:0:
436,148,106288,1,0,3:0:0:0:
256,244,106550,6,0,P|321:263|364:296,1,110,8|0,0:0|0:0,0:0:0:0:
60,256,107073,2,0,L|108:252,1,27.5,2|0,0:0|0:0,0:0:0:0:
178,317,107596,5,8,0:0:0:0:
178,317,107857,1,0,0:0:0:0:
131,114,108119,5,2,0:0:0:0:
334,67,108380,1,0,0:0:0:0:
381,270,108642,1,8,0:0:0:0:
170,201,108903,5,0,0:0:0:0:
341,182,109165,1,2,3:0:0:0:
84,171,109426,5,0,0:0:0:0:
428,211,109688,1,2,3:0:0:0:
64,33,110211,6,0,P|56:62|59:98,1,61.5999981201172,4|0,1:1|0:0,0:0:0:0:
84,171,110472,2,0,P|92:200|89:236,1,61.5999981201172,0|0,0:0|0:0,0:0:0:0:
47,317,110734,2,0,L|174:305,1,123.199996240234,8|0,0:0|0:0,0:0:0:0:
246,271,111126,1,0,0:0:0:0:
246,271,111257,6,0,L|307:276,1,61.5999981201172,2|0,0:0|0:0,0:0:0:0:
388,290,111518,1,0,0:0:0:0:
347,69,111780,1,8,0:0:0:0:
497,157,112041,1,0,0:0:0:0:
328,154,112303,6,0,P|272:112|263:58,1,123.199996240234,2|0,0:0|0:0,0:0:0:0:
28,30,112826,2,0,B|157:44,1,123.199996240234,8|0,0:0|0:0,0:0:0:0:
328,154,113349,2,0,B|199:168|199:168|276:202,1,184.799994360352,6|0,0:0|0:0,0:0:0:0:
387,214,113872,2,0,P|411:164|379:91,1,123.199996240234,8|0,0:0|0:0,0:0:0:0:
211,36,114395,6,0,B|129:44,1,61.5999981201172,4|0,0:0|0:0,0:0:0:0:
66,116,114657,2,0,B|147:124,1,61.5999981201172,0|0,0:0|0:0,0:0:0:0:
192,187,114918,2,0,P|215:235|188:310,1,123.199996240234,8|0,0:0|0:0,0:0:0:0:
135,245,115310,1,0,0:0:0:0:
135,245,115441,6,0,P|105:270|47:265,1,61.5999981201172,2|0,3:0|0:0,0:0:0:0:
5,258,115703,1,0,0:0:0:0:
197,299,115964,1,8,0:0:0:0:
127,122,116226,1,0,0:0:0:0:
301,228,116487,6,0,L|444:233,1,123.199996240234,4|0,3:0|0:0,0:0:0:0:
250,117,117010,2,0,L|107:122,1,123.199996240234,8|0,0:0|0:0,0:0:0:0:
424,232,117533,6,0,B|443:174|424:135|424:135|377:177,1,123.199996240234,2|0,0:0|0:0,0:0:0:0:
230,219,118056,2,0,B|203:301|229:355|229:355|296:297,1,184.799994360352,8|0,0:0|0:0,0:0:0:0:
312,191,118579,6,0,P|295:161|260:137,1,61.5999981201172,4|0,1:0|3:0,0:0:0:0:
246,59,118841,2,0,P|216:76|192:111,1,61.5999981201172,0|0,3:0|0:0,0:0:0:0:
142,180,119102,2,0,L|10:161,1,123.199996240234,8|0,0:0|0:0,0:0:0:0:
175,282,119494,1,0,0:0:0:0:
175,282,119625,6,0,L|53:264,1,123.199996240234,2|0,0:0|3:0,0:0:0:0:
94,48,120148,1,8,0:0:0:0:
142,180,120410,1,0,3:0:0:0:
280,76,120671,6,0,P|281:142|252:196,1,123.199996240234,4|0,1:0|0:0,0:0:0:0:
344,269,121194,2,0,P|285:237|254:184,1,123.199996240234,8|0,0:0|0:0,0:0:0:0:
88,246,121717,2,0,P|173:193|264:192,1,184.799994360352,2|0,0:0|0:0,0:0:0:0:
364,158,122240,2,0,B|338:60|338:60|313:92,1,123.199996240234,8|4,0:0|3:0,0:0:0:0:
234,100,122632,1,0,0:0:0:0:
234,100,122763,6,0,L|141:94,1,61.5999981201172,4|0,0:1|3:0,0:0:0:0:
111,18,123025,2,0,L|204:12,1,61.5999981201172,0|0,3:0|0:0,0:0:0:0:
255,190,123286,2,0,L|110:180,1,123.199996240234,8|0,0:0|0:0,0:0:0:0:
48,211,123678,1,0,0:0:0:0:
48,211,123809,6,0,P|43:255|64:297,1,61.5999981201172,2|0,0:0|0:0,0:0:0:0:
87,348,124071,1,0,0:0:0:0:
68,123,124332,1,8,0:0:0:0:
87,327,124594,1,0,0:0:0:0:
87,146,124855,5,2,0:0:0:0:
104,305,125117,1,0,0:0:0:0:
116,160,125378,1,8,0:0:0:0:
127,285,125640,1,0,0:0:0:0:
192,31,125901,6,0,B|155:120|228:120|192:209,1,184.799994360352,2|0,3:0|0:0,0:0:0:0:
41,224,126424,2,0,P|60:166|127:166,1,123.199996240234,2|0,3:0|0:0,0:0:0:0:
256,304,126947,5,2,0:0:0:0:
256,304,127209,1,0,0:0:0:0:
414,245,127470,2,0,B|430:121|430:121|378:181,1,176,0|2,0:0|0:0,0:0:0:0:
396,159,128516,6,0,P|355:174|311:173,1,88,0|0,0:0|0:0,0:0:0:0:
208,148,128909,1,0,0:0:0:0:
208,148,129039,2,0,P|164:146|123:162,1,88,2|0,0:0|0:0,0:0:0:0:
123,162,129432,2,0,L|128:260,1,88,0|0,0:0|0:0,0:0:0:0:
173,319,129824,2,0,P|154:331|133:336,1,44
133,335,130085,6,0,L|230:330,1,88,2|0,0:0|0:0,0:0:0:0:
260,320,130478,1,0,0:0:0:0:
292,330,130608,2,0,L|380:335,1,88
456,296,131001,1,0,0:0:0:0:
456,296,131131,6,0,P|471:255|465:212,1,88,2|0,0:0|0:0,0:0:0:0:
342,143,131654,2,0,B|218:127|218:127|256:160,1,176,0|2,0:0|0:0,0:0:0:0:
256,160,132700,6,0,P|236:205|202:230,1,88
130,226,133093,1,0,0:0:0:0:
47,218,133223,6,0,P|94:210|134:229,1,88,2|0,0:0|0:0,0:0:0:0:
204,371,133616,2,0,P|174:332|170:289,1,88,0|0,0:0|0:0,0:0:0:0:
256,204,134008,2,0,L|256:160,1,44
343,294,134269,6,0,P|337:338|310:372,1,88,2|0,0:0|0:0,0:0:0:0:
382,226,134662,2,0,P|423:210|466:217,1,88
465,216,135054,1,0,0:0:0:0:
465,216,135185,1,0,0:0:0:0:
475,227,135316,6,0,L|483:103,1,88,4|0,0:1|0:0,0:0:0:0:
256,36,135839,2,0,L|200:64,2,44,8|0|0,0:0|0:0|0:0,0:0:0:0:
145,81,136362,2,0,L|125:141,2,44,2|0|0,0:0|0:0|0:0,0:0:0:0:
100,192,136885,1,8,0:0:0:0:
105,203,137015,1,0,0:0:0:0:
111,215,137146,1,0,0:0:0:0:
117,227,137277,1,0,0:0:0:0:
182,273,137408,6,0,P|149:302|106:306,1,88,2|0,0:0|0:0,0:0:0:0:
119,231,137800,2,0,P|151:201|194:197,1,88,2|0,3:0|0:0,0:0:0:0:
256,324,138192,1,4,3:0:0:0:
317,197,138454,6,0,P|360:201|393:231,1,88,4|0,3:0|0:0,0:0:0:0:
405,306,138846,2,0,P|362:302|330:273,1,88,8|0,3:0|0:0,0:0:0:0:
330,273,139238,1,4,3:0:0:0:
330,273,139369,1,0,0:0:0:0:
330,273,139500,5,4,0:1:0:0:
337,118,139761,1,0,0:0:0:0:
182,111,140023,1,8,0:0:0:0:
182,111,140153,1,0,0:0:0:0:
182,111,140284,1,0,0:0:0:0:
175,266,140546,1,2,0:0:0:0:
337,118,140807,6,0,L|385:114,1,44,0|0,3:0|3:0,0:0:0:0:
432,227,141069,2,0,P|429:270|404:306,1,88,8|0,0:0|0:0,0:0:0:0:
404,306,141461,1,0,0:0:0:0:
404,306,141592,6,0,L|304:316,1,88,2|0,0:0|0:0,0:0:0:0:
194,314,141984,2,0,L|107:306,1,88,2|0,3:0|0:0,0:0:0:0:
68,192,142376,1,4,3:0:0:0:
49,262,142507,1,0,0:0:0:0:
107,306,142638,6,0,L|194:314,1,88,2|0,1:3|0:0,0:0:0:0:
317,314,143030,2,0,L|404:306,1,88,4|0,3:0|0:0,0:0:0:0:
444,192,143422,1,2,1:0:0:0:
444,192,143553,1,0,0:0:0:0:
444,192,143684,6,0,L|432:132,2,44,4|0|0,0:1|0:0|0:0,0:0:0:0:
336,84,144207,2,0,L|327:127,2,44,8|0|0,0:0|0:0|0:0,0:0:0:0:
317,314,144730,2,0,L|305:254,2,44,2|0|0,0:0|0:0|0:0,0:0:0:0:
209,206,145253,2,0,L|200:249,2,44,8|0|0,0:0|0:0|0:0,0:0:0:0:
77,148,145776,5,2,0:0:0:0:
65,150,145907,1,0,0:0:0:0:
54,151,146037,1,0,0:0:0:0:
176,72,146299,1,8,0:0:0:0:
164,70,146430,1,0,0:0:0:0:
153,69,146560,1,0,0:0:0:0:
308,270,146822,6,0,P|348:284|391:275,1,88,2|0,0:0|0:0,0:0:0:0:
350,199,147214,1,0,0:0:0:0:
349,199,147345,2,0,P|287:186|236:226,1,132,8|0,0:0|0:0,0:0:0:0:
168,312,147868,6,0,L|116:316,2,44,4|0|0,0:1|0:0|0:0,0:0:0:0:
44,192,148391,2,0,L|-8:188,2,44,8|0|0,0:0|0:0|0:0,0:0:0:0:
236,226,148914,2,0,L|184:230,2,44,2|0|0,0:0|0:0|0:0,0:0:0:0:
112,106,149437,2,0,L|60:102,2,44,8|0|0,0:0|0:0|0:0,0:0:0:0:
256,48,149960,5,2,0:0:0:0:
276,56,150091,1,0,0:0:0:0:
296,64,150221,1,0,0:0:0:0:
444,102,150483,1,8,0:0:0:0:
424,110,150614,1,0,0:0:0:0:
404,118,150744,1,0,0:0:0:0:
308,270,151006,5,2,0:0:0:0:
256,48,151267,1,0,0:0:0:0:
33,100,151529,1,8,0:0:0:0:
86,323,151790,1,0,0:0:0:0:
310,195,152052,6,0,P|332:198|352:208,2,44,4|0|0,0:1|0:0|0:0,0:0:0:0:
300,352,152575,2,0,P|278:348|258:339,2,44,8|0|0,0:0|0:0|0:0,0:0:0:0:
248,144,153098,2,0,P|265:130|286:123,2,44,2|0|0,0:0|0:0|0:0,0:0:0:0:
412,272,153621,2,0,P|394:285|373:292,2,44,8|0|0,0:0|0:0|0:0,0:0:0:0:
254,339,154144,5,2,0:0:0:0:
235,335,154275,1,0,0:0:0:0:
215,332,154405,1,0,0:0:0:0:
100,272,154667,1,8,0:0:0:0:
120,269,154798,1,0,0:0:0:0:
139,265,154928,1,0,0:0:0:0:
286,122,155190,6,0,P|301:82|294:39,1,88,2|0,0:0|0:0,0:0:0:0:
220,74,155582,1,0,0:0:0:0:
220,74,155713,2,0,L|88:63,1,132,8|0,0:0|0:0,0:0:0:0:
28,128,156236,6,0,P|24:152|36:192,2,44,4|0|0,0:1|0:0|0:0,0:0:0:0:
140,264,156759,2,0,P|139:288|121:325,2,44,8|0|0,0:0|0:0|0:0,0:0:0:0:
280,168,157282,2,0,P|276:192|288:232,2,44,2|0|0,0:0|0:0|0:0,0:0:0:0:
392,304,157805,2,0,P|391:328|373:365,2,44,8|0|0,0:0|0:0|0:0,0:0:0:0:
452,104,158328,5,2,0:0:0:0:
448,88,158459,1,0,0:0:0:0:
444,72,158590,1,0,0:0:0:0:
288,136,158851,1,8,0:0:0:0:
284,152,158982,1,0,0:0:0:0:
280,168,159113,1,0,0:0:0:0:
68,72,159374,5,2,0:0:0:0:
280,168,159636,1,0,0:0:0:0:
91,304,159897,2,0,P|142:342|206:333,1,132,8|0,0:0|0:0,0:0:0:0:
267,283,160420,5,4,0:1:0:0:
267,283,160550,1,0,0:0:0:0:
267,283,160681,1,0,0:0:0:0:
287,153,160943,2,0,L|345:146,1,44,8|0,0:0|0:0,0:0:0:0:
407,194,161204,1,0,0:0:0:0:
177,248,161466,1,2,0:0:0:0:
177,248,161596,1,0,0:0:0:0:
177,248,161727,1,0,0:0:0:0:
285,59,161989,2,0,L|343:52,1,44,8|0,0:0|0:0,0:0:0:0:
405,100,162250,1,0,0:0:0:0:
135,150,162512,5,2,0:0:0:0:
135,150,162642,1,0,0:0:0:0:
135,150,162773,1,0,0:0:0:0:
317,216,163035,2,0,L|341:270,1,44,8|0,0:0|0:0,0:0:0:0:
312,342,163296,5,0,0:0:0:0:
224,117,163558,1,2,0:0:0:0:
356,348,163820,1,0,3:0:0:0:
267,123,164081,2,0,P|303:68|365:51,1,132,8|0,0:0|0:0,0:0:0:0:
451,77,164604,5,4,0:1:0:0:
451,77,164734,1,0,0:0:0:0:
451,77,164865,1,0,0:0:0:0:
475,257,165127,2,0,L|478:319,1,44,8|0,0:0|0:0,0:0:0:0:
424,372,165388,1,0,0:0:0:0:
512,162,165650,1,2,0:0:0:0:
512,162,165780,1,0,0:0:0:0:
512,162,165911,1,0,0:0:0:0:
360,279,166173,2,0,L|337:337,1,44,8|0,0:0|0:0,0:0:0:0:
266,362,166434,1,0,0:0:0:0:
408,173,166696,5,2,0:0:0:0:
408,173,166826,1,0,0:0:0:0:
408,173,166957,1,0,0:0:0:0:
275,79,167219,2,0,L|199:86,1,44,8|0,0:0|0:0,0:0:0:0:
150,51,167480,5,0,0:0:0:0:
159,267,167742,1,2,0:0:0:0:
31,30,168004,1,0,3:0:0:0:
38,300,168265,2,0,B|145:286|145:286|159:266,1,132,8|0,0:0|0:0,0:0:0:0:
109,189,168788,5,4,0:1:0:0:
109,189,168919,1,0,0:0:0:0:
109,189,169050,1,0,0:0:0:0:
282,253,169311,2,0,L|325:258,1,44,8|0,0:0|0:0,0:0:0:0:
395,313,169572,1,0,0:0:0:0:
210,328,169834,1,2,0:0:0:0:
210,328,169964,1,0,0:0:0:0:
210,328,170095,1,0,0:0:0:0:
366,185,170357,2,0,L|409:180,1,44,8|0,0:0|0:0,0:0:0:0:
479,237,170618,1,0,0:0:0:0:
256,64,170880,6,0,L|213:59,1,44,2|0,0:0|3:0,0:0:0:0:
143,116,171141,1,2,3:0:0:0:
384,192,171403,2,0,L|389:235,1,44,0|0,0:0|3:0,0:0:0:0:
332,305,171664,5,0,0:0:0:0:
356,83,171926,1,2,0:0:0:0:
307,325,172188,1,0,3:0:0:0:
331,63,172449,1,8,0:0:0:0:
256,192,172972,12,8,176634,0:0:0:0:
189,192,177157,6,0,P|152:221|106:228,1,88,2|0,0:0|0:0,0:0:0:0:
234,130,177549,1,0,0:0:0:0:
234,130,177680,6,0,P|196:104|174:63,1,88,8|0,0:0|0:0,0:0:0:0:
306,153,178072,1,0,0:0:0:0:
306,153,178203,6,0,P|319:108|352:76,1,88,2|0,0:0|0:0,0:0:0:0:
306,230,178595,1,0,0:0:0:0:
306,230,178726,6,0,P|354:228|395:249,1,88,8|0,0:0|0:0,0:0:0:0:
234,252,179118,1,0,0:0:0:0:
