osu file format v14

[General]
AudioFilename: audio.mp3
AudioLeadIn: 0
PreviewTime: 92042
Countdown: 0
SampleSet: Soft
StackLeniency: 0.7
Mode: 0
LetterboxInBreaks: 0
WidescreenStoryboard: 1

[Editor]
Bookmarks: 9746,13930,18114,22298,26482,28574,30666,32758,34850,36942,39034,41126,43218,45310,47402,49494,51587,53679,55771,57863,59955,62047,64139,66231,68323,70415,72507,74599,76691,78783,80875,82967,85059,87151,89243,91335,93428,95520,97612,99704,101796,103888,105980,108072,110164,112256,114348,116440,118532,120624,122716,124808,126900,135269,139453,143637,147821,152005,156189,160373,162465,164557,166649,168741,170833,172925,175017,177110
DistanceSpacing: 1.1
BeatDivisor: 2
GridSize: 4
TimelineZoom: 1.3

[Metadata]
Title:The Way I Are feat Keri Hilson & D.O.E.
TitleUnicode:The Way I Are feat Keri Hilson & D.O.E.
Artist:Timbaland
ArtistUnicode:Timbaland
Creator:Irreversible
Version:Space's Normal
Source:
Tags:shock value featuring voli -space- baby it's alright now you ain't gotta flaunt for me exotic holidays sad story only inside matters team dissie
BeatmapID:1410104
BeatmapSetID:666253

[Difficulty]
HPDrainRate:3
CircleSize:2.5
OverallDifficulty:2
ApproachRate:3
SliderMultiplier:0.899999999999999
SliderTickRate:1

[Events]
//Background and Video events
0,0,"Free-desktop-wallpaper-of-Bench-City-scapes.jpg",0,0
//Break Periods
2,127147,133876
//Storyboard Layer 0 (Background)
//Storyboard Layer 1 (Fail)
//Storyboard Layer 2 (Pass)
//Storyboard Layer 3 (Foreground)
//Storyboard Sound Samples

[TimingPoints]
9793,523.012552301255,4,2,1,40,1,0
26529,-100,4,2,1,50,0,0
35943,-100,4,2,1,30,0,0
36989,-100,4,2,1,50,0,0
43265,-100,4,2,1,60,0,1
60002,-90.9090909090909,4,2,1,70,0,1
76738,-100,4,2,1,50,0,0
93475,-100,4,2,1,60,0,1
110211,-90.9090909090909,4,2,1,70,0,1
126947,-100,4,2,1,40,0,0
143684,-111.111111111111,4,2,1,30,0,0

[Colours]
Combo1 : 63,158,130
Combo2 : 192,192,192
Combo3 : 0,84,187

[HitObjects]
60,232,9793,5,4,0:0:0:0:
124,156,10316,2,0,L|220:164,1,89.9999999999999,8|0,0:0|0:0,0:0:0:0:
264,160,11100,1,0,0:0:0:0:
312,176,11362,2,0,P|302:219|308:268,1,89.9999999999999,8|0,0:0|0:0,0:0:0:0:
228,324,12408,2,0,L|132:316,1,89.9999999999999,8|0,0:0|0:0,0:0:0:0:
101,280,13192,1,0,0:0:0:0:
64,243,13454,1,8,0:0:0:0:
36,148,13977,5,4,0:0:0:0:
100,72,14500,2,0,P|160:48|212:56,1,89.9999999999999,8|0,0:0|0:0,0:0:0:0:
228,72,15284,1,0,0:0:0:0:
268,100,15546,2,0,P|312:96|352:76,1,89.9999999999999,8|0,0:0|0:0,0:0:0:0:
416,152,16592,2,0,P|388:187|378:230,1,89.9999999999999,8|0,0:0|0:0,0:0:0:0:
363,277,17376,1,0,0:0:0:0:
327,312,17638,1,8,0:0:0:0:
228,312,18161,5,4,0:0:0:0:
157,241,18684,2,0,L|132:154,1,89.9999999999999,8|0,0:0|0:0,0:0:0:0:
33,154,19730,2,0,L|58:241,1,89.9999999999999,8|0,0:0|0:0,0:0:0:0:
86,335,20776,2,0,P|154:339|206:335,1,89.9999999999999,8|0,0:0|0:0,0:0:0:0:
268,308,21822,1,8,0:0:0:0:
336,236,22345,6,0,L|320:128,1,89.9999999999999,4|8,0:0|0:0,0:0:0:0:
236,100,23391,1,0,0:0:0:0:
140,120,23914,1,8,0:0:0:0:
60,176,24437,2,0,P|64:224|76:264,1,89.9999999999999,0|8,0:0|0:0,0:0:0:0:
164,308,25483,1,0,0:0:0:0:
260,336,26006,1,8,0:0:0:0:
344,284,26529,6,0,L|456:272,1,89.9999999999999,4|8,0:0|0:0,0:0:0:0:
452,176,27575,2,0,P|412:104|292:92,1,180,2|4,0:0|0:0,0:0:0:0:
284,112,28882,1,0,0:0:0:0:
244,140,29144,2,0,L|136:128,1,89.9999999999999,8|2,0:0|0:0,0:0:0:0:
76,192,30190,1,8,0:0:0:0:
36,280,30713,6,0,B|80:304|128:276|128:276|176:248|224:272,1,180,4|2,0:0|0:0,0:0:0:0:
292,316,32282,1,8,0:0:0:0:
372,256,32805,2,0,L|364:140,1,89.9999999999999,4|8,0:0|0:0,0:0:0:0:
288,104,33851,1,2,0:0:0:0:
244,79,34113,1,0,0:0:0:0:
194,79,34374,1,8,0:0:0:0:
105,123,34897,6,0,B|77:207|77:207|112:316,1,180,4|2,0:0|0:0,0:0:0:0:
182,365,36466,1,8,0:0:0:0:
284,332,36989,2,0,P|300:276|288:228,1,89.9999999999999,4|8,0:0|0:0,0:0:0:0:
215,189,38035,2,0,P|199:245|211:293,1,89.9999999999999,2|8,0:0|0:0,0:0:0:0:
295,245,39081,5,4,0:0:0:0:
312,148,39604,1,8,0:0:0:0:
224,104,40127,2,0,P|173:118|136:172,1,89.9999999999999,2|8,0:0|0:0,0:0:0:0:
120,240,41173,2,0,L|128:340,1,89.9999999999999,4|8,0:0|0:0,0:0:0:0:
168,360,41958,1,4,3:0:0:0:
220,364,42219,2,0,B|284:356|284:356|312:312|312:312|388:304,1,180,2|4,0:0|0:0,0:0:0:0:
384,208,43788,6,0,L|272:216,1,89.9999999999999,8|2,0:0|0:0,0:0:0:0:
247,230,44573,1,0,0:0:0:0:
200,244,44834,1,8,0:0:0:0:
144,164,45357,2,0,P|140:108|248:36,2,180,4|2|4,0:0|0:0|0:0,0:0:0:0:
108,256,47972,5,8,0:0:0:0:
180,324,48495,2,0,L|288:324,1,89.9999999999999,2|8,0:0|0:0,0:0:0:0:
316,304,49280,1,0,0:0:0:0:
356,272,49541,2,0,P|344:208|368:76,2,180,4|2|4,0:0|0:0|0:0,0:0:0:0:
270,324,52157,5,8,0:0:0:0:
188,272,52680,2,0,L|96:216,1,89.9999999999999,2|8,0:0|0:0,0:0:0:0:
76,188,53464,1,0,0:0:0:0:
64,136,53726,2,0,B|108:116|152:136|152:136|160:84|224:68,2,180,4|2|4,0:0|0:0|0:0,0:0:0:0:
108,226,56341,5,8,0:0:0:0:
156,312,56864,2,0,L|272:332,1,89.9999999999999,2|8,0:0|0:0,0:0:0:0:
296,324,57648,1,0,0:0:0:0:
340,300,57910,2,0,B|372:264|372:264|416:260|416:260|464:228|456:144,1,180,4|2,0:0|0:0,0:0:0:0:
416,96,59479,1,8,0:0:0:0:
324,40,60002,6,0,L|208:36,1,99.0000030212402,4|8,0:0|0:0,0:0:0:0:
188,76,60786,1,0,0:0:0:0:
160,124,61048,2,0,L|276:128,1,99.0000030212402,2|8,0:0|0:0,0:0:0:0:
312,224,62094,2,0,L|100:216,1,198.00000604248,4|2,0:0|0:0,0:0:0:0:
60,120,63663,1,8,0:0:0:0:
144,48,64186,6,0,P|208:40|260:60,1,99.0000030212402,4|8,0:0|0:0,0:0:0:0:
276,89,64970,1,0,0:0:0:0:
312,132,65232,2,0,P|360:142|408:133,1,99.0000030212402,2|8,0:0|0:0,0:0:0:0:
360,36,66278,2,0,L|356:252,1,198.00000604248,4|2,0:0|0:0,0:0:0:0:
256,280,67847,1,8,0:0:0:0:
168,212,68370,6,0,P|144:148|152:92,1,99.0000030212402,4|8,0:0|0:0,0:0:0:0:
192,88,69154,1,0,0:0:0:0:
248,84,69416,2,0,P|272:148|264:204,1,99.0000030212402,2|8,0:0|0:0,0:0:0:0:
256,284,70462,2,0,P|336:260|372:156,1,198.00000604248,4|2,0:0|0:0,0:0:0:0:
356,52,72031,1,8,0:0:0:0:
248,36,72554,6,0,B|200:32|200:32|132:56,1,99.0000030212402,4|8,0:0|0:0,0:0:0:0:
120,96,73339,1,0,0:0:0:0:
124,152,73600,2,0,B|172:156|172:156|240:132,1,99.0000030212402,2|8,0:0|0:0,0:0:0:0:
260,240,74646,2,0,B|168:272|168:272|92:352,1,198.00000604248,4|2,0:0|0:0,0:0:0:0:
16,272,76215,1,8,0:0:0:0:
28,164,76738,5,4,0:0:0:0:
212,92,77784,2,0,L|312:100,1,89.9999999999999,2|8,0:0|0:0,0:0:0:0:
400,116,78830,2,0,P|428:176|336:168,1,180,4|2,0:0|0:0,0:0:0:0:
308,148,80138,1,0,0:0:0:0:
301,99,80399,1,8,0:0:0:0:
212,56,80922,6,0,P|148:56|104:76,1,89.9999999999999,4|8,0:0|0:0,0:0:0:0:
52,132,81968,1,2,0:0:0:0:
72,228,82491,1,8,0:0:0:0:
108,320,83014,2,0,P|172:328|304:312,1,180,4|2,0:0|0:0,0:0:0:0:
332,304,84322,1,0,0:0:0:0:
380,284,84583,1,8,0:0:0:0:
448,212,85106,6,0,L|464:116,1,89.9999999999999,4|8,0:0|0:0,0:0:0:0:
380,68,86152,1,0,0:0:0:0:
280,84,86675,1,8,0:0:0:0:
224,164,87198,2,0,B|216:208|244:248|244:248|192:276|188:340,1,180,4|2,0:0|0:0,0:0:0:0:
233,344,88506,1,0,0:0:0:0:
288,340,88767,1,8,0:0:0:0:
384,320,89290,6,0,L|392:224,1,89.9999999999999,4|8,0:0|0:0,0:0:0:0:
396,181,90075,1,0,0:0:0:0:
392,132,90336,2,0,L|384:42,1,89.9999999999999,2|8,0:0|0:0,0:0:0:0:
284,44,91382,2,0,B|240:68|196:48|196:48|152:28|108:56,1,180,4|2,0:0|0:0,0:0:0:0:
73,89,92690,1,4,3:0:0:0:
64,140,92951,1,8,0:0:0:0:
128,216,93475,6,0,L|224:212,1,89.9999999999999,4|8,0:0|0:0,0:0:0:0:
264,191,94259,1,0,0:0:0:0:
296,152,94521,1,2,0:0:0:0:
380,204,95044,1,8,0:0:0:0:
380,104,95567,2,0,P|332:64|208:112,2,180,4|2|4,0:0|0:0|0:0,0:0:0:0:
296,152,98182,5,8,0:0:0:0:
208,196,98705,2,0,P|152:176|124:128,1,89.9999999999999,2|8,0:0|0:0,0:0:0:0:
84,166,99489,1,0,0:0:0:0:
52,208,99751,2,0,P|108:264|220:292,2,180,4|2|4,0:0|0:0|0:0,0:0:0:0:
44,108,102366,5,8,0:0:0:0:
120,48,102889,2,0,L|216:52,1,89.9999999999999,2|8,0:0|0:0,0:0:0:0:
260,68,103673,1,0,0:0:0:0:
292,108,103935,2,0,B|312:152|312:152|300:192|300:192|316:232|316:232|300:280,2,180,4|2|4,0:0|0:0|0:0,0:0:0:0:
210,51,106550,5,8,0:0:0:0:
124,100,107073,2,0,P|116:156|128:196,1,89.9999999999999,2|8,0:0|0:0,0:0:0:0:
196,256,108119,2,0,B|244:272|280:240|280:240|320:204|368:220,1,180,4|2,0:0|0:0,0:0:0:0:
436,288,109688,1,8,0:0:0:0:
468,184,110211,6,0,P|424:124|384:112,1,99.0000030212402,4|8,0:0|0:0,0:0:0:0:
348,108,110995,1,0,0:0:0:0:
296,124,111257,2,0,L|168:104,1,99.0000030212402,2|8,0:0|0:0,0:0:0:0:
92,132,112303,2,0,P|60:176|164:176,1,198.00000604248,4|2,0:0|0:0,0:0:0:0:
198,108,113872,1,8,0:0:0:0:
288,168,114395,6,0,P|292:232|272:272,1,99.0000030212402,4|8,0:0|0:0,0:0:0:0:
332,280,115180,1,0,0:0:0:0:
388,276,115441,2,0,P|384:212|404:172,1,99.0000030212402,2|8,0:0|0:0,0:0:0:0:
336,92,116487,2,0,P|264:80|196:180,1,198.00000604248,4|2,0:0|0:0,0:0:0:0:
244,268,118056,1,8,0:0:0:0:
136,264,118579,6,0,P|96:208|96:140,1,99.0000030212402,4|8,0:0|0:0,0:0:0:0:
84,124,119364,1,0,0:0:0:0:
100,72,119625,2,0,P|156:32|224:32,1,99.0000030212402,2|8,0:0|0:0,0:0:0:0:
281,77,120671,2,0,P|281:161|232:288,1,198.00000604248,4|2,0:0|0:0,0:0:0:0:
136,264,122240,1,8,0:0:0:0:
88,168,122763,6,0,L|168:88,1,99.0000030212402,4|8,0:0|0:0,0:0:0:0:
252,156,123809,2,0,L|332:76,1,99.0000030212402,2|8,0:0|0:0,0:0:0:0:
420,132,124855,2,0,L|268:292,1,198.00000604248,4|2,0:0|0:0,0:0:0:0:
180,244,126424,1,8,0:0:0:0:
140,144,126947,5,4,0:0:0:0:
92,92,135316,6,0,L|72:184,1,89.9999999999999,4|8,0:0|0:0,0:0:0:0:
128,264,136362,2,0,P|172:284|220:272,1,89.9999999999999,0|8,0:0|0:0,0:0:0:0:
300,232,137408,1,0,0:0:0:0:
324,136,137931,1,8,0:0:0:0:
260,64,138454,2,0,L|156:52,1,89.9999999999999,0|8,0:0|0:0,0:0:0:0:
80,96,139500,6,0,L|68:200,1,89.9999999999999,4|8,0:0|0:0,0:0:0:0:
116,272,140546,1,0,0:0:0:0:
212,256,141069,1,8,0:0:0:0:
296,312,141592,2,0,P|372:324|416:320,1,89.9999999999999,0|8,0:0|0:0,0:0:0:0:
448,248,142638,1,2,0:0:0:0:
428,152,143161,1,8,0:0:0:0:
340,112,143684,6,0,B|296:104|260:124|260:124|224:148|168:156|116:128|124:56|164:24|212:40|224:96,1,323.999990112305,4|0,0:0|0:0,0:0:0:0:
256,260,146822,1,2,0:0:0:0:
76,260,147868,6,0,B|32:196|32:196|56:68|56:68|120:176,1,323.999990112305,4|0,0:0|0:0,0:0:0:0:
140,344,151006,1,2,0:0:0:0:
308,288,152052,6,0,P|356:176|204:196,1,323.999990112305,4|0,0:0|0:0,0:0:0:0:
140,344,155190,1,2,0:0:0:0:
84,176,156236,6,0,L|416:36,1,323.999990112305,4|0,0:0|0:0,0:0:0:0:
272,192,159374,1,2,0:0:0:0:
164,336,160420,6,0,L|328:264,1,161.999995056152,4|2,0:0|0:0,0:0:0:0:
348,240,161728,1,0,0:0:0:0:
360,196,161989,1,8,0:0:0:0:
344,108,162512,2,0,P|300:76|192:120,1,161.999995056152,4|2,0:0|0:0,0:0:0:0:
184,144,163820,1,0,0:0:0:0:
180,188,164081,1,8,0:0:0:0:
160,276,164604,6,0,B|148:320|148:320|276:300,1,161.999995056152,4|2,0:0|0:0,0:0:0:0:
308,298,165912,1,0,0:0:0:0:
352,288,166173,1,8,0:0:0:0:
412,220,166696,2,0,P|408:136|368:56,1,161.999995056152,4|2,0:0|0:0,0:0:0:0:
340,36,168004,1,0,0:0:0:0:
292,36,168265,1,0,0:0:0:0:
228,100,168788,6,0,B|188:120|148:96|148:96|112:72|64:92,1,161.999995056152,4|2,0:0|0:0,0:0:0:0:
38,120,170096,1,0,0:0:0:0:
28,164,170357,1,8,0:0:0:0:
40,252,170880,2,0,P|92:276|208:268,1,161.999995056152,4|2,0:0|0:0,0:0:0:0:
232,249,172188,1,0,0:0:0:0:
264,216,172449,1,0,0:0:0:0:
336,268,172972,6,0,P|352:224|280:128,1,161.999995056152,4|2,0:0|0:0,0:0:0:0:
250,124,174280,1,0,0:0:0:0:
208,144,174541,1,8,0:0:0:0:
144,204,175064,2,0,B|32:232|32:232|80:256,1,161.999995056152,4|2,0:0|0:0,0:0:0:0:
148,300,176634,1,8,0:0:0:0:
236,284,177157,5,4,0:0:0:0:
