osu file format v14

[General]
AudioFilename: audio.mp3
AudioLeadIn: 0
PreviewTime: 92042
Countdown: 0
SampleSet: Soft
StackLeniency: 0.7
Mode: 0
LetterboxInBreaks: 0
WidescreenStoryboard: 1

[Editor]
Bookmarks: 9758,22036,26494,40865,43230,59967,76703,93440,110176,126912,143649,160385
DistanceSpacing: 1.5
BeatDivisor: 12
GridSize: 4
TimelineZoom: 1.3

[Metadata]
Title:The Way I Are feat Keri Hilson & D.O.E.
TitleUnicode:The Way I Are feat Keri Hilson & D.O.E.
Artist:Timbaland
ArtistUnicode:Timbaland
Creator:Irreversible
Version:Irroli's Hard
Source:
Tags:shock value featuring voli -space- baby it's alright now you ain't gotta flaunt for me exotic holidays sad story only inside matters team dissie
BeatmapID:1410105
BeatmapSetID:666253

[Difficulty]
HPDrainRate:4.5
CircleSize:3.5
OverallDifficulty:5
ApproachRate:6
SliderMultiplier:1.4
SliderTickRate:1

[Events]
//Background and Video events
0,0,"Free-desktop-wallpaper-of-Bench-City-scapes.jpg",0,0
//Break Periods
//Storyboard Layer 0 (Background)
//Storyboard Layer 1 (Fail)
//Storyboard Layer 2 (Pass)
//Storyboard Layer 3 (Foreground)
//Storyboard Sound Samples

[TimingPoints]
9793,523.012552301255,4,2,1,40,1,0
26529,-100,4,2,2,60,0,0
35420,-100,4,2,2,47,0,0
35943,-100,4,2,2,30,0,0
36466,-100,4,2,2,47,0,0
36989,-100,4,2,2,60,0,0
41958,-100,4,2,2,80,0,0
43265,-86.9565217391304,4,2,1,70,0,1
75823,-100,4,2,1,60,0,0
76738,-100,4,2,2,60,0,0
92167,-100,4,2,2,80,0,0
92951,-86.9565217391304,4,2,1,60,0,0
93475,-133.333333333333,4,2,1,70,0,1
93867,-133.333333333333,4,2,1,5,0,1
93998,-86.9565217391304,4,2,1,70,0,1
126947,-100,4,2,1,60,0,0
143684,-100,4,2,1,50,0,0

[Colours]
Combo1 : 63,158,130
Combo2 : 192,192,192
Combo3 : 0,84,187

[HitObjects]
168,136,9793,6,0,L|256:124,1,70,4|0,0:1|0:0,0:0:0:0:
312,75,10316,1,8,0:0:0:0:
312,75,10577,2,0,L|381:84,2,70,0|2|0,0:0|0:0|0:0,0:0:0:0:
314,166,11362,2,0,P|311:200|320:234,1,70,8|0,0:0|0:0,0:0:0:0:
363,314,11885,6,0,P|329:323|294:320,1,70,2|0,0:0|0:0,0:0:0:0:
221,265,12408,1,8,0:0:0:0:
221,265,12669,2,0,L|152:274,2,70,0|2|2,0:0|0:0|3:0,0:0:0:0:
182,182,13454,2,0,L|113:173,1,70,8|2,0:0|3:0,0:0:0:0:
60,98,13977,6,0,B|100:84|100:84|120:65,1,70,4|0,0:1|0:0,0:0:0:0:
207,36,14500,1,8,0:0:0:0:
207,36,14761,2,0,P|240:43|274:36,2,70,0|2|0,0:0|0:0|0:0,0:0:0:0:
120,64,15546,2,0,B|134:104|134:104|153:124,1,70,8|0,0:0|0:0,0:0:0:0:
227,176,16069,6,0,B|213:216|213:216|194:236,1,70,2|0,0:0|0:0,0:0:0:0:
114,280,16592,1,8,0:0:0:0:
114,280,16853,2,0,P|107:314|112:348,2,70,0|2|8,0:0|0:0|3:0,0:0:0:0:
198,314,17638,2,0,P|232:319|266:312,1,70,8|8,0:0|3:0,0:0:0:0:
335,253,18161,6,0,L|344:184,1,70,4|0,0:1|0:0,0:0:0:0:
285,114,18684,1,8,0:0:0:0:
285,114,18945,2,0,L|276:45,2,70,0|2|0,0:0|0:0|0:0,0:0:0:0:
210,165,19730,2,0,P|177:177|142:174,1,70,8|0,0:0|0:0,0:0:0:0:
63,128,20253,6,0,L|25:122,2,35,2|0|2,0:0|3:0|3:0,0:0:0:0:
42,216,20776,2,0,P|30:248|32:283,1,70,8|0,0:0|0:0,0:0:0:0:
120,263,21299,2,0,P|139:291|169:309,1,70,2|2,0:0|3:0,0:0:0:0:
259,293,21822,1,8,0:0:0:0:
259,293,22083,1,2,3:0:0:0:
313,220,22345,6,0,L|335:153,1,70,4|0,0:1|0:0,0:0:0:0:
302,68,22868,1,8,0:0:0:0:
302,68,23129,2,0,P|336:60|370:67,2,70,0|2|0,0:0|0:0|0:0,0:0:0:0:
233,128,23914,2,0,P|198:134|164:127,1,70,8|0,0:0|0:0,0:0:0:0:
80,93,24437,6,0,L|83:162,1,70,2|0,0:0|0:0,0:0:0:0:
133,238,24960,1,8,0:0:0:0:
133,238,25221,2,0,L|129:307,1,70,4|2,3:0|0:0,0:0:0:0:
212,344,25744,5,0,0:0:0:0:
283,287,26006,1,8,0:0:0:0:
354,344,26267,1,0,1:0:0:0:
428,284,26529,6,0,B|420:235|420:235|429:204|429:204|421:140,1,140,6|8,1:0|0:2,0:0:0:0:
367,74,27313,2,0,B|314:42|259:61|259:61|283:73,1,140,2|0,0:0|0:0,0:0:0:0:
301,162,28098,1,8,0:0:0:0:
319,250,28359,2,0,P|284:250|252:237,1,70,2|4,0:0|3:0,0:0:0:0:
185,175,28882,5,0,0:0:0:0:
168,264,29144,1,8,0:0:0:0:
78,246,29405,1,0,0:0:0:0:
95,157,29667,2,0,P|99:112|89:72,2,70,4|0|8,3:0|0:0|0:0,0:0:0:0:
78,246,30451,1,0,0:0:0:0:
127,322,30713,6,0,L|210:316,1,70,4|0,0:1|0:0,0:0:0:0:
254,246,31236,1,8,0:0:0:0:
340,280,31498,2,0,B|393:312|448:293|448:293|424:281,1,140,2|0,0:0|0:0,0:0:0:0:
406,192,32283,1,8,0:0:0:0:
340,104,32544,2,0,B|393:72|448:91|448:91|424:103,1,140,2|0,0:0|0:0,0:0:0:0:
406,192,33328,1,0,3:0:0:0:
256,296,33851,5,0,1:0:0:0:
188,234,34113,1,8,3:0:0:0:
120,296,34374,1,8,1:2:0:0:
52,234,34636,1,0,0:0:0:0:
119,171,34897,6,0,P|131:138|134:103,1,70,6|0,1:0|0:0,0:0:0:0:
224,112,35420,2,0,P|255:97|282:74,1,70,8|0,0:0|0:0,0:0:0:0:
336,148,35943,2,0,P|369:160|404:163,1,70,2|0,0:1|0:0,0:0:0:0:
491,137,36466,1,8,0:0:0:0:
466,224,36728,2,0,L|479:315,1,70,0|2,0:0|1:0,0:0:0:0:
396,340,37251,5,0,3:0:0:0:
325,283,37513,1,8,0:0:0:0:
254,340,37774,1,2,0:0:0:0:
183,283,38036,2,0,B|187:258|187:258|182:243|182:243|186:211,2,70,2|0|0,3:0|0:0|0:0,0:0:0:0:
254,340,38820,1,0,0:0:0:0:
325,283,39081,6,0,B|321:258|321:258|325:243|325:243|321:211,1,70,0|4,1:0|3:0,0:0:0:0:
256,151,39604,2,0,P|318:124|383:147,1,140,8|0,0:0|3:0,0:0:0:0:
321,214,40389,2,0,B|292:234|292:234|259:242,1,70,0|8,3:0|0:0,0:0:0:0:
240,331,40912,6,0,B|205:324|205:324|155:232,1,140,2|8,3:0|3:0,0:0:0:0:
115,151,41696,1,0,0:0:0:0:
115,151,41958,5,4,3:0:0:0:
179,86,42219,2,0,L|220:95,2,35,0|0|2,1:0|0:0|0:0,0:0:0:0:
107,29,42742,1,8,0:0:0:0:
375,125,43265,6,0,P|360:193|299:159,1,161.000003070831,4|8,1:1|0:0,0:0:0:0:
296,60,44050,1,0,0:0:0:0:
390,29,44311,2,0,P|427:42|455:71,1,80.5000015354157,2|0,0:0|0:0,0:0:0:0:
375,125,44834,2,0,P|392:160|391:200,1,80.5000015354157,8|0,0:0|0:0,0:0:0:0:
337,309,45357,6,0,L|257:296,1,80.5000015354157,2|0,0:0|0:0,0:0:0:0:
159,224,45880,2,0,L|238:211,1,80.5000015354157,8|0,0:0|0:0,0:0:0:0:
142,139,46403,2,0,P|81:185|81:263,1,161.000003070831,6|8,0:0|0:0,0:0:0:0:
171,344,47188,1,0,3:0:0:0:
171,344,47449,5,4,0:0:0:0:
392,247,47972,2,0,L|471:259,1,80.5000015354157,8|0,0:0|0:0,0:0:0:0:
396,164,48495,2,0,P|356:169|326:195,1,80.5000015354157,2|0,3:0|0:0,0:0:0:0:
216,245,49018,2,0,P|176:238|147:211,1,80.5000015354157,8|0,0:0|0:0,0:0:0:0:
133,170,49411,1,0,0:0:0:0:
133,170,49541,6,0,L|148:72,1,80.5000015354157,4|0,3:0|0:0,0:0:0:0:
232,7,50064,2,0,L|244:86,1,80.5000015354157,8|0,0:0|0:0,0:0:0:0:
323,177,50587,2,0,B|405:204|405:149|487:177,1,161.000003070831,2|8,0:0|0:0,0:0:0:0:
446,290,51372,1,0,1:0:0:0:
446,290,51634,6,0,P|457:305|377:319,1,161.000003070831,4|8,1:0|0:0,0:0:0:0:
356,208,52418,1,0,0:0:0:0:
256,277,52680,2,0,L|176:265,1,80.5000015354157,2|0,0:0|3:0,0:0:0:0:
74,200,53203,2,0,L|85:279,1,80.5000015354157,8|0,0:0|3:0,0:0:0:0:
158,183,53726,6,0,L|146:103,1,80.5000015354157,4|0,1:0|0:0,0:0:0:0:
248,168,54249,2,0,L|328:180,1,80.5000015354157,8|2,0:0|0:0,0:0:0:0:
425,251,54772,2,0,B|287:269|287:269|316:284,1,161.000003070831,2|8,0:0|0:0,0:0:0:0:
403,353,55556,1,4,3:0:0:0:
403,353,55818,5,4,0:1:0:0:
172,282,56341,1,8,0:0:0:0:
92,192,56602,1,0,0:0:0:0:
172,102,56864,1,2,0:0:0:0:
340,282,57387,1,8,0:0:0:0:
420,192,57648,1,0,0:0:0:0:
339,101,57910,6,0,P|300:104|264:122,1,80.5000015354157,2|0,0:0|0:0,0:0:0:0:
169,204,58433,2,0,P|129:205|91:191,1,80.5000015354157,8|0,0:0|0:0,0:0:0:0:
13,92,58956,2,0,B|29:83|29:83|101:80,1,80.5000015354157,2|0,3:0|0:0,0:0:0:0:
203,36,59479,2,0,B|227:49|227:49|335:54,1,120.750002303124,2|0,3:0|0:0,0:0:0:0:
349,106,60002,6,0,L|394:100,1,40.2500007677078,4|0,1:1|0:0,0:0:0:0:
422,50,60263,2,0,L|461:55,1,40.2500007677078,0|0,0:0|0:0,0:0:0:0:
500,102,60525,1,8,0:0:0:0:
453,213,60786,2,0,L|459:258,1,40.2500007677078,0|0,0:0|0:0,0:0:0:0:
404,281,61048,2,0,L|398:320,2,40.2500007677078,2|0|0,0:0|0:0|0:0,0:0:0:0:
323,190,61571,1,8,0:0:0:0:
291,306,61832,1,0,0:0:0:0:
215,211,62094,6,0,P|175:214|138:231,1,80.5000015354157,2|0,0:0|0:0,0:0:0:0:
120,112,62617,2,0,P|94:142|80:180,1,80.5000015354157,8|0,0:0|0:0,0:0:0:0:
206,93,63140,2,0,P|158:31|80:32,1,161.000003070831,2|8,0:0|0:0,0:0:0:0:
4,126,63924,1,0,0:0:0:0:
39,241,64186,6,0,P|34:260|35:280,1,40.2500007677078,4|0,0:0|0:0,0:0:0:0:
91,301,64447,2,0,P|101:318|116:331,1,40.2500007677078,0|0,0:0|0:0,0:0:0:0:
174,315,64709,1,8,0:0:0:0:
245,218,64970,2,0,P|249:198|248:178,1,40.2500007677078,0|0,0:0|0:0,0:0:0:0:
193,158,65231,2,0,P|182:140|167:127,2,40.2500007677078,2|0|0,3:0|0:0|0:0,0:0:0:0:
174,315,65755,1,8,0:0:0:0:
294,304,66016,1,0,0:0:0:0:
363,204,66278,6,0,L|353:118,1,80.5000015354157,4|0,3:0|0:0,0:0:0:0:
469,89,66801,2,0,L|459:3,1,80.5000015354157,8|0,0:0|0:0,0:0:0:0:
475,188,67324,2,0,B|459:308|459:308|432:342,1,161.000003070831,2|8,0:0|0:0,0:0:0:0:
350,252,68108,1,0,1:0:0:0:
259,331,68370,6,0,L|214:325,1,40.2500007677078,4|0,1:0|3:0,0:0:0:0:
186,275,68631,2,0,L|147:280,1,40.2500007677078,0|0,3:0|0:0,0:0:0:0:
108,327,68893,1,8,0:0:0:0:
51,220,69154,2,0,L|45:175,1,40.2500007677078,0|0,0:0|0:0,0:0:0:0:
97,147,69416,2,0,L|107:67,1,80.5000015354157,2|0,0:0|3:0,0:0:0:0:
213,8,69939,1,8,0:0:0:0:
229,127,70200,1,0,3:0:0:0:
345,93,70462,6,0,P|384:87|423:95,1,80.5000015354157,4|0,1:0|0:0,0:0:0:0:
355,195,70985,2,0,P|387:219|409:252,1,80.5000015354157,8|2,0:0|0:0,0:0:0:0:
272,312,71508,2,0,P|210:345|189:278,1,161.000003070831,2|8,0:0|0:0,0:0:0:0:
267,186,72292,1,4,3:0:0:0:
209,79,72554,6,0,P|189:74|169:76,1,40.2500007677078,4|0,0:1|3:0,0:0:0:0:
127,120,72816,2,0,P|110:131|97:146,1,40.2500007677078,0|0,3:0|0:0,0:0:0:0:
91,206,73077,1,8,0:0:0:0:
189,278,73339,2,0,P|208:282|228:280,1,40.2500007677078,0|0,0:0|0:0,0:0:0:0:
271,237,73601,2,0,P|287:225|300:210,2,40.2500007677078,0|0|0,0:0|0:0|0:0,0:0:0:0:
297,119,74123,1,8,0:0:0:0:
424,192,74385,1,0,0:0:0:0:
388,332,74646,6,0,L|304:328,1,80.5000015354157,2|0,0:0|0:0,0:0:0:0:
224,356,75169,2,0,L|304:352,1,80.5000015354157,8|0,0:0|0:0,0:0:0:0:
140,308,75692,1,2,3:0:0:0:
144,312,75954,2,0,P|112:326|77:326,2,70,0|2|0,0:0|3:0|0:0,0:0:0:0:
208,247,76738,6,0,L|200:151,1,70,6|0,1:0|0:0,0:0:0:0:
188,168,77261,1,8,0:2:0:0:
260,76,77523,6,0,B|324:80|324:80|337:88|337:88|397:91,3,140,2|0|2|0,0:0|3:0|0:0|3:0,0:0:0:0:
456,163,79353,6,0,P|467:195|463:230,1,70,8|0,0:0|0:0,0:0:0:0:
397,293,79876,1,4,3:0:0:0:
368,296,80138,1,0,0:0:0:0:
339,299,80399,2,0,L|262:304,1,70,8|0,0:0|0:0,0:0:0:0:
160,344,80922,1,4,0:1:0:0:
131,341,81184,1,0,0:0:0:0:
102,338,81445,1,8,0:0:0:0:
49,231,81707,6,0,B|46:171|46:171|38:158|38:158|34:94,3,140,2|0|2|0,0:0|3:0|0:0|3:0,0:0:0:0:
92,24,83537,1,8,0:0:0:0:
161,92,83799,5,0,0:0:0:0:
161,92,83930,1,0,0:0:0:0:
161,92,84060,2,0,P|196:99|231:100,1,70,0|8,1:0|3:0,0:0:0:0:
256,100,84453,1,0,0:0:0:0:
280,100,84583,2,0,P|315:99|350:92,1,70,8|0,1:2|0:0,0:0:0:0:
420,24,85106,6,0,B|436:32|436:32|448:82,1,70,6|0,1:0|0:0,0:0:0:0:
490,189,85629,2,0,B|496:206|496:206|469:250,1,70,8|0,0:0|0:0,0:0:0:0:
436,324,86152,2,0,B|428:340|428:340|377:352,1,70,2|0,0:1|0:0,0:0:0:0:
329,368,86675,2,0,B|312:373|312:373|267:346,1,70,8|0,0:0|0:0,0:0:0:0:
176,356,87198,1,2,1:0:0:0:
43,250,87460,5,0,3:0:0:0:
76,165,87721,1,8,0:0:0:0:
134,237,87983,1,2,0:0:0:0:
43,250,88244,1,2,3:0:0:0:
168,152,88506,5,0,0:0:0:0:
256,228,88767,2,0,L|336:232,1,70,8|0,0:0|1:0,0:0:0:0:
504,176,89290,2,0,L|424:180,1,70,4|4,1:0|3:0,0:0:0:0:
325,231,89813,5,8,0:0:0:0:
434,179,90075,1,0,0:0:0:0:
329,16,90337,1,0,3:0:0:0:
183,368,91382,1,2,0:0:0:0:
183,368,92167,5,4,3:0:0:0:
104,308,92428,2,0,L|101:273,2,35,0|0|2,1:0|0:0|0:0,0:0:0:0:
162,210,92951,2,0,P|130:188|89:187,1,80.5000015354157,8|0,0:0|1:0,0:0:0:0:
256,112,93475,6,0,P|295:109|329:87,1,78.7500030040742,4|0,1:1|0:0,0:0:0:0:
340,76,93998,6,0,L|421:79,1,80.5000015354157,8|0,0:0|0:0,0:0:0:0:
460,192,94521,2,0,L|379:189,1,80.5000015354157,2|0,0:0|0:0,0:0:0:0:
340,308,95044,1,8,0:0:0:0:
256,220,95305,1,0,0:0:0:0:
171,308,95567,2,0,P|134:322|94:325,1,80.5000015354157,2|0,0:0|0:0,0:0:0:0:
44,216,96090,2,0,P|81:201|121:198,1,80.5000015354157,8|0,0:0|0:0,0:0:0:0:
224,80,96613,2,0,P|293:103|319:35,1,161.000003070831,6|8,0:0|0:0,0:0:0:0:
391,108,97397,2,0,P|318:106|318:34,1,161.000003070831,4|0,3:0|0:0,0:0:0:0:
456,216,98182,6,0,P|453:255|437:292,1,80.5000015354157,8|0,0:0|0:0,0:0:0:0:
328,344,98705,2,0,L|208:336,1,120.750002303124,2|0,3:0|0:0,0:0:0:0:
183,334,99228,2,0,P|167:297|164:257,1,80.5000015354157,8|0,0:0|0:0,0:0:0:0:
117,232,99620,1,0,0:0:0:0:
84,192,99751,6,0,L|92:72,1,120.750002303124,4|0,3:0|0:0,0:0:0:0:
93,50,100274,2,0,P|129:34|169:31,1,80.5000015354157,8|0,0:0|0:0,0:0:0:0:
260,112,100797,6,0,B|311:141|378:132|378:132|361:113|341:110,1,161.000003070831,2|8,0:0|0:0,0:0:0:0:
245,191,101581,2,0,P|326:210|407:204,1,161.000003070831,0|0,1:0|3:0,0:0:0:0:
452,72,102366,1,8,0:0:0:0:
476,296,102889,5,2,0:0:0:0:
368,348,103150,1,0,3:0:0:0:
256,304,103412,1,8,0:0:0:0:
144,348,103673,1,0,3:0:0:0:
144,348,103935,1,4,1:0:0:0:
144,348,104196,1,0,0:0:0:0:
144,348,104458,1,8,0:0:0:0:
36,296,104719,5,2,0:0:0:0:
92,187,104981,2,0,P|163:169|192:237,1,161.000003070831,2|8,0:0|0:0,0:0:0:0:
319,237,105765,2,0,P|348:169|419:187,1,161.000003070831,4|0,3:0|3:0,0:0:0:0:
372,300,106550,6,0,P|335:316|295:314,1,80.5000015354157,8|0,0:0|0:0,0:0:0:0:
192,237,107073,1,2,0:0:0:0:
192,237,107596,5,8,0:0:0:0:
211,128,107857,1,0,0:0:0:0:
301,256,108119,1,2,0:0:0:0:
320,147,108380,1,0,0:0:0:0:
211,128,108642,1,8,0:0:0:0:
192,237,108903,6,0,P|152:249|108:249,1,80.5000015354157,0|2,0:0|3:0,0:0:0:0:
280,300,109426,2,0,P|320:300|358:312,1,80.5000015354157,0|2,0:0|3:0,0:0:0:0:
359,313,110211,6,0,L|367:365,4,40.2500007677078,4|0|0|0|8,1:1|0:0|0:0|0:0|0:0,0:0:0:0:
412,192,110995,2,0,L|420:140,4,40.2500007677078,0|0|2|0|0,0:0|0:0|0:0|0:0|0:0,0:0:0:0:
448,76,111780,2,0,P|392:76|356:108,1,80.5000015354157,8|0,0:0|0:0,0:0:0:0:
256,152,112303,5,2,0:0:0:0:
256,152,112564,1,0,0:0:0:0:
155,88,112826,2,0,P|119:71|80:76,1,80.5000015354157,8|0,0:0|0:0,0:0:0:0:
32,188,113349,2,0,B|46:310|46:310|58:274,1,161.000003070831,6|8,0:0|0:0,0:0:0:0:
168,324,114134,1,0,0:0:0:0:
256,244,114395,6,0,L|324:248,4,40.2500007677078,4|0|0|0|8,0:0|0:0|0:0|0:0|0:0,0:0:0:0:
344,324,115180,2,0,L|412:320,4,40.2500007677078,0|0|2|0|0,0:0|0:0|3:0|0:0|0:0,0:0:0:0:
452,376,115964,2,0,P|466:338|464:298,1,80.5000015354157,8|0,0:0|0:0,0:0:0:0:
464,177,116487,2,0,P|448:140|418:113,1,80.5000015354157,4|0,3:0|0:0,0:0:0:0:
333,27,117010,2,0,P|295:12|255:14,1,80.5000015354157,8|0,0:0|0:0,0:0:0:0:
170,99,117533,2,0,P|122:131|62:51,1,161.000003070831,2|8,0:0|0:0,0:0:0:0:
140,0,118318,1,0,0:0:0:0:
280,96,118579,6,0,L|268:168,4,40.2500007677078,4|0|0|0|8,1:0|3:0|3:0|0:0|0:0,0:0:0:0:
280,229,119364,1,0,0:0:0:0:
280,229,119494,1,0,0:0:0:0:
280,229,119625,2,0,L|384:224,1,80.5000015354157,2|0,0:0|3:0,0:0:0:0:
445,310,120148,2,0,L|341:315,1,80.5000015354157,8|0,0:0|3:0,0:0:0:0:
256,364,120671,5,4,1:0:0:0:
256,364,120933,1,0,0:0:0:0:
147,313,121194,2,0,L|67:310,1,80.5000015354157,8|0,0:0|0:0,0:0:0:0:
32,196,121717,2,0,B|46:73|46:73|58:109,1,161.000003070831,2|8,0:0|0:0,0:0:0:0:
172,200,122502,1,4,3:0:0:0:
172,200,122632,1,0,0:0:0:0:
172,200,122763,6,0,P|213:177|225:157,1,40.2500007677078,4|0,0:1|3:0,0:0:0:0:
260,124,123025,2,0,P|276:135|295:141,1,40.2500007677078,0|0,3:0|0:0,0:0:0:0:
374,191,123286,2,0,P|384:152|375:113,1,80.5000015354157,8|0,0:0|0:0,0:0:0:0:
375,113,123679,1,0,0:0:0:0:
375,113,123809,2,0,P|394:119|410:130,2,40.2500007677078,2|0|0,0:0|0:0|0:0,0:0:0:0:
445,310,124332,1,8,0:0:0:0:
330,348,124594,1,0,0:0:0:0:
256,252,124855,6,0,L|156:256,1,80.5000015354157,2|0,0:0|0:0,0:0:0:0:
51,147,125378,2,0,L|132:144,1,80.5000015354157,8|0,0:0|0:0,0:0:0:0:
176,20,125901,2,0,P|252:16|276:64,1,120.750002303124,2|0,3:0|0:0,0:0:0:0:
273,46,126424,2,0,L|369:50,1,80.5000015354157,2|0,3:0|0:0,0:0:0:0:
432,192,126947,5,2,0:0:0:0:
430,206,127209,1,0,0:0:0:0:
428,220,127470,1,0,0:0:0:0:
336,300,127993,5,2,0:0:0:0:
332,272,128516,1,0,0:0:0:0:
180,272,129039,5,2,0:0:0:0:
84,220,129301,1,0,0:0:0:0:
176,300,129562,1,0,0:0:0:0:
84,220,130085,5,2,0:0:0:0:
180,272,130347,1,0,0:0:0:0:
80,192,130608,1,0,0:0:0:0:
256,68,131131,5,2,0:0:0:0:
270,66,131393,1,0,0:0:0:0:
284,64,131654,1,0,0:0:0:0:
380,192,132177,5,2,0:0:0:0:
384,220,132700,1,0,0:0:0:0:
240,310,133223,5,2,0:0:0:0:
125,291,133485,1,0,0:0:0:0:
227,319,133746,1,0,0:0:0:0:
200,156,134269,5,2,0:0:0:0:
86,174,134531,1,0,0:0:0:0:
188,147,134792,1,0,0:0:0:0:
356,196,135054,1,0,0:0:0:0:
356,196,135185,1,0,0:0:0:0:
356,196,135316,6,0,P|393:208|423:204,1,70,4|0,0:1|0:0,0:0:0:0:
464,108,135839,2,0,L|469:62,2,35,8|0|0,0:0|0:0|0:0,0:0:0:0:
364,52,136362,2,0,L|335:15,2,35,2|0|0,0:0|0:0|0:0,0:0:0:0:
256,68,136885,2,0,L|210:62,2,35,8|0|0,0:0|0:0|0:0,0:0:0:0:
200,156,137408,2,0,L|120:148,1,70,2|0,0:0|0:0,0:0:0:0:
104,136,137800,2,0,L|96:216,1,70,2|0,3:0|0:0,0:0:0:0:
90,227,138192,1,4,3:0:0:0:
144,316,138454,6,0,P|174:332|208:337,1,70,4|0,3:0|0:0,0:0:0:0:
260,340,138846,2,0,P|294:341|327:329,1,70,8|0,3:0|0:0,0:0:0:0:
368,300,139238,2,0,L|372:260,1,35,4|0,3:0|0:0,0:0:0:0:
440,192,139500,5,4,0:1:0:0:
428,144,139761,1,0,0:0:0:0:
416,96,140023,1,8,0:0:0:0:
404,48,140284,1,0,0:0:0:0:
316,108,140546,6,0,L|275:105,2,35,2|0|0,0:0|0:0|3:0,0:0:0:0:
204,60,141069,2,0,L|163:63,2,35,8|0|0,0:0|0:0|0:0,0:0:0:0:
104,120,141592,2,0,P|93:153|94:187,1,70,2|0,0:0|0:0,0:0:0:0:
179,284,142115,1,8,0:0:0:0:
179,284,142376,2,0,L|219:280,1,35,4|0,3:0|0:0,0:0:0:0:
298,318,142638,2,0,L|375:327,2,70,2|0|8,1:3|0:0|0:0,0:0:0:0:
389,222,143422,1,2,1:3:0:0:
280,115,143684,6,0,P|229:76|176:114,1,140,4|8,0:1|0:0,0:0:0:0:
227,206,144468,1,0,0:0:0:0:
123,222,144730,2,0,L|43:208,1,70,2|0,0:0|0:0,0:0:0:0:
12,113,145253,2,0,L|80:125,1,70,8|0,0:0|0:0,0:0:0:0:
152,47,145776,6,0,L|232:61,1,70,2|0,0:0|0:0,0:0:0:0:
263,156,146299,2,0,L|194:143,1,70,8|0,0:0|0:0,0:0:0:0:
52,210,146822,2,0,P|41:242|50:276,1,70,2|0,0:0|0:0,0:0:0:0:
49,342,147345,2,0,P|59:309|50:275,1,70,8|0,0:0|0:0,0:0:0:0:
205,270,147868,6,0,L|273:282,1,70,4|0,0:1|0:0,0:0:0:0:
234,112,148391,2,0,L|221:180,1,70,8|0,0:0|0:0,0:0:0:0:
360,292,148914,2,0,L|372:223,1,70,2|0,0:0|0:0,0:0:0:0:
389,134,149437,2,0,L|320:121,1,70,8|0,0:0|0:0,0:0:0:0:
182,37,149960,6,0,P|214:23|248:23,1,70,2|0,0:0|0:0,0:0:0:0:
145,119,150483,2,0,P|110:117|78:103,1,70,8|0,0:0|0:0,0:0:0:0:
234,112,151006,2,0,L|221:180,1,70,2|0,0:0|0:0,0:0:0:0:
208,249,151529,2,0,L|220:180,1,70,8|0,0:0|0:0,0:0:0:0:
345,40,152052,6,0,B|399:32|399:32|416:38,1,70,4|0,0:1|0:0,0:0:0:0:
388,139,152575,2,0,B|442:131|442:131|459:137,1,70,8|0,0:0|0:0,0:0:0:0:
388,245,153098,2,0,B|442:253|442:253|459:247,1,70,2|0,0:0|0:0,0:0:0:0:
345,344,153621,2,0,B|399:352|399:352|416:346,1,70,8|0,0:0|0:0,0:0:0:0:
277,280,154144,6,0,P|258:309|255:344,2,70,2|0|8,0:0|0:0|0:0,0:0:0:0:
282,175,154928,2,0,L|275:105,1,70,0|2,0:0|0:0,0:0:0:0:
275,105,155451,2,0,L|268:35,1,70,0|8,0:0|0:0,0:0:0:0:
89,205,156236,6,0,P|52:238|95:211,1,140,4|8,0:1|0:0,0:0:0:0:
183,157,157021,1,0,0:0:0:0:
86,115,157282,2,0,P|51:116|17:131,1,70,2|0,0:0|0:0,0:0:0:0:
112,16,157805,2,0,P|144:29|169:52,1,70,8|0,0:0|0:0,0:0:0:0:
204,223,158328,6,0,P|199:188|182:155,1,70,2|0,0:0|0:0,0:0:0:0:
304,240,158851,2,0,P|293:273|272:300,1,70,8|0,0:0|0:0,0:0:0:0:
204,223,159374,2,0,P|176:201|143:191,2,70,2|0|8,0:0|0:0|0:0,0:0:0:0:
72,328,160420,6,0,L|64:256,1,70,4|0,0:1|0:0,0:0:0:0:
144,192,160943,2,0,L|152:264,1,70,8|0,0:0|0:0,0:0:0:0:
248,300,161466,2,0,L|240:228,1,70,2|0,0:0|0:0,0:0:0:0:
320,164,161989,2,0,L|328:236,1,70,8|0,0:0|0:0,0:0:0:0:
402,307,162512,6,0,P|440:312|474:299,2,70,2|0|8,0:0|0:0|0:0,0:0:0:0:
327,233,163297,2,0,P|289:228|255:241,1,70,0|2,0:0|0:0,0:0:0:0:
259,238,163820,2,0,P|228:261|213:294,1,70,2|8,3:0|0:0,0:0:0:0:
440,327,164604,6,0,L|448:255,1,70,4|0,0:1|0:0,0:0:0:0:
368,192,165127,2,0,L|360:264,1,70,8|0,0:0|0:0,0:0:0:0:
264,300,165650,2,0,L|272:228,1,70,2|0,0:0|0:0,0:0:0:0:
192,164,166173,2,0,L|184:236,1,70,8|0,0:0|0:0,0:0:0:0:
110,307,166696,6,0,P|72:312|38:299,2,70,2|0|8,0:0|0:0|0:0,0:0:0:0:
185,233,167481,2,0,P|223:228|257:241,1,70,0|2,0:0|0:0,0:0:0:0:
358,238,168004,2,0,P|385:258|401:289,1,70,8|8,3:0|0:0,0:0:0:0:
72,328,168788,5,4,0:1:0:0:
64,304,169050,1,0,0:0:0:0:
185,233,169311,1,8,0:0:0:0:
177,209,169573,1,0,0:0:0:0:
72,328,169834,5,2,0:0:0:0:
64,304,170096,1,0,0:0:0:0:
185,233,170357,1,8,0:0:0:0:
177,209,170619,1,0,0:0:0:0:
110,77,170880,6,0,P|72:72|38:85,2,70,2|2|0,0:0|3:0|0:0,0:0:0:0:
185,151,171665,2,0,P|223:156|257:143,1,70,0|2,0:0|0:0,0:0:0:0:
252,145,172188,2,0,P|282:121|297:88,1,70,2|0,3:0|0:0,0:0:0:0:
72,56,172972,5,4,0:1:0:0:
64,80,173234,1,0,0:0:0:0:
185,151,173495,1,8,0:0:0:0:
177,175,173757,1,0,0:0:0:0:
72,56,174018,5,4,3:0:0:0:
64,80,174280,1,0,0:0:0:0:
185,151,174541,1,8,0:0:0:0:
177,175,174803,1,0,0:0:0:0:
110,307,175064,6,0,P|72:312|38:299,2,70,4|0|8,3:0|0:0|0:0,0:0:0:0:
185,233,175849,2,0,P|223:228|257:241,1,70,2|0,3:0|0:0,0:0:0:0:
402,289,176372,2,0,P|386:258|358:238,1,70,2|8,3:0|0:0,0:0:0:0:
357,237,177157,6,0,L|365:161,1,70,4|0,3:0|0:0,0:0:0:0:
369,137,177549,1,0,0:0:0:0:
369,137,177680,2,0,L|293:129,1,70,8|0,0:0|0:0,0:0:0:0:
255,120,178072,1,0,0:0:0:0:
212,129,178203,6,0,L|143:137,1,70,4|0,3:0|0:0,0:0:0:0:
147,167,178595,1,0,0:0:0:0:
147,167,178726,2,0,L|155:237,1,70,8|0,0:0|0:0,0:0:0:0:
161,278,179118,1,0,0:0:0:0:
