osu file format v14

[General]
AudioFilename: audio.mp3
AudioLeadIn: 0
PreviewTime: -1
Countdown: 1
SampleSet: Normal
StackLeniency: 0.7
Mode: 0
LetterboxInBreaks: 0
WidescreenStoryboard: 0

[Editor]
DistanceSpacing: 1
BeatDivisor: 1
GridSize: 4
TimelineZoom: 1

[Metadata]
Title:Steven Universe [full intro]
TitleUnicode:Steven Universe [full intro]
Artist:Tima :D
ArtistUnicode:Tima :D
Creator:Adebler
Version:Hard
Source:Steven universe cartoon full intro
Tags:Steven universe
BeatmapID:1392685
BeatmapSetID:657512

[Difficulty]
HPDrainRate:7
CircleSize:6
OverallDifficulty:7
ApproachRate:8
SliderMultiplier:1.4
SliderTickRate:1

[Events]
//Background and Video events
0,0,"Vlcsnap-2015-08-28-12h26m46s59.png",0,0
//Break Periods
2,37062,48441
2,79802,95701
//Storyboard Layer 0 (Background)
//Storyboard Layer 1 (Fail)
//Storyboard Layer 2 (Pass)
//Storyboard Layer 3 (Foreground)
//Storyboard Sound Samples

[TimingPoints]
2342.08219178082,410.958904109589,4,1,0,100,1,0

[HitObjects]
76,120,2342,5,0,0:0:0:0:
160,132,2753,1,0,0:0:0:0:
204,136,3164,1,0,0:0:0:0:
52,196,3985,2,0,B|220:192|248:200|224:248|404:264|340:84|184:72|140:128|140:132,1,420
144,168,5629,1,0,0:0:0:0:
224,164,6040,1,0,0:0:0:0:
292,148,6451,1,0,0:0:0:0:
304,188,6862,1,0,0:0:0:0:
304,188,7273,6,0,B|148:208|128:200|112:300|124:164|48:180,2,280
256,192,9328,12,0,13437,0:0:0:0:
80,144,13848,6,0,L|356:244,1,280
104,164,15492,1,0,0:0:0:0:
200,180,15903,1,0,0:0:0:0:
220,244,16314,1,0,0:0:0:0:
312,216,16725,1,0,0:0:0:0:
104,136,18369,1,0,0:0:0:0:
168,120,18780,1,0,0:0:0:0:
224,112,19602,1,0,0:0:0:0:
120,128,20835,2,0,L|272:128,1,140
316,136,22068,1,0,0:0:0:0:
360,148,22479,1,0,0:0:0:0:
352,212,22890,1,0,0:0:0:0:
132,164,23711,1,0,0:0:0:0:
88,116,24944,1,0,0:0:0:0:
248,152,25355,1,0,0:0:0:0:
256,192,26588,12,0,30698,0:0:0:0:
36,76,31109,6,0,B|172:136|180:136|64:280|252:240|312:88|296:112,1,280
96,108,33164,1,0,0:0:0:0:
156,128,33574,1,0,0:0:0:0:
200,152,33985,1,0,0:0:0:0:
280,152,34396,1,0,0:0:0:0:
104,180,36040,2,0,L|252:188,1,140
164,304,36862,5,0,0:0:0:0:
120,116,49191,5,0,0:0:0:0:
104,64,50013,2,0,B|108:304|108:316|236:204|244:80|288:48|328:144|296:220|268:292|288:336|416:240|444:108|408:56|384:28|388:80|388:96,1,560
104,136,52479,1,0,0:0:0:0:
240,192,52890,1,0,0:0:0:0:
288,164,53300,1,0,0:0:0:0:
312,108,53711,1,0,0:0:0:0:
256,192,54944,12,0,56999,0:0:0:0:
72,144,57821,5,0,0:0:0:0:
140,168,58232,1,0,0:0:0:0:
264,220,58643,1,0,0:0:0:0:
312,200,59465,1,0,0:0:0:0:
276,132,59876,1,0,0:0:0:0:
192,120,60287,1,0,0:0:0:0:
108,128,61109,1,0,0:0:0:0:
80,232,61520,1,0,0:0:0:0:
80,136,63163,2,0,L|364:144,1,280
56,152,64396,5,0,0:0:0:0:
112,188,64807,1,0,0:0:0:0:
140,168,66040,1,0,0:0:0:0:
224,120,66451,1,0,0:0:0:0:
300,176,66862,1,0,0:0:0:0:
124,236,68095,1,0,0:0:0:0:
100,164,68506,1,0,0:0:0:0:
120,120,68917,1,0,0:0:0:0:
224,96,69328,1,0,0:0:0:0:
256,108,69739,1,0,0:0:0:0:
72,48,70150,2,0,B|72:332|72:364|120:344|152:328|176:296|184:260|184:200|184:32|184:16|336:48|292:176|264:272|276:320|272:376|324:356|364:120|356:32|328:20|312:12,1,840
232,120,73848,1,0,0:0:0:0:
284,152,74670,1,0,0:0:0:0:
336,240,75081,1,0,0:0:0:0:
256,192,75903,12,0,79602,0:0:0:0:
108,108,96451,5,0,0:0:0:0:
144,128,97273,1,0,0:0:0:0:
224,128,97684,1,0,0:0:0:0:
316,124,98095,1,0,0:0:0:0:
116,196,98917,1,0,0:0:0:0:
112,120,99328,1,0,0:0:0:0:
268,96,99739,1,0,0:0:0:0:
320,120,100150,1,0,0:0:0:0:
344,160,100561,1,0,0:0:0:0:
92,88,101383,2,0,L|316:188,6,140
92,160,104670,1,0,0:0:0:0:
192,180,105081,1,0,0:0:0:0:
328,152,105492,1,0,0:0:0:0:
380,180,105903,1,0,0:0:0:0:
216,200,107136,1,0,0:0:0:0:
104,164,107547,1,0,0:0:0:0:
76,100,107958,1,0,0:0:0:0:
160,64,108369,1,0,0:0:0:0:
76,128,109191,6,0,L|488:252,1,420
144,136,111657,1,0,0:0:0:0:
144,216,112890,1,0,0:0:0:0:
212,160,113711,1,0,0:0:0:0:
284,152,114122,1,0,0:0:0:0:
352,180,114533,1,0,0:0:0:0:
208,212,114944,1,0,0:0:0:0:
144,180,115355,1,0,0:0:0:0:
124,144,115766,1,0,0:0:0:0:
148,100,116177,1,0,0:0:0:0:
232,92,116588,1,0,0:0:0:0:
256,192,117410,12,0,122342,0:0:0:0:
116,168,122753,6,0,L|264:172,1,140
132,88,123574,1,0,0:0:0:0:
280,144,123985,1,0,0:0:0:0:
276,148,124396,2,0,L|8:328,1,280
112,156,125629,1,0,0:0:0:0:
228,160,126040,1,0,0:0:0:0:
300,176,126451,1,0,0:0:0:0:
360,112,126862,1,0,0:0:0:0:
128,108,128095,5,0,0:0:0:0:
228,144,128506,1,0,0:0:0:0:
256,136,128917,1,0,0:0:0:0:
376,160,129328,1,0,0:0:0:0:
376,168,130150,1,0,0:0:0:0:
176,148,130972,1,0,0:0:0:0:
136,84,131383,1,0,0:0:0:0:
128,268,131794,1,0,0:0:0:0:
264,200,132205,1,0,0:0:0:0:
72,112,133437,2,0,B|228:152|216:192|128:308|272:300|288:208|300:104|336:52|384:88|392:192|392:236|372:288|368:308|364:320|324:320,1,560
124,68,135492,1,0,0:0:0:0:
144,112,135903,1,0,0:0:0:0:
144,112,136314,1,0,0:0:0:0:
80,156,137136,2,0,L|500:216,1,420
92,156,138780,1,0,0:0:0:0:
228,148,139191,1,0,0:0:0:0:
344,144,139602,1,0,0:0:0:0:
396,148,140013,1,0,0:0:0:0:
208,176,140835,1,0,0:0:0:0:
268,136,141657,1,0,0:0:0:0:
256,192,142068,12,0,146177,0:0:0:0:
