osu file format v14

[General]
AudioFilename: audio.mp3
AudioLeadIn: 0
PreviewTime: -1
Countdown: 0
SampleSet: Normal
StackLeniency: 0.7
Mode: 0
LetterboxInBreaks: 0
WidescreenStoryboard: 0

[Editor]
DistanceSpacing: 1
BeatDivisor: 4
GridSize: 4
TimelineZoom: 1.6

[Metadata]
Title:Okay, mi prosto igraem v zhizn
TitleUnicode:Okay, mi prosto igraem v zhizn
Artist:Tima Beloruskih
ArtistUnicode:Tima Beloruskih
Creator:valeriksen
Version:Insane
Source:Rus Tima Belarus Rain Pain
Tags:Rus Tima Belarus Rain Pain
BeatmapID:2668376
BeatmapSetID:1285157

[Difficulty]
HPDrainRate:5
CircleSize:5
OverallDifficulty:5
ApproachRate:9
SliderMultiplier:1.7
SliderTickRate:1

[Events]
//Background and Video events
0,0,"2017Anime_anime_girl_in_the_rain_112827_.jpg",0,0
//Break Periods
2,6605,10567
//Storyboard Layer 0 (Background)
//Storyboard Layer 1 (Fail)
//Storyboard Layer 2 (Pass)
//Storyboard Layer 3 (Foreground)
//Storyboard Layer 4 (Overlay)
//Storyboard Sound Samples

[TimingPoints]
30.4255319148936,375,4,1,0,100,1,0

[Colours]
Combo1 : 128,128,128
Combo2 : 128,128,128
Combo3 : 128,128,128
Combo4 : 128,128,128
Combo5 : 128,128,128
Combo6 : 128,128,128

[HitObjects]
51,42,30,6,0,L|151:171,1,127.5
157,174,405,2,0,L|302:171,1,127.5
317,144,780,2,0,L|448:136,1,127.5
486,140,1155,2,0,B|398:278|411:256,1,127.5
377,263,1530,6,0,P|251:260|231:245,1,127.5
220,236,1905,2,0,L|142:104,1,127.5
191,104,2280,2,0,L|321:94,1,127.5
357,111,2655,2,0,L|386:243,1,127.5
342,244,3030,6,0,L|201:233,1,127.5
172,235,3405,1,0,0:0:0:0:
129,235,3874,2,0,L|40:231,1,85
45,188,4155,1,0,0:0:0:0:
136,44,4530,6,0,L|274:70,1,127.5
293,95,4905,2,0,L|301:227,1,127.5
308,264,5280,2,0,L|298:113,1,127.5
279,99,5655,2,0,P|136:96|80:284,1,340
265,190,11467,5,0,0:0:0:0:
191,146,11655,2,0,L|113:93,1,85
202,74,12030,1,0,0:0:0:0:
371,90,12405,2,0,L|374:217,1,127.5
289,226,12874,2,0,L|175:203,1,85
397,300,13624,1,0,0:0:0:0:
344,233,13811,1,0,0:0:0:0:
386,229,13905,1,0,0:0:0:0:
281,68,14186,6,0,P|218:104|210:212,1,170
182,232,14655,1,0,0:0:0:0:
145,253,14749,1,0,0:0:0:0:
127,170,14936,1,0,0:0:0:0:
150,134,15030,1,0,0:0:0:0:
190,121,15124,1,0,0:0:0:0:
316,133,15405,5,0,0:0:0:0:
330,173,15499,1,0,0:0:0:0:
311,210,15592,1,0,0:0:0:0:
226,220,15780,2,0,L|104:231,1,85
77,170,16155,1,0,0:0:0:0:
106,138,16249,1,0,0:0:0:0:
148,141,16342,1,0,0:0:0:0:
189,151,16436,1,0,0:0:0:0:
274,150,16624,6,0,L|226:125,1,42.5
433,124,16999,2,0,L|464:174,1,42.5
450,202,17186,2,0,P|391:200|266:150,1,170
254,84,17749,6,0,L|202:153,1,85
207,168,18030,5,0,0:0:0:0:
285,190,18217,1,0,0:0:0:0:
366,91,18499,1,0,0:0:0:0:
332,116,18592,1,0,0:0:0:0:
248,99,18780,1,0,0:0:0:0:
283,123,18874,1,0,0:0:0:0:
316,245,19155,1,0,0:0:0:0:
305,286,19249,2,0,L|245:279,1,42.5
171,93,19530,6,0,L|93:142,1,85
100,223,19905,2,0,L|178:257,1,85
260,237,20280,2,0,P|311:220|227:69,1,297.5
193,77,21030,5,0,0:0:0:0:
173,114,21124,1,0,0:0:0:0:
166,155,21217,1,0,0:0:0:0:
173,196,21311,1,0,0:0:0:0:
173,196,21405,1,0,0:0:0:0:
196,231,21499,1,0,0:0:0:0:
294,299,21780,2,0,P|375:262|395:199,1,127.5
475,219,22249,2,0,L|377:237,1,85
150,156,22717,2,0,L|86:184,1,42.5
96,213,22905,2,0,L|100:268,1,42.5
135,277,23092,2,0,L|231:288,1,85
344,170,23655,5,0,0:0:0:0:
276,118,23842,1,0,0:0:0:0:
233,112,23936,1,0,0:0:0:0:
190,117,24030,1,0,0:0:0:0:
149,128,24124,1,0,0:0:0:0:
110,144,24217,1,0,0:0:0:0:
105,229,24499,6,0,L|159:269,1,42.5
264,265,24780,2,0,P|361:230|395:194,1,127.5
360,175,25155,6,0,L|307:93,1,85
271,103,25436,2,0,L|185:73,1,85
149,84,25717,2,0,P|91:118|141:270,1,255
222,268,26467,6,0,L|306:227,1,85
328,199,26749,2,0,L|383:126,1,85
379,131,27030,2,0,L|330:209,1,85
277,138,27405,5,0,0:0:0:0:
237,213,27592,2,0,P|188:260|135:241,1,127.5
378,325,28155,5,0,0:0:0:0:
379,282,28249,1,0,0:0:0:0:
365,242,28342,1,0,0:0:0:0:
248,294,28624,1,0,0:0:0:0:
289,301,28717,1,0,0:0:0:0:
308,217,28905,1,0,0:0:0:0:
364,280,29092,1,0,0:0:0:0:
281,257,29280,1,0,0:0:0:0:
214,100,29655,5,0,0:0:0:0:
216,184,29842,1,0,0:0:0:0:
165,252,30030,1,0,0:0:0:0:
122,254,30124,1,0,0:0:0:0:
82,238,30217,1,0,0:0:0:0:
86,152,30405,5,0,0:0:0:0:
168,132,30592,1,0,0:0:0:0:
128,147,30686,1,0,0:0:0:0:
282,292,31155,6,0,L|372:222,1,85
349,197,31436,2,0,L|261:158,1,85
228,161,31717,2,0,L|147:207,1,85
111,205,31999,1,0,0:0:0:0:
92,167,32092,2,0,L|189:122,1,85
336,97,32655,6,0,L|338:233,1,127.5
370,197,33030,2,0,L|283:151,1,85
302,115,33311,2,0,L|387:208,1,85
361,220,33592,1,0,0:0:0:0:
361,220,33686,2,0,L|290:162,1,85
229,111,34061,5,0,0:0:0:0:
176,178,34249,1,0,0:0:0:0:
258,275,34530,1,0,0:0:0:0:
299,283,34624,1,0,0:0:0:0:
296,28,35186,1,0,0:0:0:0:
307,68,35280,2,0,L|211:78,1,85
469,334,35655,6,0,P|463:263|354:115,1,255
275,100,36405,5,0,0:0:0:0:
242,127,36499,1,0,0:0:0:0:
266,297,37249,1,0,0:0:0:0:
370,224,37530,1,0,0:0:0:0:
395,99,37811,1,0,0:0:0:0:
214,172,38092,2,0,P|267:160|381:242,1,170
427,153,38655,5,0,0:0:0:0:
385,145,38749,2,0,L|283:102,1,85
350,74,40061,5,0,0:0:0:0:
308,84,40155,2,0,L|200:106,1,85
139,98,40530,2,0,L|206:152,1,85
234,182,40811,1,0,0:0:0:0:
270,204,40905,1,0,0:0:0:0:
312,207,40999,1,0,0:0:0:0:
353,201,41092,1,0,0:0:0:0:
298,125,41561,1,0,0:0:0:0:
285,165,41655,1,0,0:0:0:0:
270,204,41749,1,0,0:0:0:0:
230,219,41842,1,0,0:0:0:0:
188,229,41936,1,0,0:0:0:0:
145,221,42030,1,0,0:0:0:0:
486,47,42874,5,0,0:0:0:0:
492,88,42967,2,0,L|472:191,1,85
306,193,43530,1,0,0:0:0:0:
263,194,43624,1,0,0:0:0:0:
223,180,43717,1,0,0:0:0:0:
166,116,43905,1,0,0:0:0:0:
154,156,43999,1,0,0:0:0:0:
191,277,44280,1,0,0:0:0:0:
232,265,44374,1,0,0:0:0:0:
271,249,44467,1,0,0:0:0:0:
312,258,44561,1,0,0:0:0:0:
348,280,44655,1,0,0:0:0:0:
387,295,44749,2,0,P|447:220|336:98,1,255
36,42,46061,5,0,0:0:0:0:
44,83,46155,1,0,0:0:0:0:
166,117,46436,1,0,0:0:0:0:
141,151,46530,1,0,0:0:0:0:
351,178,46999,1,0,0:0:0:0:
356,219,47092,1,0,0:0:0:0:
324,247,47186,1,0,0:0:0:0:
258,191,47374,1,0,0:0:0:0:
298,203,47467,1,0,0:0:0:0:
227,153,47749,1,0,0:0:0:0:
200,120,47842,1,0,0:0:0:0:
157,116,47936,1,0,0:0:0:0:
114,117,48030,1,0,0:0:0:0:
73,129,48124,1,0,0:0:0:0:
102,208,48311,5,0,0:0:0:0:
121,245,48405,1,0,0:0:0:0:
153,272,48499,1,0,0:0:0:0:
187,295,48592,1,0,0:0:0:0:
425,116,49249,5,0,0:0:0:0:
402,34,49436,1,0,0:0:0:0:
415,74,49530,1,0,0:0:0:0:
402,114,49624,1,0,0:0:0:0:
274,117,49905,1,0,0:0:0:0:
189,126,50092,1,0,0:0:0:0:
189,126,50186,1,0,0:0:0:0:
126,183,50374,1,0,0:0:0:0:
144,220,50467,1,0,0:0:0:0:
180,241,50561,1,0,0:0:0:0:
222,243,50655,1,0,0:0:0:0:
264,246,50749,2,0,P|423:168|245:81,1,467.5
76,68,52155,5,0,0:0:0:0:
98,193,52436,1,0,0:0:0:0:
134,170,52530,1,0,0:0:0:0:
57,133,52717,1,0,0:0:0:0:
58,175,52811,1,0,0:0:0:0:
53,217,52905,1,0,0:0:0:0:
60,258,52999,1,0,0:0:0:0:
318,36,53749,2,0,B|349:98|295:154|320:227|407:102|446:167|187:281,1,340
94,94,54967,5,0,0:0:0:0:
103,135,55061,1,0,0:0:0:0:
148,206,55249,1,0,0:0:0:0:
189,210,55342,1,0,0:0:0:0:
229,195,55436,1,0,0:0:0:0:
341,134,55717,1,0,0:0:0:0:
365,168,55811,1,0,0:0:0:0:
471,97,56092,1,0,0:0:0:0:
430,83,56186,1,0,0:0:0:0:
185,66,56749,1,0,0:0:0:0:
185,66,56842,2,0,L|207:262,1,170
96,70,58155,5,0,0:0:0:0:
147,137,58342,1,0,0:0:0:0:
177,106,58436,1,0,0:0:0:0:
104,211,58717,1,0,0:0:0:0:
137,237,58811,2,0,L|79:296,1,42.5
304,173,59186,1,0,0:0:0:0:
304,258,59374,1,0,0:0:0:0:
300,215,59467,1,0,0:0:0:0:
304,173,59561,1,0,0:0:0:0:
333,49,59842,2,0,P|282:71|316:182,1,170
251,197,61249,6,0,P|295:142|261:91,1,127.5
438,61,61905,1,0,0:0:0:0:
442,103,61999,1,0,0:0:0:0:
431,187,62186,1,0,0:0:0:0:
414,147,62280,1,0,0:0:0:0:
497,133,62467,1,0,0:0:0:0:
458,152,62561,1,0,0:0:0:0:
385,197,62749,1,0,0:0:0:0:
460,235,62936,2,0,P|430:317|406:322,1,85
400,298,63217,5,0,0:0:0:0:
333,244,63405,1,0,0:0:0:0:
380,173,63592,1,0,0:0:0:0:
380,173,63686,1,0,0:0:0:0:
263,121,63967,1,0,0:0:0:0:
301,101,64061,1,0,0:0:0:0:
343,104,64155,1,0,0:0:0:0:
379,270,64530,5,0,0:0:0:0:
301,235,64717,1,0,0:0:0:0:
462,287,65092,1,0,0:0:0:0:
410,328,65280,1,0,0:0:0:0:
345,276,65467,1,0,0:0:0:0:
295,206,65655,1,0,0:0:0:0:
220,166,65842,1,0,0:0:0:0:
134,161,66030,1,0,0:0:0:0:
134,161,66124,2,0,P|218:166|341:285,1,255
386,159,66967,5,0,0:0:0:0:
310,118,67155,1,0,0:0:0:0:
387,84,67342,1,0,0:0:0:0:
429,157,67530,1,0,0:0:0:0:
452,238,67717,1,0,0:0:0:0:
368,255,67905,1,0,0:0:0:0:
286,232,68092,1,0,0:0:0:0:
221,176,68280,1,0,0:0:0:0:
251,205,68374,2,0,P|208:215|197:130,1,127.5
138,109,68842,5,0,0:0:0:0:
112,143,68936,1,0,0:0:0:0:
137,224,69030,2,0,P|208:268|254:257,1,127.5
281,234,69499,1,0,0:0:0:0:
281,234,69592,1,0,0:0:0:0:
208,128,69874,5,0,0:0:0:0:
292,126,70061,2,0,L|198:129,1,85
164,125,70342,1,0,0:0:0:0:
122,116,70436,1,0,0:0:0:0:
151,239,70717,1,0,0:0:0:0:
234,253,70905,1,0,0:0:0:0:
194,177,71092,1,0,0:0:0:0:
272,209,71280,1,0,0:0:0:0:
214,271,71467,1,0,0:0:0:0:
129,258,71655,1,0,0:0:0:0:
133,88,72030,2,0,P|247:88|239:279,1,340
326,309,72967,5,0,0:0:0:0:
368,309,73061,1,0,0:0:0:0:
425,195,73342,1,0,0:0:0:0:
372,127,73530,1,0,0:0:0:0:
361,168,73624,1,0,0:0:0:0:
233,164,73905,1,0,0:0:0:0:
275,168,73999,1,0,0:0:0:0:
247,248,74186,5,0,0:0:0:0:
213,274,74280,1,0,0:0:0:0:
136,237,74467,1,0,0:0:0:0:
116,198,74561,1,0,0:0:0:0:
179,40,74936,1,0,0:0:0:0:
157,77,75030,1,0,0:0:0:0:
295,176,75405,1,0,0:0:0:0:
378,189,75592,1,0,0:0:0:0:
344,215,75686,1,0,0:0:0:0:
295,176,75780,1,0,0:0:0:0:
157,77,76061,5,0,0:0:0:0:
150,198,76249,1,0,0:0:0:0:
230,139,76436,1,0,0:0:0:0:
91,116,76624,1,0,0:0:0:0:
86,154,76717,1,0,0:0:0:0:
98,187,76811,1,0,0:0:0:0:
127,229,76999,1,0,0:0:0:0:
149,152,77186,1,0,0:0:0:0:
406,139,77655,5,0,0:0:0:0:
410,220,77842,1,0,0:0:0:0:
406,139,78030,2,0,P|369:85|321:66,1,85
303,66,78311,1,0,0:0:0:0:
312,120,78405,1,0,0:0:0:0:
200,120,78592,5,0,0:0:0:0:
218,201,78780,1,0,0:0:0:0:
239,198,78874,1,0,0:0:0:0:
106,158,79155,1,0,0:0:0:0:
91,88,79249,1,0,0:0:0:0:
20,135,79530,1,0,0:0:0:0:
138,113,79624,1,0,0:0:0:0:
239,198,79905,5,0,0:0:0:0:
239,101,80092,2,0,P|189:131|220:241,1,170
340,193,80655,5,0,0:0:0:0:
334,293,80842,1,0,0:0:0:0:
284,230,81030,1,0,0:0:0:0:
171,176,81405,5,0,0:0:0:0:
229,157,81592,1,0,0:0:0:0:
181,117,81780,1,0,0:0:0:0:
112,161,81967,1,0,0:0:0:0:
196,218,82155,1,0,0:0:0:0:
149,123,82342,1,0,0:0:0:0:
112,229,82530,1,0,0:0:0:0:
190,145,82717,1,0,0:0:0:0:
242,238,82905,1,0,0:0:0:0:
298,229,82999,1,0,0:0:0:0:
338,194,83092,1,0,0:0:0:0:
364,149,83186,1,0,0:0:0:0:
377,99,83280,1,0,0:0:0:0:
421,292,83749,5,0,0:0:0:0:
365,294,83936,1,0,0:0:0:0:
421,292,84124,2,0,L|421:196,1,85
404,167,84405,1,0,0:0:0:0:
381,131,84499,1,0,0:0:0:0:
339,121,84592,1,0,0:0:0:0:
298,107,84686,1,0,0:0:0:0:
260,126,84780,1,0,0:0:0:0:
217,131,84874,1,0,0:0:0:0:
176,119,84967,1,0,0:0:0:0:
120,192,85155,5,0,0:0:0:0:
188,233,85342,1,0,0:0:0:0:
182,173,85530,1,0,0:0:0:0:
245,203,85717,1,0,0:0:0:0:
173,229,85905,1,0,0:0:0:0:
245,203,86092,1,0,0:0:0:0:
189,142,86280,1,0,0:0:0:0:
278,120,86467,5,0,0:0:0:0:
310,193,86655,1,0,0:0:0:0:
340,138,86842,1,0,0:0:0:0:
359,243,87030,2,0,P|337:283|208:289,1,170
186,276,87499,5,0,0:0:0:0:
181,191,87686,1,0,0:0:0:0:
180,276,87874,2,0,L|180:187,1,85
150,144,88155,1,0,0:0:0:0:
207,149,88342,1,0,0:0:0:0:
180,142,88436,1,0,0:0:0:0:
171,187,88530,1,0,0:0:0:0:
254,182,88624,1,0,0:0:0:0:
248,114,88811,1,0,0:0:0:0:
284,130,88999,1,0,0:0:0:0:
342,177,89092,2,0,P|368:278|328:333,1,170
271,329,89561,5,0,0:0:0:0:
268,242,89655,1,0,0:0:0:0:
222,290,89749,1,0,0:0:0:0:
206,192,89936,2,0,P|217:132|298:202,1,212.5
381,175,90592,2,0,L|384:226,1,42.5
386,230,90780,2,0,L|384:178,1,42.5
341,135,90967,1,0,0:0:0:0:
354,246,91061,1,0,0:0:0:0:
327,196,91155,1,0,0:0:0:0:
285,186,91249,1,0,0:0:0:0:
242,188,91342,2,0,L|163:189,1,42.5
157,177,91530,5,0,0:0:0:0:
171,137,91624,1,0,0:0:0:0:
209,119,91717,1,0,0:0:0:0:
250,107,91811,1,0,0:0:0:0:
292,107,91905,1,0,0:0:0:0:
332,119,91999,1,0,0:0:0:0:
367,141,92092,1,0,0:0:0:0:
393,174,92186,1,0,0:0:0:0:
412,211,92280,1,0,0:0:0:0:
428,250,92374,1,0,0:0:0:0:
345,279,92561,5,0,0:0:0:0:
318,209,92749,1,0,0:0:0:0:
266,313,92936,2,0,L|246:108,1,170
231,105,93405,1,0,0:0:0:0:
160,58,93592,1,0,0:0:0:0:
43,110,93874,1,0,0:0:0:0:
67,191,94061,1,0,0:0:0:0:
92,109,94249,1,0,0:0:0:0:
118,189,94436,1,0,0:0:0:0:
244,174,94717,1,0,0:0:0:0:
265,91,94905,1,0,0:0:0:0:
342,124,95092,1,0,0:0:0:0:
338,166,95186,1,0,0:0:0:0:
331,38,95467,5,0,0:0:0:0:
288,39,95561,1,0,0:0:0:0:
203,49,95749,1,0,0:0:0:0:
195,133,95936,2,0,L|197:47,1,85
459,326,96967,6,0,L|391:299,1,42.5
383,287,97155,1,0,0:0:0:0:
376,202,97342,2,0,L|379:288,1,85
336,294,97624,1,0,0:0:0:0:
287,224,97811,1,0,0:0:0:0:
336,294,97999,1,0,0:0:0:0:
336,209,98186,1,0,0:0:0:0:
219,158,98467,5,0,0:0:0:0:
261,155,98561,1,0,0:0:0:0:
285,73,98749,1,0,0:0:0:0:
200,79,98936,1,0,0:0:0:0:
72,78,99217,5,0,0:0:0:0:
74,161,99405,1,0,0:0:0:0:
93,199,99499,1,0,0:0:0:0:
170,233,99686,2,0,L|263:227,1,85
296,216,99967,1,0,0:0:0:0:
253,222,100061,1,0,0:0:0:0:
210,225,100155,1,0,0:0:0:0:
132,123,100436,5,0,0:0:0:0:
127,208,100624,1,0,0:0:0:0:
188,149,100811,1,0,0:0:0:0:
195,233,100999,1,0,0:0:0:0:
188,149,101186,1,0,0:0:0:0:
396,105,101655,5,0,0:0:0:0:
404,189,101842,1,0,0:0:0:0:
396,105,102030,2,0,L|404:199,1,85
87,63,102967,5,0,0:0:0:0:
126,138,103155,2,0,L|194:43,1,85
216,79,103436,1,0,0:0:0:0:
249,105,103530,1,0,0:0:0:0:
269,142,103624,1,0,0:0:0:0:
349,113,103811,1,0,0:0:0:0:
350,198,103999,1,0,0:0:0:0:
361,157,104092,1,0,0:0:0:0:
192,135,104467,5,0,0:0:0:0:
187,220,104655,1,0,0:0:0:0:
223,197,104749,1,0,0:0:0:0:
239,280,104936,1,0,0:0:0:0:
407,255,105311,5,0,0:0:0:0:
407,169,105499,1,0,0:0:0:0:
407,255,105592,1,0,0:0:0:0:
365,246,105686,1,0,0:0:0:0:
327,225,105780,1,0,0:0:0:0:
296,195,105874,1,0,0:0:0:0:
266,165,105967,1,0,0:0:0:0:
227,146,106061,1,0,0:0:0:0:
184,145,106155,1,0,0:0:0:0:
143,158,106249,1,0,0:0:0:0:
105,177,106342,1,0,0:0:0:0:
74,207,106436,1,0,0:0:0:0:
59,247,106530,2,0,P|76:324|184:333,1,170
155,347,106999,1,0,0:0:0:0:
222,294,107186,1,0,0:0:0:0:
