osu file format v14

[General]
AudioFilename: Tim Kiefer - Manlorette Party.mp3
AudioLeadIn: 0
PreviewTime: 88478
Countdown: 0
SampleSet: Soft
StackLeniency: 0.5
Mode: 0
LetterboxInBreaks: 1
WidescreenStoryboard: 1

[Editor]
DistanceSpacing: 1.5
BeatDivisor: 4
GridSize: 8
TimelineZoom: 1

[Metadata]
Title:Manlorette Party
TitleUnicode:Manlorette Party
Artist:Tim Kiefer
ArtistUnicode:Tim Kiefer
Creator:[ B l u e ]
Version:Insane
Source:Adventure Time
Tags:wedding bells thaw ice king finn jake
BeatmapID:887754
BeatmapSetID:269737

[Difficulty]
HPDrainRate:6
CircleSize:4
OverallDifficulty:6
ApproachRate:8.6
SliderMultiplier:1.8
SliderTickRate:2

[Events]
//Background and Video events
0,0,"adventure-time-15015-1366x768.jpg",0,0
//Break Periods
2,51967,53082
2,55125,55845
2,58283,59398
2,61441,62555
2,113941,125713
2,140388,141503
2,143546,144266
2,146704,147819
//Storyboard Layer 0 (Background)
//Storyboard Layer 1 (Fail)
//Storyboard Layer 2 (Pass)
//Storyboard Layer 3 (Foreground)
//Storyboard Sound Samples

[TimingPoints]
57.0044184688863,394.736842105263,4,2,1,50,1,0
63214,-80,4,2,1,60,0,1
113741,-100,4,2,1,60,0,0
139004,-100,4,2,1,35,0,0
142162,-100,4,2,1,25,0,0
145320,-100,4,2,1,15,0,0
148478,-100,4,2,1,5,0,0

[Colours]
Combo1 : 64,0,64
Combo2 : 0,255,255
Combo3 : 0,0,255
Combo4 : 0,255,0
Combo5 : 0,255,64
Combo6 : 255,0,128
Combo7 : 255,128,255
Combo8 : 128,0,128

[HitObjects]
209,253,12688,5,0,0:0:0:0:
149,132,12885,1,0,0:0:0:0:
283,143,13083,1,0,0:0:0:0:
73,113,13280,2,0,P|97:71|159:56,2,90
283,143,13872,5,0,0:0:0:0:
351,259,14070,1,0,0:0:0:0:
226,208,14267,1,0,0:0:0:0:
357,179,14464,2,0,L|458:149,1,90
226,208,14859,1,0,0:0:0:0:
351,49,15057,5,0,0:0:0:0:
373,181,15254,1,0,0:0:0:0:
233,83,15451,2,0,P|194:67|134:66,1,90
308,229,15846,5,0,0:0:0:0:
69,300,16043,1,0,0:0:0:0:
204,315,16241,1,0,0:0:0:0:
188,238,16438,2,0,P|242:245|277:284,1,90
69,300,16833,1,0,0:0:0:0:
254,165,17030,5,0,0:0:0:0:
128,200,17228,1,0,0:0:0:0:
168,72,17425,1,0,0:0:0:0:
336,158,17622,2,0,P|316:215|263:242,2,90
154,164,18214,5,0,0:0:0:0:
251,69,18412,1,0,0:0:0:0:
184,186,18609,1,0,0:0:0:0:
213,53,18807,1,0,0:0:0:0:
332,203,19004,5,0,0:0:0:0:
183,329,19201,1,0,0:0:0:0:
312,289,19399,1,0,0:0:0:0:
183,248,19596,2,0,P|126:274|108:304,1,90
375,237,19991,1,0,0:0:0:0:
257,171,20188,5,0,0:0:0:0:
371,99,20385,1,0,0:0:0:0:
375,237,20583,1,0,0:0:0:0:
182,213,20780,1,0,0:0:0:0:
427,175,20978,2,0,P|454:226|446:273,1,90
309,116,21372,5,0,0:0:0:0:
278,247,21570,1,0,0:0:0:0:
232,120,21767,2,0,P|241:74|291:44,1,90
188,277,22162,5,0,0:0:0:0:
81,194,22359,1,0,0:0:0:0:
291,240,22557,1,0,0:0:0:0:
166,292,22754,1,0,0:0:0:0:
203,96,22951,1,0,0:0:0:0:
136,214,23149,1,0,0:0:0:0:
322,104,23346,5,0,0:0:0:0:
275,230,23543,1,0,0:0:0:0:
384,310,23741,1,0,0:0:0:0:
294,209,23938,1,0,0:0:0:0:
126,305,24135,1,0,0:0:0:0:
209,198,24333,1,0,0:0:0:0:
384,310,24530,5,0,0:0:0:0:
248,310,24728,1,0,0:0:0:0:
246,175,24925,1,0,0:0:0:0:
246,175,25024,1,0,0:0:0:0:
246,175,25122,1,0,0:0:0:0:
54,157,25320,6,0,L|74:198,1,45
139,99,25517,2,0,L|160:139,1,45
224,257,25714,5,0,0:0:0:0:
359,181,25912,2,0,P|328:131|335:79,1,90
401,114,26307,1,0,0:0:0:0:
266,253,26504,1,0,0:0:0:0:
390,200,26701,1,0,0:0:0:0:
207,197,26899,2,0,P|186:262|203:293,1,90
192,278,27195,1,0,0:0:0:0:
192,278,27293,1,0,0:0:0:0:
300,121,27491,6,0,P|260:70|149:95,1,180
300,121,28083,1,0,0:0:0:0:
300,121,28280,1,0,0:0:0:0:
82,213,28478,6,0,P|115:269|172:278,1,90
135,277,28774,1,0,0:0:0:0:
135,277,28872,1,0,0:0:0:0:
300,121,29070,1,0,0:0:0:0:
170,158,29267,1,0,0:0:0:0:
295,207,29464,1,0,0:0:0:0:
126,75,29662,1,0,0:0:0:0:
110,208,29859,6,0,P|154:235|215:224,1,90
343,99,30254,2,0,L|380:61,2,45
187,79,30649,1,0,0:0:0:0:
187,79,31043,5,0,0:0:0:0:
330,204,31241,1,0,0:0:0:0:
203,157,31438,1,0,0:0:0:0:
406,107,31635,5,0,0:0:0:0:
325,215,31833,1,0,0:0:0:0:
325,215,31932,1,0,0:0:0:0:
325,215,32030,1,0,0:0:0:0:
330,79,32228,2,0,B|354:29|406:28,1,90
248,166,32622,1,0,0:0:0:0:
384,144,32820,1,0,0:0:0:0:
176,72,33017,1,0,0:0:0:0:
254,253,33214,6,0,P|248:314|210:356,1,90
232,336,33510,1,0,0:0:0:0:
232,336,33609,1,0,0:0:0:0:
182,211,33807,6,0,P|246:171|334:240,1,180
124,136,34399,1,0,0:0:0:0:
96,240,34596,1,0,0:0:0:0:
302,64,34793,5,0,0:0:0:0:
376,177,34991,2,0,L|339:216,1,45
437,124,35188,1,0,0:0:0:0:
231,132,35385,1,0,0:0:0:0:
342,208,35583,1,0,0:0:0:0:
355,73,35780,1,0,0:0:0:0:
204,228,35978,5,0,0:0:0:0:
97,145,36175,1,0,0:0:0:0:
278,197,36372,1,0,0:0:0:0:
96,72,36570,2,0,L|55:46,2,45
224,112,36964,1,0,0:0:0:0:
54,335,37359,5,0,0:0:0:0:
167,260,37557,1,0,0:0:0:0:
114,136,37754,1,0,0:0:0:0:
257,275,37951,6,0,P|323:298|352:293,1,90
341,295,38247,1,0,0:0:0:0:
341,295,38346,1,0,0:0:0:0:
277,117,38543,1,0,0:0:0:0:
182,213,38741,1,0,0:0:0:0:
315,227,38938,1,0,0:0:0:0:
210,71,39135,2,0,B|243:26|309:39,1,90
182,226,39530,5,0,0:0:0:0:
336,144,39728,2,0,L|380:117,2,45
332,301,40122,1,0,0:0:0:0:
149,101,40517,1,0,0:0:0:0:
134,285,40714,6,0,L|105:224,1,45
209,258,40912,2,0,P|207:322|185:349,1,90
150,151,41307,21,0,0:0:0:0:
150,151,41405,1,0,0:0:0:0:
150,151,41504,1,0,0:0:0:0:
310,202,41701,1,0,0:0:0:0:
215,104,41899,2,0,P|175:73|132:67,1,90
259,266,42293,5,0,0:0:0:0:
393,252,42491,1,0,0:0:0:0:
320,138,42688,1,0,0:0:0:0:
132,214,42885,1,0,0:0:0:0:
132,214,42984,1,0,0:0:0:0:
132,214,43083,1,0,0:0:0:0:
187,91,43280,1,0,0:0:0:0:
308,332,43675,5,0,0:0:0:0:
246,212,43872,2,0,L|286:179,1,45
175,175,44070,2,0,P|171:238|192:268,1,90
75,149,44464,2,0,L|80:88,1,45
68,232,44662,5,0,0:0:0:0:
281,331,44859,1,0,0:0:0:0:
148,304,45057,1,0,0:0:0:0:
249,215,45254,1,0,0:0:0:0:
115,64,45451,2,0,P|115:123|137:150,1,90
332,175,45846,1,0,0:0:0:0:
184,272,46043,2,0,L|144:304,2,45
285,317,46438,1,0,0:0:0:0:
152,81,46833,5,0,0:0:0:0:
258,162,47030,1,0,0:0:0:0:
329,46,47228,1,0,0:0:0:0:
151,98,47425,5,0,0:0:0:0:
90,218,47622,1,0,0:0:0:0:
90,218,47721,1,0,0:0:0:0:
90,218,47820,1,0,0:0:0:0:
305,241,48017,1,0,0:0:0:0:
174,275,48214,1,0,0:0:0:0:
321,144,48412,1,0,0:0:0:0:
279,272,48609,5,0,0:0:0:0:
194,166,48807,1,0,0:0:0:0:
327,148,49004,1,0,0:0:0:0:
99,289,49201,2,0,L|64:320,2,45
196,301,49596,1,0,0:0:0:0:
338,71,49991,5,0,0:0:0:0:
205,95,50188,1,0,0:0:0:0:
299,191,50385,1,0,0:0:0:0:
96,96,50583,6,0,B|80:160|104:208|104:208|168:256|120:352,2,270
352,128,53741,6,0,P|296:216|184:104,2,270
72,160,56504,5,0,0:0:0:0:
152,200,56701,1,0,0:0:0:0:
232,232,56899,2,0,B|320:160|304:80|304:80|208:48,2,270
80,136,60057,6,0,B|184:112|192:264|328:200,2,270
152,152,63214,6,0,L|192:112,1,56.25
194,274,63412,2,0,L|234:234,1,56.25
324,120,63609,5,0,0:0:0:0:
324,120,63807,1,0,0:0:0:0:
434,246,64004,1,0,0:0:0:0:
459,79,64201,1,0,0:0:0:0:
350,208,64399,1,0,0:0:0:0:
219,101,64596,1,0,0:0:0:0:
385,127,64793,5,0,0:0:0:0:
228,192,64991,5,0,0:0:0:0:
228,192,65089,1,0,0:0:0:0:
228,192,65188,1,0,0:0:0:0:
378,266,65385,1,0,0:0:0:0:
84,98,65780,6,0,P|55:156|84:220,1,112.5
129,159,66175,1,0,0:0:0:0:
282,229,66372,5,0,0:0:0:0:
419,130,66570,1,0,0:0:0:0:
262,67,66767,1,0,0:0:0:0:
390,272,66964,1,0,0:0:0:0:
220,275,67162,1,0,0:0:0:0:
364,187,67359,1,0,0:0:0:0:
274,330,67557,5,0,0:0:0:0:
263,161,67754,1,0,0:0:0:0:
134,269,67951,1,0,0:0:0:0:
303,96,68149,2,0,P|241:86|194:126,2,112.5
159,185,68741,5,0,0:0:0:0:
51,55,68938,1,0,0:0:0:0:
86,219,69135,1,0,0:0:0:0:
128,55,69333,1,0,0:0:0:0:
17,181,69530,5,0,0:0:0:0:
175,120,69728,1,0,0:0:0:0:
175,120,69826,1,0,0:0:0:0:
175,120,69925,2,0,P|242:124|270:155,1,112.5
155,279,70320,1,0,0:0:0:0:
317,234,70517,1,0,0:0:0:0:
152,195,70714,5,0,0:0:0:0:
271,315,70912,1,0,0:0:0:0:
304,149,71109,1,0,0:0:0:0:
139,234,71307,2,0,L|199:234,1,56.25
307,233,71504,1,0,0:0:0:0:
191,110,71701,1,0,0:0:0:0:
108,257,71899,5,0,0:0:0:0:
96,88,72096,1,0,0:0:0:0:
240,175,72293,1,0,0:0:0:0:
71,163,72491,2,0,P|22:118|21:72,1,112.5
188,70,72885,5,0,0:0:0:0:
316,180,73083,1,0,0:0:0:0:
150,146,73280,1,0,0:0:0:0:
311,96,73478,1,0,0:0:0:0:
219,237,73675,1,0,0:0:0:0:
224,68,73872,5,0,0:0:0:0:
145,217,74070,2,0,P|150:275|211:313,1,112.5
69,190,74464,1,0,0:0:0:0:
219,112,74662,1,0,0:0:0:0:
257,275,74859,1,0,0:0:0:0:
144,148,75057,1,0,0:0:0:0:
312,150,75254,1,0,0:0:0:0:
164,68,75451,1,0,0:0:0:0:
258,208,75649,1,0,0:0:0:0:
432,88,75846,6,0,P|472:160|456:208,1,112.5
328,280,76241,1,0,0:0:0:0:
248,136,76438,1,0,0:0:0:0:
392,216,76635,1,0,0:0:0:0:
224,224,76833,1,0,0:0:0:0:
336,104,77030,2,0,P|296:56|232:48,1,112.5
56,248,77425,5,0,0:0:0:0:
144,104,77622,1,0,0:0:0:0:
184,272,77820,1,0,0:0:0:0:
48,64,78017,1,0,0:0:0:0:
240,184,78214,2,0,P|304:192|376:168,1,112.5
480,72,78609,2,0,P|425:60|369:69,1,112.5
248,272,79004,5,0,0:0:0:0:
152,136,79201,1,0,0:0:0:0:
152,136,79300,1,0,0:0:0:0:
152,136,79399,1,0,0:0:0:0:
344,264,79596,1,0,0:0:0:0:
352,96,79793,1,0,0:0:0:0:
232,216,79991,1,0,0:0:0:0:
392,168,80188,6,0,P|424:120|416:48,2,112.5
232,112,80780,1,0,0:0:0:0:
232,112,80879,1,0,0:0:0:0:
232,112,80978,1,0,0:0:0:0:
128,200,81175,1,0,0:0:0:0:
312,184,81372,5,0,0:0:0:0:
312,184,81570,1,0,0:0:0:0:
168,96,81767,1,0,0:0:0:0:
168,96,81964,1,0,0:0:0:0:
336,104,82162,6,0,P|392:168|392:200,1,112.5
312,184,82557,1,0,0:0:0:0:
208,312,82754,1,0,0:0:0:0:
200,144,82951,1,0,0:0:0:0:
296,280,83149,1,0,0:0:0:0:
80,168,83346,5,0,0:0:0:0:
208,56,83543,1,0,0:0:0:0:
360,136,83741,1,0,0:0:0:0:
184,240,83938,2,0,P|160:184|184:128,1,112.5
232,184,84333,1,0,0:0:0:0:
88,264,84530,5,0,0:0:0:0:
232,176,84728,1,0,0:0:0:0:
248,344,84925,1,0,0:0:0:0:
104,264,85122,1,0,0:0:0:0:
304,128,85320,6,0,P|320:200|304:240,1,112.5
232,288,85714,1,0,0:0:0:0:
240,88,85912,2,0,P|280:56|344:64,1,112.5
304,128,86307,1,0,0:0:0:0:
160,288,86504,6,0,B|104:256|96:176|96:176|128:136|104:56,1,225
272,48,87096,1,0,0:0:0:0:
224,208,87293,1,0,0:0:0:0:
184,40,87491,1,0,0:0:0:0:
312,144,87688,5,0,0:0:0:0:
448,48,87885,1,0,0:0:0:0:
280,56,88083,1,0,0:0:0:0:
368,200,88280,1,0,0:0:0:0:
232,112,88478,6,0,P|160:96|104:120,1,112.5
104,128,88774,1,0,0:0:0:0:
96,152,88872,1,0,0:0:0:0:
176,288,89070,1,0,0:0:0:0:
176,288,89464,5,0,0:0:0:0:
312,136,89662,1,0,0:0:0:0:
296,264,89859,1,0,0:0:0:0:
192,136,90057,2,0,L|280:32,1,112.5
264,50,90353,1,0,0:0:0:0:
264,50,90451,1,0,0:0:0:0:
120,224,90649,1,0,0:0:0:0:
120,224,91043,5,0,0:0:0:0:
352,280,91241,1,0,0:0:0:0:
208,192,91438,1,0,0:0:0:0:
120,336,91635,1,0,0:0:0:0:
336,192,91833,2,0,P|360:168|368:144,1,56.25
272,240,92030,1,0,0:0:0:0:
208,192,92228,1,0,0:0:0:0:
64,296,92622,5,0,0:0:0:0:
72,128,92820,1,0,0:0:0:0:
200,232,93017,1,0,0:0:0:0:
64,296,93214,2,0,P|80:232|128:224,1,112.5
192,264,93510,2,0,P|192:296|176:328,1,56.25
156,150,93807,1,0,0:0:0:0:
156,150,94201,5,0,0:0:0:0:
400,170,94399,1,0,0:0:0:0:
238,120,94596,1,0,0:0:0:0:
320,267,94793,1,0,0:0:0:0:
153,298,94991,1,0,0:0:0:0:
153,298,95089,1,0,0:0:0:0:
153,298,95188,1,0,0:0:0:0:
83,245,95385,2,0,P|144:213|219:336,1,225
57,321,95978,2,0,P|10:280|7:230,1,112.5
205,125,96372,5,0,0:0:0:0:
342,223,96570,1,0,0:0:0:0:
342,223,96668,1,0,0:0:0:0:
342,223,96767,1,0,0:0:0:0:
175,195,96964,2,0,B|104:128|104:128|79:53|168:24,1,225
252,162,97557,2,0,P|250:233|214:268,1,112.5
372,70,97951,6,0,L|387:185,1,112.5
457,93,98247,2,0,P|463:61|459:31,1,56.25
266,120,98543,1,0,0:0:0:0:
266,120,98938,1,0,0:0:0:0:
289,294,99135,1,0,0:0:0:0:
119,294,99333,1,0,0:0:0:0:
317,146,99530,6,0,P|390:122|436:164,1,112.5
244,171,99826,2,0,P|239:137|252:109,1,56.25
289,294,100122,1,0,0:0:0:0:
289,294,100517,1,0,0:0:0:0:
64,192,100714,1,0,0:0:0:0:
216,328,100912,1,0,0:0:0:0:
380,166,101109,5,0,0:0:0:0:
353,333,101307,2,0,L|392:288,1,56.25
444,213,101504,6,0,P|435:107|314:208,1,337.5
172,298,102293,1,0,0:0:0:0:
67,164,102491,1,0,0:0:0:0:
235,165,102688,1,0,0:0:0:0:
60,310,102885,2,0,P|90:283|102:264,1,56.25
160,151,103083,6,0,P|163:88|91:189,1,337.5
202,262,103872,1,0,0:0:0:0:
357,194,104070,1,0,0:0:0:0:
195,145,104267,1,0,0:0:0:0:
73,42,104464,2,0,P|84:62|89:100,1,56.25
103,224,104662,2,0,P|192:233|304:40,1,337.5
121,138,105451,1,0,0:0:0:0:
160,304,105649,1,0,0:0:0:0:
208,144,105846,1,0,0:0:0:0:
104,64,106043,2,0,P|174:91|175:93,1,56.25
256,168,106241,6,0,P|339:191|274:46,1,337.5
192,64,107030,1,0,0:0:0:0:
120,128,107228,1,0,0:0:0:0:
84,218,107425,6,0,P|134:271|206:282,1,112.5
197,276,107721,1,0,0:0:0:0:
221,261,107820,1,0,0:0:0:0:
219,92,108017,1,0,0:0:0:0:
219,92,108412,1,0,0:0:0:0:
177,167,108609,1,0,0:0:0:0:
280,33,108807,1,0,0:0:0:0:
260,200,109004,6,0,P|278:272|326:303,1,112.5
305,294,109300,1,0,0:0:0:0:
305,294,109399,1,0,0:0:0:0:
181,271,109596,1,0,0:0:0:0:
181,271,109991,1,0,0:0:0:0:
39,75,110188,1,0,0:0:0:0:
82,237,110385,1,0,0:0:0:0:
156,84,110583,5,0,0:0:0:0:
322,56,110780,2,0,P|337:88|336:115,1,56.25
302,186,110978,1,0,0:0:0:0:
200,160,111175,1,0,0:0:0:0:
200,160,111570,1,0,0:0:0:0:
96,264,111767,1,0,0:0:0:0:
204,343,111964,1,0,0:0:0:0:
331,231,112162,6,0,P|359:171|345:118,1,112.5
283,75,112458,2,0,P|249:73|215:97,1,56.25
139,225,112754,1,0,0:0:0:0:
85,157,112951,6,0,P|145:141|225:218,1,168.75
267,135,113346,2,0,L|316:91,1,56.25
280,265,113543,1,0,0:0:0:0:
210,64,113741,5,0,0:0:0:0:
190,228,126372,5,0,0:0:0:0:
306,296,126570,1,0,0:0:0:0:
306,296,126668,1,0,0:0:0:0:
306,296,126767,1,0,0:0:0:0:
111,306,126964,2,0,P|81:244|97:197,1,90
167,119,127359,1,0,0:0:0:0:
293,168,127557,1,0,0:0:0:0:
221,286,127754,1,0,0:0:0:0:
247,153,127951,6,0,P|308:101|377:130,1,135
319,175,128346,1,0,0:0:0:0:
132,127,128543,1,0,0:0:0:0:
263,235,128938,2,0,P|270:260|268:283,1,45
228,332,129135,2,0,P|159:352|114:325,1,90
205,165,129530,5,0,0:0:0:0:
315,86,129728,1,0,0:0:0:0:
315,86,129826,1,0,0:0:0:0:
315,86,129925,1,0,0:0:0:0:
114,111,130122,1,0,0:0:0:0:
292,196,130320,1,0,0:0:0:0:
197,32,130517,1,0,0:0:0:0:
155,217,130714,2,0,P|177:277|219:286,1,90
377,209,131109,5,0,0:0:0:0:
320,85,131307,1,0,0:0:0:0:
320,85,131405,1,0,0:0:0:0:
320,85,131504,1,0,0:0:0:0:
448,125,131701,1,0,0:0:0:0:
198,228,132096,6,0,P|149:171|160:147,2,90
367,158,132688,1,0,0:0:0:0:
178,76,132885,1,0,0:0:0:0:
178,76,132984,1,0,0:0:0:0:
178,76,133083,1,0,0:0:0:0:
261,291,133280,1,0,0:0:0:0:
256,155,133478,1,0,0:0:0:0:
348,252,133675,1,0,0:0:0:0:
184,195,133872,2,0,P|176:151|198:96,1,90
413,55,134267,6,0,P|457:99|423:188,1,135
388,124,134662,1,0,0:0:0:0:
211,58,134859,1,0,0:0:0:0:
348,290,135254,1,0,0:0:0:0:
132,310,135451,1,0,0:0:0:0:
272,235,135649,1,0,0:0:0:0:
75,197,135846,5,0,0:0:0:0:
188,124,136043,1,0,0:0:0:0:
188,124,136142,1,0,0:0:0:0:
188,124,136241,1,0,0:0:0:0:
190,258,136438,1,0,0:0:0:0:
112,71,136635,6,0,P|162:37|203:38,1,90
290,209,137030,1,0,0:0:0:0:
431,113,137228,1,0,0:0:0:0:
374,235,137425,1,0,0:0:0:0:
368,55,137622,1,0,0:0:0:0:
178,167,137820,1,0,0:0:0:0:
356,135,138017,1,0,0:0:0:0:
158,141,138214,5,0,0:0:0:0:
116,269,138412,1,0,0:0:0:0:
225,190,138609,1,0,0:0:0:0:
89,188,138807,1,0,0:0:0:0:
198,266,139004,6,0,P|274:291|412:176,2,270
126,104,142162,6,0,P|182:148|170:30,2,270
160,245,144925,5,0,0:0:0:0:
291,217,145122,1,0,0:0:0:0:
167,161,145320,2,0,P|93:200|183:326,2,270
255,69,148478,6,0,B|255:133|255:133|236:175|236:175|257:219|257:219|257:345,2,270
256,192,149760,12,0,151438,0:0:0:0:
