osu file format v14

[General]
AudioFilename: audio.mp3
AudioLeadIn: 0
PreviewTime: 82
Countdown: 1
SampleSet: Soft
StackLeniency: 0.2
Mode: 0
LetterboxInBreaks: 0
WidescreenStoryboard: 0

[Editor]
DistanceSpacing: 1.9
BeatDivisor: 4
GridSize: 4
TimelineZoom: 1.5

[Metadata]
Title:Nigeba Nashi
TitleUnicode:逃げ場なし
Artist:Tiko-mu
ArtistUnicode:Tiko-μ
Creator:Stick2Glue
Version:Ransom
Source:G線上の魔王
Tags:G-Senjou no Maoubeethoven appassionata 3rd movement visual novel
BeatmapID:1720579
BeatmapSetID:820847

[Difficulty]
HPDrainRate:4
CircleSize:4.1
OverallDifficulty:10
ApproachRate:9.6
SliderMultiplier:2.1
SliderTickRate:1

[Events]
//Background and Video events
0,0,"g-senjou-no-maou-the-devil-on-g-string-2.jpg",0,0
//Break Periods
2,84210,88501
//Storyboard Layer 0 (Background)
//Storyboard Layer 1 (Fail)
//Storyboard Layer 2 (Pass)
//Storyboard Layer 3 (Foreground)
//Storyboard Layer 4 (Overlay)
//Storyboard Sound Samples

[TimingPoints]
440,357.142857142857,4,2,0,100,1,0
14011,357.142857142857,4,2,0,100,1,0

[Colours]
Combo1 : 115,0,115
Combo2 : 128,0,128
Combo3 : 223,106,0
Combo4 : 234,234,234
Combo5 : 0,0,0
Combo6 : 71,71,71

[HitObjects]
140,122,440,5,0,0:0:0:0:
113,337,975,5,0,0:0:0:0:
147,52,1154,1,0,0:0:0:0:
184,21,1689,5,0,0:0:0:0:
218,306,1868,1,0,0:0:0:0:
248,287,2136,5,0,0:0:0:0:
265,144,2225,1,0,0:0:0:0:
295,125,2493,5,0,0:0:0:0:
312,267,2582,1,0,0:0:0:0:
342,248,2851,5,0,0:0:0:0:
359,105,2940,1,0,0:0:0:0:
389,86,3208,5,0,0:0:0:0:
406,228,3297,1,0,0:0:0:0:
406,228,3832,5,0,0:0:0:0:
398,265,3922,1,0,0:0:0:0:
402,302,4011,5,0,0:0:0:0:
352,291,4100,1,0,0:0:0:0:
301,282,4189,1,0,0:0:0:0:
250,270,4279,1,0,0:0:0:0:
221,311,4368,1,0,0:0:0:0:
174,330,4457,1,0,0:0:0:0:
126,348,4547,1,0,0:0:0:0:
78,365,4636,1,0,0:0:0:0:
69,314,4725,1,0,0:0:0:0:
69,314,5261,5,0,0:0:0:0:
63,263,5350,1,0,0:0:0:0:
59,212,5439,5,0,0:0:0:0:
110,216,5529,1,0,0:0:0:0:
156,194,5618,1,0,0:0:0:0:
178,148,5707,1,0,0:0:0:0:
174,96,5797,1,0,0:0:0:0:
205,136,5886,1,0,0:0:0:0:
253,150,5975,1,0,0:0:0:0:
302,137,6064,1,0,0:0:0:0:
337,99,6154,1,0,0:0:0:0:
337,99,6689,5,0,0:0:0:0:
364,55,6779,1,0,0:0:0:0:
388,10,6868,5,0,0:0:0:0:
432,33,6957,1,0,0:0:0:0:
456,78,7047,1,0,0:0:0:0:
453,128,7136,1,0,0:0:0:0:
420,167,7225,5,0,0:0:0:0:
363,185,7314,1,0,0:0:0:0:
307,207,7404,1,0,0:0:0:0:
269,252,7493,1,0,0:0:0:0:
252,308,7582,5,0,0:0:0:0:
202,319,7672,1,0,0:0:0:0:
151,310,7761,1,0,0:0:0:0:
108,282,7850,1,0,0:0:0:0:
82,237,7940,5,0,0:0:0:0:
79,173,8029,1,0,0:0:0:0:
112,118,8118,1,0,0:0:0:0:
169,88,8208,1,0,0:0:0:0:
232,91,8297,5,0,0:0:0:0:
218,144,8386,1,0,0:0:0:0:
164,157,8475,1,0,0:0:0:0:
112,136,8564,1,0,0:0:0:0:
93,83,8654,5,0,0:0:0:0:
128,40,8743,1,0,0:0:0:0:
180,22,8832,1,0,0:0:0:0:
235,23,8922,1,0,0:0:0:0:
286,42,9011,5,0,0:0:0:0:
301,107,9100,1,0,0:0:0:0:
311,174,9189,1,0,0:0:0:0:
323,241,9279,1,0,0:0:0:0:
290,300,9368,2,0,L|215:293,1,52.5
101,250,9547,5,0,0:0:0:0:
70,271,9636,1,0,0:0:0:0:
39,292,9725,2,0,L|114:285,1,52.5
323,241,9904,5,0,0:0:0:0:
354,262,9993,1,0,0:0:0:0:
385,283,10082,2,0,L|310:276,1,52.5
163,208,10261,5,0,0:0:0:0:
132,229,10350,1,0,0:0:0:0:
101,250,10439,2,0,L|176:243,1,52.5
385,199,10618,5,0,0:0:0:0:
416,220,10707,1,0,0:0:0:0:
447,241,10796,2,0,L|372:234,1,52.5
225,166,10975,5,0,0:0:0:0:
194,187,11064,1,0,0:0:0:0:
163,208,11153,2,0,L|156:133,1,52.5
327,246,11332,5,0,0:0:0:0:
358,267,11421,1,0,0:0:0:0:
389,288,11510,2,0,L|396:213,1,52.5
163,208,11689,5,0,0:0:0:0:
132,229,11778,1,0,0:0:0:0:
101,250,11867,2,0,L|94:175,1,52.5
322,298,12046,5,0,0:0:0:0:
353,319,12135,1,0,0:0:0:0:
384,340,12224,2,0,L|391:265,1,52.5
101,250,12404,5,0,0:0:0:0:
70,271,12493,1,0,0:0:0:0:
39,292,12582,5,0,0:0:0:0:
98,314,12672,1,0,0:0:0:0:
160,311,12761,1,0,0:0:0:0:
214,278,12850,1,0,0:0:0:0:
244,222,12939,1,0,0:0:0:0:
245,158,13029,1,0,0:0:0:0:
220,100,13118,1,0,0:0:0:0:
168,64,13207,1,0,0:0:0:0:
104,56,13297,5,0,0:0:0:0:
100,118,13386,1,0,0:0:0:0:
144,166,13475,1,0,0:0:0:0:
202,189,13564,1,0,0:0:0:0:
259,161,13654,1,0,0:0:0:0:
307,200,13743,1,0,0:0:0:0:
346,151,13832,1,0,0:0:0:0:
396,189,13922,1,0,0:0:0:0:
435,140,14011,6,0,P|396:78|312:65,1,157.5
269,85,14368,1,0,0:0:0:0:
219,102,14457,1,0,0:0:0:0:
166,104,14546,1,0,0:0:0:0:
116,86,14636,1,0,0:0:0:0:
77,50,14725,6,0,L|69:-9,3,52.5
113,114,15082,2,0,L|125:175,1,52.5
185,232,15261,1,0,0:0:0:0:
143,241,15350,1,0,0:0:0:0:
97,311,15439,6,0,B|145:320|145:320|254:285,1,157.5
298,269,15796,1,0,0:0:0:0:
348,251,15886,1,0,0:0:0:0:
387,217,15975,1,0,0:0:0:0:
409,264,16064,1,0,0:0:0:0:
422,314,16153,6,0,L|344:347,3,52.5
214,225,16511,2,0,L|289:195,1,52.5
337,176,16689,1,0,0:0:0:0:
386,159,16778,1,0,0:0:0:0:
416,67,16868,6,0,B|346:40|346:40|303:55|256:50,1,157.5
219,78,17225,1,0,0:0:0:0:
259,110,17314,1,0,0:0:0:0:
275,159,17403,1,0,0:0:0:0:
269,211,17493,1,0,0:0:0:0:
235,251,17582,2,0,L|169:289,3,52.5
90,236,17939,2,0,L|153:200,1,52.5
154,120,18118,1,0,0:0:0:0:
105,139,18207,1,0,0:0:0:0:
83,34,18296,6,0,L|138:45,1,52.5
218,37,18475,1,0,0:0:0:0:
204,82,18564,1,0,0:0:0:0:
292,78,18653,2,0,L|362:96,1,52.5
429,89,18832,1,0,0:0:0:0:
415,134,18921,1,0,0:0:0:0:
374,258,19011,6,0,L|394:199,1,52.5
306,229,19189,1,0,0:0:0:0:
292,274,19278,1,0,0:0:0:0:
343,348,19368,6,0,L|363:289,1,52.5
275,319,19546,1,0,0:0:0:0:
261,364,19635,1,0,0:0:0:0:
177,333,19725,6,0,L|94:331,1,52.5
57,241,19903,1,0,0:0:0:0:
112,257,19993,1,0,0:0:0:0:
168,245,20082,1,0,0:0:0:0:
210,205,20171,1,0,0:0:0:0:
226,149,20260,1,0,0:0:0:0:
215,91,20350,1,0,0:0:0:0:
85,124,20439,6,0,B|106:178|85:222|59:276|86:336,1,210
200,294,20975,1,0,0:0:0:0:
158,288,21064,1,0,0:0:0:0:
254,214,21153,6,0,L|327:227,1,52.5
346,310,21332,1,0,0:0:0:0:
393,269,21421,1,0,0:0:0:0:
415,210,21510,1,0,0:0:0:0:
407,147,21600,1,0,0:0:0:0:
373,94,21689,1,0,0:0:0:0:
316,67,21778,1,0,0:0:0:0:
166,143,21868,6,0,B|120:175|123:235|123:235|185:229|211:182,1,210
284,232,22403,1,0,0:0:0:0:
264,269,22493,1,0,0:0:0:0:
347,288,22582,6,0,L|378:224,1,52.5
436,323,22760,1,0,0:0:0:0:
388,365,22850,1,0,0:0:0:0:
326,378,22939,1,0,0:0:0:0:
264,367,23028,1,0,0:0:0:0:
213,328,23118,1,0,0:0:0:0:
154,305,23207,5,0,0:0:0:0:
150,129,23296,2,0,B|248:88|248:88|313:88|367:128,1,210
288,178,23832,1,0,0:0:0:0:
250,159,23921,1,0,0:0:0:0:
170,204,24010,5,0,0:0:0:0:
203,230,24100,1,0,0:0:0:0:
276,263,24189,2,0,L|232:317,1,52.5
326,112,24368,5,0,0:0:0:0:
293,86,24458,1,0,0:0:0:0:
220,53,24547,2,0,L|264:-1,1,52.5
133,76,24725,5,0,0:0:0:0:
91,92,24814,1,0,0:0:0:0:
90,191,24903,2,0,L|152:213,1,52.5
81,298,25082,5,0,0:0:0:0:
126,319,25171,1,0,0:0:0:0:
210,330,25260,5,0,0:0:0:0:
255,309,25349,1,0,0:0:0:0:
425,264,25439,6,0,P|399:226|403:141,1,105
411,118,25707,1,0,0:0:0:0:
442,76,25796,1,0,0:0:0:0:
401,42,25885,1,0,0:0:0:0:
348,36,25975,1,0,0:0:0:0:
300,57,26064,1,0,0:0:0:0:
203,98,26153,5,0,0:0:0:0:
161,131,26243,1,0,0:0:0:0:
109,140,26332,1,0,0:0:0:0:
58,127,26421,1,0,0:0:0:0:
33,80,26510,1,0,0:0:0:0:
61,35,26600,1,0,0:0:0:0:
113,35,26689,1,0,0:0:0:0:
147,74,26778,1,0,0:0:0:0:
161,177,26868,5,0,0:0:0:0:
148,227,26957,1,0,0:0:0:0:
105,257,27046,1,0,0:0:0:0:
52,262,27135,1,0,0:0:0:0:
4,238,27225,1,0,0:0:0:0:
52,218,27314,1,0,0:0:0:0:
103,223,27403,1,0,0:0:0:0:
144,256,27493,1,0,0:0:0:0:
194,267,27582,5,0,0:0:0:0:
161,207,27671,1,0,0:0:0:0:
164,139,27760,1,0,0:0:0:0:
204,83,27850,1,0,0:0:0:0:
266,57,27939,1,0,0:0:0:0:
333,67,28028,1,0,0:0:0:0:
381,115,28118,1,0,0:0:0:0:
397,181,28207,1,0,0:0:0:0:
376,246,28296,5,0,0:0:0:0:
321,265,28385,1,0,0:0:0:0:
307,321,28475,1,0,0:0:0:0:
344,364,28564,1,0,0:0:0:0:
401,369,28653,1,0,0:0:0:0:
440,326,28743,1,0,0:0:0:0:
459,271,28832,1,0,0:0:0:0:
468,214,28921,1,0,0:0:0:0:
459,98,29010,5,0,0:0:0:0:
419,56,29099,1,0,0:0:0:0:
362,45,29188,1,0,0:0:0:0:
306,60,29278,1,0,0:0:0:0:
264,100,29367,1,0,0:0:0:0:
207,112,29456,1,0,0:0:0:0:
151,95,29545,1,0,0:0:0:0:
119,45,29635,1,0,0:0:0:0:
90,171,29725,5,0,0:0:0:0:
136,205,29814,1,0,0:0:0:0:
193,212,29903,1,0,0:0:0:0:
246,189,29993,1,0,0:0:0:0:
271,137,30082,1,0,0:0:0:0:
270,194,30171,1,0,0:0:0:0:
270,251,30260,1,0,0:0:0:0:
265,309,30350,1,0,0:0:0:0:
227,353,30439,5,0,0:0:0:0:
159,343,30528,1,0,0:0:0:0:
92,324,30618,1,0,0:0:0:0:
159,320,30707,1,0,0:0:0:0:
226,316,30796,1,0,0:0:0:0:
293,312,30885,1,0,0:0:0:0:
361,308,30975,1,0,0:0:0:0:
428,304,31064,1,0,0:0:0:0:
495,300,31153,5,0,0:0:0:0:
466,249,31243,1,0,0:0:0:0:
411,230,31332,1,0,0:0:0:0:
358,253,31421,1,0,0:0:0:0:
328,302,31510,1,0,0:0:0:0:
269,303,31600,1,0,0:0:0:0:
211,304,31689,1,0,0:0:0:0:
153,305,31778,1,0,0:0:0:0:
50,358,31868,5,0,0:0:0:0:
95,322,31957,1,0,0:0:0:0:
121,270,32046,1,0,0:0:0:0:
123,212,32135,1,0,0:0:0:0:
94,161,32225,1,0,0:0:0:0:
75,106,32314,1,0,0:0:0:0:
94,51,32403,1,0,0:0:0:0:
147,27,32493,1,0,0:0:0:0:
202,127,32582,5,0,0:0:0:0:
218,182,32671,1,0,0:0:0:0:
222,239,32760,1,0,0:0:0:0:
205,294,32850,1,0,0:0:0:0:
161,331,32939,1,0,0:0:0:0:
213,354,33028,1,0,0:0:0:0:
270,348,33118,1,0,0:0:0:0:
320,319,33207,1,0,0:0:0:0:
350,270,33296,5,0,0:0:0:0:
376,218,33385,1,0,0:0:0:0:
366,102,33475,5,0,0:0:0:0:
340,154,33564,1,0,0:0:0:0:
242,206,33653,5,0,0:0:0:0:
268,154,33742,1,0,0:0:0:0:
258,38,33832,5,0,0:0:0:0:
232,90,33921,1,0,0:0:0:0:
169,214,34010,5,0,0:0:0:0:
112,201,34100,1,0,0:0:0:0:
78,150,34189,1,0,0:0:0:0:
93,94,34278,1,0,0:0:0:0:
145,69,34368,1,0,0:0:0:0:
182,112,34457,1,0,0:0:0:0:
239,119,34546,1,0,0:0:0:0:
290,92,34635,1,0,0:0:0:0:
378,17,34725,5,0,0:0:0:0:
321,26,34814,1,0,0:0:0:0:
263,30,34903,1,0,0:0:0:0:
205,22,34993,1,0,0:0:0:0:
148,10,35082,1,0,0:0:0:0:
97,38,35171,1,0,0:0:0:0:
80,92,35260,1,0,0:0:0:0:
104,144,35350,1,0,0:0:0:0:
96,258,35439,5,0,0:0:0:0:
85,319,35528,1,0,0:0:0:0:
37,360,35618,1,0,0:0:0:0:
55,300,35707,1,0,0:0:0:0:
110,271,35796,1,0,0:0:0:0:
171,283,35885,1,0,0:0:0:0:
220,322,35975,1,0,0:0:0:0:
282,319,36064,1,0,0:0:0:0:
399,273,36153,5,0,0:0:0:0:
448,234,36242,1,0,0:0:0:0:
480,180,36331,1,0,0:0:0:0:
488,242,36420,1,0,0:0:0:0:
490,305,36510,1,0,0:0:0:0:
459,357,36599,1,0,0:0:0:0:
396,373,36688,1,0,0:0:0:0:
335,353,36778,1,0,0:0:0:0:
300,231,36868,5,0,0:0:0:0:
299,168,36957,1,0,0:0:0:0:
344,124,37046,1,0,0:0:0:0:
384,75,37136,1,0,0:0:0:0:
384,12,37225,1,0,0:0:0:0:
321,18,37314,1,0,0:0:0:0:
258,24,37403,1,0,0:0:0:0:
194,31,37493,1,0,0:0:0:0:
131,38,37582,5,0,0:0:0:0:
203,54,37671,1,0,0:0:0:0:
261,102,37760,1,0,0:0:0:0:
290,171,37849,1,0,0:0:0:0:
284,245,37939,1,0,0:0:0:0:
244,309,38028,1,0,0:0:0:0:
180,347,38117,1,0,0:0:0:0:
106,351,38207,1,0,0:0:0:0:
37,321,38296,5,0,0:0:0:0:
84,279,38385,1,0,0:0:0:0:
147,276,38475,1,0,0:0:0:0:
200,309,38564,1,0,0:0:0:0:
249,347,38653,1,0,0:0:0:0:
311,355,38743,1,0,0:0:0:0:
369,331,38832,1,0,0:0:0:0:
407,281,38921,1,0,0:0:0:0:
491,375,39010,5,0,0:0:0:0:
427,377,39100,1,0,0:0:0:0:
364,374,39189,1,0,0:0:0:0:
316,333,39278,1,0,0:0:0:0:
293,273,39368,1,0,0:0:0:0:
286,210,39457,1,0,0:0:0:0:
285,147,39546,1,0,0:0:0:0:
286,84,39635,1,0,0:0:0:0:
405,43,39725,5,0,0:0:0:0:
406,105,39814,1,0,0:0:0:0:
382,163,39903,1,0,0:0:0:0:
330,199,39993,1,0,0:0:0:0:
267,206,40082,1,0,0:0:0:0:
208,183,40171,1,0,0:0:0:0:
173,130,40260,1,0,0:0:0:0:
167,66,40350,1,0,0:0:0:0:
193,3,40439,5,0,0:0:0:0:
263,21,40528,1,0,0:0:0:0:
302,83,40618,1,0,0:0:0:0:
286,154,40707,1,0,0:0:0:0:
223,192,40796,1,0,0:0:0:0:
160,230,40885,1,0,0:0:0:0:
144,301,40974,1,0,0:0:0:0:
183,363,41064,1,0,0:0:0:0:
253,381,41153,5,0,0:0:0:0:
269,319,41243,1,0,0:0:0:0:
311,272,41332,1,0,0:0:0:0:
369,249,41421,1,0,0:0:0:0:
428,267,41510,1,0,0:0:0:0:
436,329,41600,1,0,0:0:0:0:
386,368,41689,1,0,0:0:0:0:
330,339,41778,1,0,0:0:0:0:
236,253,41868,5,0,0:0:0:0:
298,257,41957,1,0,0:0:0:0:
356,233,42046,1,0,0:0:0:0:
389,179,42135,1,0,0:0:0:0:
391,115,42225,1,0,0:0:0:0:
331,95,42314,1,0,0:0:0:0:
268,85,42403,1,0,0:0:0:0:
205,79,42493,1,0,0:0:0:0:
82,51,42582,5,0,0:0:0:0:
104,109,42671,1,0,0:0:0:0:
126,167,42760,1,0,0:0:0:0:
148,226,42850,1,0,0:0:0:0:
202,257,42939,1,0,0:0:0:0:
140,271,43028,1,0,0:0:0:0:
78,256,43118,1,0,0:0:0:0:
39,206,43207,1,0,0:0:0:0:
89,168,43296,5,0,0:0:0:0:
108,227,43385,1,0,0:0:0:0:
158,342,43475,5,0,0:0:0:0:
176,282,43564,1,0,0:0:0:0:
213,161,43653,5,0,0:0:0:0:
232,220,43742,1,0,0:0:0:0:
282,335,43832,5,0,0:0:0:0:
300,275,43921,1,0,0:0:0:0:
329,152,44010,5,0,0:0:0:0:
311,90,44100,1,0,0:0:0:0:
263,48,44189,1,0,0:0:0:0:
200,39,44278,1,0,0:0:0:0:
139,59,44368,1,0,0:0:0:0:
101,109,44457,1,0,0:0:0:0:
92,171,44546,1,0,0:0:0:0:
112,230,44635,1,0,0:0:0:0:
30,133,44725,5,0,0:0:0:0:
56,190,44814,1,0,0:0:0:0:
65,252,44903,1,0,0:0:0:0:
57,315,44993,1,0,0:0:0:0:
25,369,45082,1,0,0:0:0:0:
88,331,45171,1,0,0:0:0:0:
153,364,45260,1,0,0:0:0:0:
218,330,45350,1,0,0:0:0:0:
331,236,45439,6,0,P|359:309|353:363,1,105
406,348,45707,1,0,0:0:0:0:
406,348,45796,1,0,0:0:0:0:
455,301,45885,1,0,0:0:0:0:
505,253,45975,1,0,0:0:0:0:
455,205,46064,1,0,0:0:0:0:
406,158,46153,1,0,0:0:0:0:
455,111,46243,1,0,0:0:0:0:
505,63,46333,1,0,0:0:0:0:
438,52,46421,1,0,0:0:0:0:
370,42,46510,5,0,0:0:0:0:
348,118,46600,1,0,0:0:0:0:
292,174,46689,1,0,0:0:0:0:
217,198,46778,1,0,0:0:0:0:
138,184,46868,6,0,B|134:124|112:115|112:115|79:136,1,105
53,193,47135,1,0,0:0:0:0:
53,193,47225,1,0,0:0:0:0:
64,260,47314,1,0,0:0:0:0:
73,327,47403,1,0,0:0:0:0:
110,269,47493,1,0,0:0:0:0:
147,211,47582,1,0,0:0:0:0:
201,252,47671,1,0,0:0:0:0:
255,293,47760,1,0,0:0:0:0:
321,277,47850,1,0,0:0:0:0:
387,261,47939,5,0,0:0:0:0:
354,189,48028,1,0,0:0:0:0:
426,156,48118,1,0,0:0:0:0:
459,228,48207,1,0,0:0:0:0:
492,300,48296,6,0,B|428:306|383:330|383:330|410:345,1,105
345,333,48564,1,0,0:0:0:0:
345,333,48653,1,0,0:0:0:0:
276,330,48743,1,0,0:0:0:0:
207,327,48832,1,0,0:0:0:0:
274,316,48921,1,0,0:0:0:0:
341,305,49010,1,0,0:0:0:0:
276,282,49100,1,0,0:0:0:0:
211,259,49189,1,0,0:0:0:0:
271,227,49278,1,0,0:0:0:0:
332,195,49368,5,0,0:0:0:0:
294,126,49457,1,0,0:0:0:0:
330,56,49546,1,0,0:0:0:0:
368,125,49635,1,0,0:0:0:0:
294,126,49725,6,0,B|213:110|213:110|148:120,1,105
126,136,49993,1,0,0:0:0:0:
126,136,50082,1,0,0:0:0:0:
111,69,50171,1,0,0:0:0:0:
96,2,50260,1,0,0:0:0:0:
74,67,50350,1,0,0:0:0:0:
53,131,50439,1,0,0:0:0:0:
113,100,50528,1,0,0:0:0:0:
174,69,50618,1,0,0:0:0:0:
234,100,50707,1,0,0:0:0:0:
294,131,50796,5,0,0:0:0:0:
363,95,50885,1,0,0:0:0:0:
399,164,50975,1,0,0:0:0:0:
330,200,51064,1,0,0:0:0:0:
294,131,51153,6,0,P|292:70|332:24,1,105
384,30,51421,1,0,0:0:0:0:
385,30,51510,1,0,0:0:0:0:
429,81,51600,1,0,0:0:0:0:
474,132,51690,1,0,0:0:0:0:
429,183,51778,1,0,0:0:0:0:
385,234,51868,5,0,0:0:0:0:
363,163,51957,1,0,0:0:0:0:
294,138,52046,1,0,0:0:0:0:
227,168,52135,1,0,0:0:0:0:
210,240,52225,5,0,0:0:0:0:
197,317,52314,1,0,0:0:0:0:
130,359,52403,1,0,0:0:0:0:
51,344,52493,1,0,0:0:0:0:
9,277,52582,6,0,P|63:237|80:178,1,105
94,137,52850,1,0,0:0:0:0:
82,69,52939,1,0,0:0:0:0:
138,31,53028,1,0,0:0:0:0:
205,43,53118,1,0,0:0:0:0:
244,98,53207,1,0,0:0:0:0:
242,166,53296,5,0,0:0:0:0:
281,235,53385,1,0,0:0:0:0:
320,166,53474,1,0,0:0:0:0:
242,166,53564,1,0,0:0:0:0:
203,235,53653,5,0,0:0:0:0:
164,304,53743,1,0,0:0:0:0:
242,304,53832,1,0,0:0:0:0:
320,304,53921,1,0,0:0:0:0:
359,235,54010,6,0,L|387:168,3,52.5
334,72,54368,2,0,L|307:124,3,52.5
191,77,54725,2,0,L|253:76,3,52.5
92,98,55082,1,0,0:0:0:0:
70,130,55171,1,0,0:0:0:0:
66,169,55260,1,0,0:0:0:0:
81,205,55349,1,0,0:0:0:0:
111,230,55439,6,0,L|112:294,5,52.5
180,334,55975,2,0,L|180:279,1,52.5
159,162,56153,5,0,0:0:0:0:
191,149,56242,1,0,0:0:0:0:
226,147,56331,1,0,0:0:0:0:
259,157,56420,1,0,0:0:0:0:
334,199,56510,1,0,0:0:0:0:
367,209,56599,1,0,0:0:0:0:
402,207,56688,1,0,0:0:0:0:
434,195,56777,1,0,0:0:0:0:
380,76,56868,6,0,L|380:145,3,52.5
210,134,57225,2,0,L|210:81,3,52.5
55,62,57582,5,0,0:0:0:0:
55,97,57671,1,0,0:0:0:0:
55,132,57760,1,0,0:0:0:0:
55,167,57849,1,0,0:0:0:0:
112,237,57939,2,0,L|111:165,3,52.5
49,283,58296,5,0,0:0:0:0:
74,306,58385,1,0,0:0:0:0:
108,315,58474,1,0,0:0:0:0:
142,310,58563,1,0,0:0:0:0:
215,256,58653,2,0,L|215:197,3,52.5
325,180,59010,5,0,0:0:0:0:
302,132,59099,1,0,0:0:0:0:
262,100,59188,1,0,0:0:0:0:
211,89,59277,1,0,0:0:0:0:
121,135,59368,1,0,0:0:0:0:
100,183,59457,1,0,0:0:0:0:
103,235,59547,1,0,0:0:0:0:
128,280,59636,1,0,0:0:0:0:
222,317,59725,6,0,L|296:319,3,52.5
361,239,60082,2,0,L|288:238,3,52.5
211,243,60439,5,0,0:0:0:0:
217,204,60528,1,0,0:0:0:0:
238,171,60617,1,0,0:0:0:0:
270,149,60706,1,0,0:0:0:0:
309,142,60796,5,0,0:0:0:0:
355,122,60885,1,0,0:0:0:0:
363,72,60974,1,0,0:0:0:0:
327,37,61063,1,0,0:0:0:0:
278,48,61153,6,0,L|197:64,1,52.5
126,123,61332,5,0,0:0:0:0:
217,63,61421,1,0,0:0:0:0:
107,110,61510,5,0,0:0:0:0:
207,66,61599,1,0,0:0:0:0:
93,94,61689,5,0,0:0:0:0:
199,68,61778,1,0,0:0:0:0:
82,80,61868,6,0,L|77:20,1,52.5
41,132,62046,1,0,0:0:0:0:
100,153,62135,1,0,0:0:0:0:
138,203,62225,1,0,0:0:0:0:
118,262,62314,1,0,0:0:0:0:
133,322,62403,1,0,0:0:0:0:
181,363,62493,1,0,0:0:0:0:
243,368,62582,6,0,P|269:357|315:352,1,52.5
420,318,62760,5,0,0:0:0:0:
308,333,62850,1,0,0:0:0:0:
438,298,62939,5,0,0:0:0:0:
326,313,63029,1,0,0:0:0:0:
456,278,63117,5,0,0:0:0:0:
344,293,63207,1,0,0:0:0:0:
474,258,63296,6,0,L|472:206,1,52.5
453,144,63475,1,0,0:0:0:0:
435,83,63564,1,0,0:0:0:0:
416,22,63653,1,0,0:0:0:0:
397,82,63743,1,0,0:0:0:0:
348,121,63832,1,0,0:0:0:0:
285,129,63921,1,0,0:0:0:0:
226,105,64010,6,0,L|162:103,1,52.5
52,128,64189,5,0,0:0:0:0:
173,119,64278,1,0,0:0:0:0:
51,143,64368,5,0,0:0:0:0:
172,134,64457,1,0,0:0:0:0:
50,158,64546,5,0,0:0:0:0:
171,149,64635,1,0,0:0:0:0:
49,173,64725,6,0,L|49:239,1,52.5
122,279,64903,2,0,L|120:202,1,52.5
133,168,65082,5,0,0:0:0:0:
71,123,65171,1,0,0:0:0:0:
143,154,65260,5,0,0:0:0:0:
91,97,65349,1,0,0:0:0:0:
157,143,65439,5,0,0:0:0:0:
117,76,65528,1,0,0:0:0:0:
172,135,65618,5,0,0:0:0:0:
146,60,65707,1,0,0:0:0:0:
189,130,65796,5,0,0:0:0:0:
178,51,65885,1,0,0:0:0:0:
207,129,65975,5,0,0:0:0:0:
211,49,66064,1,0,0:0:0:0:
224,131,66153,5,0,0:0:0:0:
244,53,66242,1,0,0:0:0:0:
240,137,66332,5,0,0:0:0:0:
275,64,66421,1,0,0:0:0:0:
255,146,66510,5,0,0:0:0:0:
304,81,66599,1,0,0:0:0:0:
268,158,66689,5,0,0:0:0:0:
328,104,66778,1,0,0:0:0:0:
278,172,66868,5,0,0:0:0:0:
347,131,66957,1,0,0:0:0:0:
285,188,67046,5,0,0:0:0:0:
360,162,67135,1,0,0:0:0:0:
289,205,67225,5,0,0:0:0:0:
367,194,67314,1,0,0:0:0:0:
289,223,67403,5,0,0:0:0:0:
367,227,67492,1,0,0:0:0:0:
285,240,67582,5,0,0:0:0:0:
360,260,67671,1,0,0:0:0:0:
278,256,67760,5,0,0:0:0:0:
347,290,67849,1,0,0:0:0:0:
268,270,67939,5,0,0:0:0:0:
328,317,68028,1,0,0:0:0:0:
255,282,68118,5,0,0:0:0:0:
304,340,68207,1,0,0:0:0:0:
240,291,68296,5,0,0:0:0:0:
73,182,68475,1,0,0:0:0:0:
73,182,68564,1,0,0:0:0:0:
73,182,68653,1,0,0:0:0:0:
68,145,68743,1,0,0:0:0:0:
63,108,68832,1,0,0:0:0:0:
58,71,68921,1,0,0:0:0:0:
54,34,69010,5,0,0:0:0:0:
95,67,69100,1,0,0:0:0:0:
141,90,69189,1,0,0:0:0:0:
193,94,69278,1,0,0:0:0:0:
241,72,69368,1,0,0:0:0:0:
249,20,69457,1,0,0:0:0:0:
197,8,69546,1,0,0:0:0:0:
176,55,69635,1,0,0:0:0:0:
213,92,69725,5,0,0:0:0:0:
263,104,69814,1,0,0:0:0:0:
310,82,69903,1,0,0:0:0:0:
362,80,69993,1,0,0:0:0:0:
410,98,70082,1,0,0:0:0:0:
440,140,70171,1,0,0:0:0:0:
453,190,70260,1,0,0:0:0:0:
450,242,70350,1,0,0:0:0:0:
426,288,70439,5,0,0:0:0:0:
415,236,70528,1,0,0:0:0:0:
427,184,70618,1,0,0:0:0:0:
460,143,70707,1,0,0:0:0:0:
472,92,70796,1,0,0:0:0:0:
423,71,70885,1,0,0:0:0:0:
372,54,70975,1,0,0:0:0:0:
321,67,71064,1,0,0:0:0:0:
271,84,71153,1,0,0:0:0:0:
60,56,71332,5,0,0:0:0:0:
60,56,71421,1,0,0:0:0:0:
60,56,71510,1,0,0:0:0:0:
83,103,71600,1,0,0:0:0:0:
96,153,71689,1,0,0:0:0:0:
92,205,71778,1,0,0:0:0:0:
69,252,71868,5,0,0:0:0:0:
73,199,71957,1,0,0:0:0:0:
110,162,72046,1,0,0:0:0:0:
162,161,72135,1,0,0:0:0:0:
206,189,72225,1,0,0:0:0:0:
258,191,72314,1,0,0:0:0:0:
297,156,72403,1,0,0:0:0:0:
308,104,72493,1,0,0:0:0:0:
277,61,72582,1,0,0:0:0:0:
226,47,72671,1,0,0:0:0:0:
182,75,72760,1,0,0:0:0:0:
170,126,72850,1,0,0:0:0:0:
187,175,72939,1,0,0:0:0:0:
213,220,73028,1,0,0:0:0:0:
206,272,73118,1,0,0:0:0:0:
178,316,73207,1,0,0:0:0:0:
126,322,73296,5,0,0:0:0:0:
163,284,73385,1,0,0:0:0:0:
206,272,73475,1,0,0:0:0:0:
258,274,73564,1,0,0:0:0:0:
303,300,73653,1,0,0:0:0:0:
345,332,73743,1,0,0:0:0:0:
397,333,73832,1,0,0:0:0:0:
446,317,73921,1,0,0:0:0:0:
469,270,74010,5,0,0:0:0:0:
466,233,74100,1,0,0:0:0:0:
464,196,74189,1,0,0:0:0:0:
459,159,74278,1,0,0:0:0:0:
456,122,74368,1,0,0:0:0:0:
415,145,74457,1,0,0:0:0:0:
367,143,74546,1,0,0:0:0:0:
328,115,74635,1,0,0:0:0:0:
313,69,74725,5,0,0:0:0:0:
317,136,74814,1,0,0:0:0:0:
279,193,74903,1,0,0:0:0:0:
214,217,74993,1,0,0:0:0:0:
146,206,75082,1,0,0:0:0:0:
186,260,75171,1,0,0:0:0:0:
250,280,75260,1,0,0:0:0:0:
316,263,75350,1,0,0:0:0:0:
365,216,75439,5,0,0:0:0:0:
376,250,75528,1,0,0:0:0:0:
386,285,75618,1,0,0:0:0:0:
396,320,75707,1,0,0:0:0:0:
407,354,75796,1,0,0:0:0:0:
362,338,75885,1,0,0:0:0:0:
314,331,75975,1,0,0:0:0:0:
267,337,76064,1,0,0:0:0:0:
229,364,76153,5,0,0:0:0:0:
267,307,76243,1,0,0:0:0:0:
303,248,76332,1,0,0:0:0:0:
255,198,76421,1,0,0:0:0:0:
189,179,76510,1,0,0:0:0:0:
123,198,76600,1,0,0:0:0:0:
75,248,76689,1,0,0:0:0:0:
111,307,76778,1,0,0:0:0:0:
149,364,76868,5,0,0:0:0:0:
86,360,76957,1,0,0:0:0:0:
39,317,77046,1,0,0:0:0:0:
30,254,77135,1,0,0:0:0:0:
58,197,77225,1,0,0:0:0:0:
112,165,77314,1,0,0:0:0:0:
174,173,77403,1,0,0:0:0:0:
230,143,77493,1,0,0:0:0:0:
302,135,77582,5,0,0:0:0:0:
369,162,77671,1,0,0:0:0:0:
409,222,77760,1,0,0:0:0:0:
408,296,77850,1,0,0:0:0:0:
366,356,77939,1,0,0:0:0:0:
302,319,78028,1,0,0:0:0:0:
229,304,78118,1,0,0:0:0:0:
157,318,78207,1,0,0:0:0:0:
95,357,78296,5,0,0:0:0:0:
154,376,78385,1,0,0:0:0:0:
210,347,78475,1,0,0:0:0:0:
240,292,78564,1,0,0:0:0:0:
232,229,78653,1,0,0:0:0:0:
187,184,78743,1,0,0:0:0:0:
127,202,78832,1,0,0:0:0:0:
114,263,78921,1,0,0:0:0:0:
172,285,79010,5,0,0:0:0:0:
227,254,79100,1,0,0:0:0:0:
289,259,79189,1,0,0:0:0:0:
336,300,79278,1,0,0:0:0:0:
364,356,79368,1,0,0:0:0:0:
380,295,79457,1,0,0:0:0:0:
391,233,79546,1,0,0:0:0:0:
389,170,79635,1,0,0:0:0:0:
367,110,79725,6,0,L|343:36,1,52.5
179,64,79903,2,0,L|199:135,1,52.5
326,114,80082,6,0,L|302:40,1,52.5
138,68,80260,2,0,L|158:139,1,52.5
285,118,80439,6,0,L|261:44,1,52.5
97,72,80617,2,0,L|117:143,1,52.5
244,122,80796,6,0,L|220:48,1,52.5
56,76,80974,2,0,L|76:147,1,52.5
189,361,81153,6,0,L|168:281,1,52.5
119,214,81332,2,0,L|163:173,1,52.5
224,370,81510,6,0,L|203:290,1,52.5
154,223,81689,2,0,L|198:182,1,52.5
259,379,81868,6,0,L|238:299,1,52.5
189,232,82047,2,0,L|233:191,1,52.5
364,357,82225,1,0,0:0:0:0:
339,71,82403,1,0,0:0:0:0:
404,359,82582,1,0,0:0:0:0:
256,192,82671,12,0,83921,0:0:0:0:
68,45,84010,5,0,0:0:0:0:
85,87,89010,6,0,L|167:103,1,52.5
121,167,89189,2,0,L|202:185,1,52.5
256,270,89368,1,0,0:0:0:0:
272,34,89546,1,0,0:0:0:0:
49,316,89725,6,0,P|105:354|173:352,1,105
280,358,90082,6,0,L|301:299,1,52.5
315,358,90260,2,0,L|294:299,1,52.5
263,348,90439,6,0,L|302:299,1,52.5
329,348,90618,2,0,L|289:299,1,52.5
250,334,90796,6,0,L|304:302,1,52.5
340,334,90975,2,0,L|285:302,1,52.5
214,244,91153,2,0,P|286:203|337:217,1,105
438,139,91510,6,0,L|340:125,1,52.5
161,60,91689,2,0,L|241:48,1,52.5
363,131,91868,6,0,L|265:117,1,52.5
86,52,92047,2,0,L|166:40,1,52.5
288,123,92225,6,0,L|190:109,1,52.5
11,44,92404,2,0,L|91:32,1,52.5
111,345,92582,6,0,B|117:296|109:229|109:229|150:273,1,157.5
435,366,92939,6,0,L|345:379,1,52.5
413,265,93118,2,0,L|323:278,1,52.5
391,164,93296,2,0,L|301:177,1,52.5
369,63,93475,2,0,L|279:76,1,52.5
391,164,93653,2,0,L|301:177,1,52.5
413,265,93832,2,0,L|323:278,1,52.5
294,258,94010,5,0,0:0:0:0:
227,238,94100,1,0,0:0:0:0:
162,216,94189,1,0,0:0:0:0:
101,247,94278,1,0,0:0:0:0:
101,315,94368,1,0,0:0:0:0:
154,356,94457,1,0,0:0:0:0:
217,331,94546,1,0,0:0:0:0:
226,263,94635,1,0,0:0:0:0:
233,194,94725,5,0,0:0:0:0:
296,217,94814,1,0,0:0:0:0:
362,203,94903,1,0,0:0:0:0:
418,163,94993,1,0,0:0:0:0:
420,95,95082,1,0,0:0:0:0:
372,46,95171,1,0,0:0:0:0:
339,125,95260,1,0,0:0:0:0:
271,139,95350,1,0,0:0:0:0:
206,161,95439,5,0,0:0:0:0:
198,202,95528,1,0,0:0:0:0:
190,243,95618,1,0,0:0:0:0:
182,284,95707,1,0,0:0:0:0:
75,352,95796,1,0,0:0:0:0:
71,310,95885,1,0,0:0:0:0:
68,268,95974,1,0,0:0:0:0:
64,225,96064,1,0,0:0:0:0:
51,141,96153,5,0,0:0:0:0:
45,99,96242,1,0,0:0:0:0:
133,156,96332,5,0,0:0:0:0:
127,114,96421,1,0,0:0:0:0:
215,171,96510,5,0,0:0:0:0:
209,129,96599,1,0,0:0:0:0:
297,186,96689,5,0,0:0:0:0:
291,144,96778,1,0,0:0:0:0:
250,264,96868,5,0,0:0:0:0:
300,276,96957,1,0,0:0:0:0:
349,260,97046,1,0,0:0:0:0:
382,220,97135,1,0,0:0:0:0:
444,119,97225,1,0,0:0:0:0:
448,171,97314,1,0,0:0:0:0:
453,223,97403,1,0,0:0:0:0:
458,275,97492,1,0,0:0:0:0:
482,357,97582,5,0,0:0:0:0:
439,354,97671,1,0,0:0:0:0:
353,349,97760,1,0,0:0:0:0:
310,347,97850,1,0,0:0:0:0:
224,342,97939,1,0,0:0:0:0:
181,340,98028,1,0,0:0:0:0:
96,335,98118,1,0,0:0:0:0:
53,332,98207,1,0,0:0:0:0:
95,252,98296,5,0,0:0:0:0:
130,213,98385,1,0,0:0:0:0:
151,165,98474,1,0,0:0:0:0:
156,113,98563,1,0,0:0:0:0:
78,162,98653,1,0,0:0:0:0:
120,191,98742,1,0,0:0:0:0:
172,198,98831,1,0,0:0:0:0:
220,179,98920,1,0,0:0:0:0:
173,77,99010,5,0,0:0:0:0:
223,65,99099,1,0,0:0:0:0:
274,76,99188,1,0,0:0:0:0:
314,109,99277,1,0,0:0:0:0:
336,208,99368,1,0,0:0:0:0:
313,255,99457,1,0,0:0:0:0:
271,286,99546,1,0,0:0:0:0:
220,297,99636,1,0,0:0:0:0:
126,352,99725,6,0,L|115:276,1,52.5
104,222,99903,2,0,L|93:146,1,52.5
82,92,100082,2,0,L|71:16,1,52.5
74,40,100260,2,0,L|82:92,1,52.5
164,40,100439,6,0,B|186:141|206:372|206:372|265:326,1,367.5
452,237,101153,6,0,L|439:247,1,13.125
328,234,101332,2,0,P|385:137|528:148,1,262.5
88,191,101868,6,0,L|75:201,1,13.125
158,327,102046,2,0,B|181:212|181:212|146:55,1,262.5
253,327,102582,6,0,L|258:342,1,13.125
226,65,102760,2,0,B|258:208|258:208|250:241|250:241|297:239|330:277,1,262.5
422,84,103296,6,0,L|356:100,1,52.5
86,123,103475,2,0,L|174:139,1,52.5
430,161,103653,6,0,L|364:177,1,52.5
94,200,103832,2,0,L|182:216,1,52.5
416,355,104010,6,0,L|421:338,1,13.125
211,115,104189,2,0,P|251:174|126:329,1,262.5
211,115,104725,6,0,L|210:100,1,13.125
113,247,104903,2,0,B|207:194|270:285|266:324|266:324|288:251|299:249,1,262.5
354,116,105439,6,0,L|353:101,1,13.125
378,295,105618,2,0,B|387:364|387:364|453:308|458:232|439:157,1,262.5
395,44,106153,6,0,L|463:67,1,52.5
284,80,106332,2,0,L|352:103,1,52.5
173,116,106510,2,0,L|241:139,1,52.5
62,152,106689,2,0,L|130:175,1,52.5
67,37,106868,6,0,L|65:50,1,13.125
85,276,107046,6,0,L|84:354,1,52.5
176,330,107225,2,0,L|177:278,1,52.5
57,272,107403,2,0,L|56:350,1,52.5
445,37,107582,6,0,L|447:50,1,13.125
427,276,107760,6,0,L|427:328,1,52.5
335,330,107939,2,0,L|335:278,1,52.5
455,272,108117,2,0,L|455:324,1,52.5
253,98,108296,6,0,L|255:111,1,13.125
136,191,108475,6,0,L|93:251,1,52.5
253,197,108654,2,0,L|210:257,1,52.5
370,203,108832,2,0,L|327:263,1,52.5
339,245,109010,2,0,L|370:203,1,52.5
253,197,109189,2,0,L|210:257,1,52.5
136,191,109368,2,0,L|93:251,1,52.5
178,80,109546,1,0,0:0:0:0:
195,179,109635,1,0,0:0:0:0:
236,309,109725,6,0,L|227:287,1,13.125
278,66,109903,5,0,0:0:0:0:
318,76,109992,1,0,0:0:0:0:
352,100,110081,1,0,0:0:0:0:
377,134,110170,1,0,0:0:0:0:
389,174,110260,1,0,0:0:0:0:
387,216,110349,1,0,0:0:0:0:
236,309,110439,6,0,L|227:287,1,13.125
58,232,110618,5,0,0:0:0:0:
57,179,110707,1,0,0:0:0:0:
76,131,110796,1,0,0:0:0:0:
113,93,110885,1,0,0:0:0:0:
160,72,110975,1,0,0:0:0:0:
212,70,111064,1,0,0:0:0:0:
236,309,111153,6,0,L|227:287,1,13.125
223,17,111332,5,0,0:0:0:0:
202,76,111421,1,0,0:0:0:0:
181,135,111510,1,0,0:0:0:0:
184,194,111599,1,0,0:0:0:0:
210,251,111689,1,0,0:0:0:0:
236,308,111778,1,0,0:0:0:0:
54,50,111868,6,0,L|137:56,1,52.5
74,186,112046,2,0,L|157:192,1,52.5
94,322,112225,2,0,L|177:328,1,52.5
241,297,112403,1,0,0:0:0:0:
339,318,112493,1,0,0:0:0:0:
433,286,112582,5,0,0:0:0:0:
435,223,112671,1,0,0:0:0:0:
438,160,112760,1,0,0:0:0:0:
441,96,112850,1,0,0:0:0:0:
445,33,112939,1,0,0:0:0:0:
372,23,113028,1,0,0:0:0:0:
300,43,113118,1,0,0:0:0:0:
264,107,113207,1,0,0:0:0:0:
211,158,113296,5,0,0:0:0:0:
140,177,113385,1,0,0:0:0:0:
70,152,113475,1,0,0:0:0:0:
48,82,113564,1,0,0:0:0:0:
81,16,113653,1,0,0:0:0:0:
154,12,113743,1,0,0:0:0:0:
201,67,113832,1,0,0:0:0:0:
192,139,113921,1,0,0:0:0:0:
199,211,114010,5,0,0:0:0:0:
234,263,114100,1,0,0:0:0:0:
285,299,114189,1,0,0:0:0:0:
347,302,114278,1,0,0:0:0:0:
407,282,114368,1,0,0:0:0:0:
454,225,114457,1,0,0:0:0:0:
469,153,114546,1,0,0:0:0:0:
442,84,114635,1,0,0:0:0:0:
386,35,114725,5,0,0:0:0:0:
313,42,114814,1,0,0:0:0:0:
253,84,114903,1,0,0:0:0:0:
180,99,114993,1,0,0:0:0:0:
107,90,115082,1,0,0:0:0:0:
112,163,115171,1,0,0:0:0:0:
122,235,115260,1,0,0:0:0:0:
130,308,115350,1,0,0:0:0:0:
139,380,115439,5,0,0:0:0:0:
80,355,115528,1,0,0:0:0:0:
57,295,115618,1,0,0:0:0:0:
65,232,115707,1,0,0:0:0:0:
113,192,115796,1,0,0:0:0:0:
184,178,115885,1,0,0:0:0:0:
249,213,115975,1,0,0:0:0:0:
316,240,116064,1,0,0:0:0:0:
389,236,116153,5,0,0:0:0:0:
445,188,116243,1,0,0:0:0:0:
462,116,116332,1,0,0:0:0:0:
437,47,116421,1,0,0:0:0:0:
374,7,116510,1,0,0:0:0:0:
306,37,116600,1,0,0:0:0:0:
264,97,116689,1,0,0:0:0:0:
267,170,116778,1,0,0:0:0:0:
317,224,116868,5,0,0:0:0:0:
354,274,116957,1,0,0:0:0:0:
343,335,117046,1,0,0:0:0:0:
294,374,117135,1,0,0:0:0:0:
230,381,117225,1,0,0:0:0:0:
168,341,117314,1,0,0:0:0:0:
153,269,117403,1,0,0:0:0:0:
192,206,117493,1,0,0:0:0:0:
261,184,117582,5,0,0:0:0:0:
305,125,117671,1,0,0:0:0:0:
292,52,117760,1,0,0:0:0:0:
225,18,117850,1,0,0:0:0:0:
158,47,117939,1,0,0:0:0:0:
132,115,118028,1,0,0:0:0:0:
158,184,118118,1,0,0:0:0:0:
210,235,118207,1,0,0:0:0:0:
277,263,118296,5,0,0:0:0:0:
326,279,118385,1,0,0:0:0:0:
378,280,118475,1,0,0:0:0:0:
427,263,118564,1,0,0:0:0:0:
462,224,118653,1,0,0:0:0:0:
480,174,118743,1,0,0:0:0:0:
474,121,118832,1,0,0:0:0:0:
447,75,118921,1,0,0:0:0:0:
403,46,119010,5,0,0:0:0:0:
377,54,119100,1,0,0:0:0:0:
352,62,119189,1,0,0:0:0:0:
327,70,119278,1,0,0:0:0:0:
302,78,119368,1,0,0:0:0:0:
277,87,119457,1,0,0:0:0:0:
252,96,119546,1,0,0:0:0:0:
227,105,119635,1,0,0:0:0:0:
202,114,119725,1,0,0:0:0:0:
258,240,119903,5,0,0:0:0:0:
258,240,119993,1,0,0:0:0:0:
258,240,120082,1,0,0:0:0:0:
258,240,120171,1,0,0:0:0:0:
148,248,120260,5,0,0:0:0:0:
250,199,120350,5,0,0:0:0:0:
250,199,120439,1,0,0:0:0:0:
250,199,120528,1,0,0:0:0:0:
360,173,120618,5,0,0:0:0:0:
242,158,120707,5,0,0:0:0:0:
242,158,120796,1,0,0:0:0:0:
242,158,120885,1,0,0:0:0:0:
132,166,120975,5,0,0:0:0:0:
234,117,121064,5,0,0:0:0:0:
234,117,121153,1,0,0:0:0:0:
234,117,121242,1,0,0:0:0:0:
344,91,121332,5,0,0:0:0:0:
242,158,121421,5,0,0:0:0:0:
242,158,121510,1,0,0:0:0:0:
242,158,121599,1,0,0:0:0:0:
132,166,121689,5,0,0:0:0:0:
250,199,121778,5,0,0:0:0:0:
250,199,121867,1,0,0:0:0:0:
250,199,121956,1,0,0:0:0:0:
360,173,122046,5,0,0:0:0:0:
258,240,122135,1,0,0:0:0:0:
258,240,122224,1,0,0:0:0:0:
258,240,122313,1,0,0:0:0:0:
148,248,122402,5,0,0:0:0:0:
258,240,122493,5,0,0:0:0:0:
394,345,122582,6,0,L|402:268,1,52.5
406,198,122760,5,0,0:0:0:0:
406,198,122850,1,0,0:0:0:0:
406,198,122939,1,0,0:0:0:0:
406,198,123028,1,0,0:0:0:0:
390,70,123118,5,0,0:0:0:0:
362,190,123207,5,0,0:0:0:0:
362,190,123296,1,0,0:0:0:0:
362,190,123385,1,0,0:0:0:0:
324,66,123475,5,0,0:0:0:0:
317,189,123564,5,0,0:0:0:0:
317,189,123653,1,0,0:0:0:0:
317,189,123742,1,0,0:0:0:0:
258,74,123832,5,0,0:0:0:0:
272,195,123922,5,0,0:0:0:0:
272,195,124011,1,0,0:0:0:0:
272,195,124100,1,0,0:0:0:0:
194,92,124190,5,0,0:0:0:0:
228,209,124277,5,0,0:0:0:0:
228,209,124366,1,0,0:0:0:0:
228,209,124455,1,0,0:0:0:0:
134,120,124545,5,0,0:0:0:0:
189,230,124634,5,0,0:0:0:0:
189,230,124723,1,0,0:0:0:0:
189,230,124812,1,0,0:0:0:0:
80,161,124902,5,0,0:0:0:0:
153,258,124992,5,0,0:0:0:0:
153,258,125081,1,0,0:0:0:0:
153,258,125170,1,0,0:0:0:0:
34,208,125260,5,0,0:0:0:0:
153,258,125350,1,0,0:0:0:0:
296,319,125439,6,0,P|320:267|304:200,1,105
294,177,125707,1,0,0:0:0:0:
272,134,125796,1,0,0:0:0:0:
256,178,125885,1,0,0:0:0:0:
221,210,125975,1,0,0:0:0:0:
176,226,126064,1,0,0:0:0:0:
129,218,126153,5,0,0:0:0:0:
97,182,126243,1,0,0:0:0:0:
83,136,126332,1,0,0:0:0:0:
97,91,126421,1,0,0:0:0:0:
125,53,126510,1,0,0:0:0:0:
170,38,126600,1,0,0:0:0:0:
217,39,126689,1,0,0:0:0:0:
255,65,126778,1,0,0:0:0:0:
280,105,126868,5,0,0:0:0:0:
310,68,126957,1,0,0:0:0:0:
355,56,127046,1,0,0:0:0:0:
400,66,127135,1,0,0:0:0:0:
432,101,127225,1,0,0:0:0:0:
376,333,128296,6,0,L|248:316,1,105
210,303,128564,1,0,0:0:0:0:
151,326,128653,1,0,0:0:0:0:
89,310,128743,1,0,0:0:0:0:
55,257,128832,1,0,0:0:0:0:
57,194,128921,1,0,0:0:0:0:
94,143,129010,5,0,0:0:0:0:
156,131,129100,1,0,0:0:0:0:
211,159,129189,1,0,0:0:0:0:
271,142,129278,1,0,0:0:0:0:
299,85,129368,1,0,0:0:0:0:
283,24,129457,1,0,0:0:0:0:
222,8,129546,1,0,0:0:0:0:
169,42,129635,1,0,0:0:0:0:
160,104,129725,5,0,0:0:0:0:
188,159,129814,1,0,0:0:0:0:
241,192,129903,1,0,0:0:0:0:
304,190,129993,1,0,0:0:0:0:
361,165,130082,1,0,0:0:0:0:
432,313,131153,6,0,P|307:287|245:300,1,157.5
222,319,131510,1,0,0:0:0:0:
162,341,131600,1,0,0:0:0:0:
139,282,131689,1,0,0:0:0:0:
120,221,131778,1,0,0:0:0:0:
179,198,131868,1,0,0:0:0:0:
80,71,132582,6,0,P|205:97|267:84,1,157.5
290,65,132939,1,0,0:0:0:0:
350,43,133029,1,0,0:0:0:0:
373,102,133118,1,0,0:0:0:0:
392,163,133207,1,0,0:0:0:0:
333,186,133297,1,0,0:0:0:0:
65,333,134010,6,0,P|40:252|65:162,1,157.5
97,115,134368,1,0,0:0:0:0:
166,78,134457,1,0,0:0:0:0:
254,85,134546,1,0,0:0:0:0:
334,122,134635,1,0,0:0:0:0:
384,196,134725,1,0,0:0:0:0:
456,41,135439,6,0,P|437:140|458:216,1,157.5
478,279,135796,1,0,0:0:0:0:
386,241,135885,1,0,0:0:0:0:
290,208,135975,1,0,0:0:0:0:
194,236,136064,1,0,0:0:0:0:
104,278,136153,1,0,0:0:0:0:
201,264,136868,5,0,0:0:0:0:
261,161,137046,1,0,0:0:0:0:
160,197,137225,5,0,0:0:0:0:
323,216,137403,1,0,0:0:0:0:
346,120,137582,5,0,0:0:0:0:
160,197,137760,1,0,0:0:0:0:
310,304,137939,5,0,0:0:0:0:
352,50,138118,1,0,0:0:0:0:
243,335,138296,5,0,0:0:0:0:
296,37,138475,1,0,0:0:0:0:
165,345,138653,5,0,0:0:0:0:
408,71,138832,1,0,0:0:0:0:
93,346,139010,5,0,0:0:0:0:
453,113,139189,1,0,0:0:0:0:
53,88,139368,5,0,0:0:0:0:
448,309,139546,1,0,0:0:0:0:
87,19,139725,5,0,0:0:0:0:
347,307,139903,1,0,0:0:0:0:
393,72,140082,5,0,0:0:0:0:
134,242,140260,1,0,0:0:0:0:
423,152,140439,5,0,0:0:0:0:
144,149,140618,1,0,0:0:0:0:
409,247,140796,5,0,0:0:0:0:
294,67,140975,1,0,0:0:0:0:
157,316,141153,5,0,0:0:0:0:
217,141,141332,1,0,0:0:0:0:
227,344,141510,5,0,0:0:0:0:
177,201,141689,1,0,0:0:0:0:
73,299,141868,5,0,0:0:0:0:
191,280,142046,1,0,0:0:0:0:
54,208,142225,5,0,0:0:0:0:
73,299,142403,1,0,0:0:0:0:
72,108,142582,5,0,0:0:0:0:
412,210,143296,5,0,0:0:0:0:
43,283,144010,5,0,0:0:0:0:
212,44,144725,5,0,0:0:0:0:
367,347,145439,5,0,0:0:0:0:
256,192,146868,12,0,152582,0:0:0:0:
