osu file format v14

[General]
AudioFilename: audio.mp3
AudioLeadIn: 0
PreviewTime: -1
Countdown: 0
SampleSet: Soft
StackLeniency: 0.2
Mode: 0
LetterboxInBreaks: 0
WidescreenStoryboard: 1

[Editor]
Bookmarks: 440,975,1154,1689,1868,2136,2225,2493,2582,2850,2939,3207,3297,3832,4725,5261,6154,6689,7582,7939,8297,8475,8654,8832,9011,9368,9725,10082,10439,10797,11154,11511,11868,12225,13297,13475,13654,13832,14011,20261,21689,21868,24011,41154,41868,43297,44011,61154,61868,79725,84725,110439,111154,111332,111868,112047,116511,120975,130350,130439,130707,130797,150439,151154,151868,152582
DistanceSpacing: 1
BeatDivisor: 4
GridSize: 4
TimelineZoom: 2.800005

[Metadata]
Title:Nigeba Nashi
TitleUnicode:逃げ場なし
Artist:Tiko-mu
ArtistUnicode:Tiko-μ
Creator:Stick2Glue
Version:Ag
Source:G Senjou no Maou
Tags:beethoven appassionata 3rd movement
BeatmapID:1739645
BeatmapSetID:820847

[Difficulty]
HPDrainRate:6.5
CircleSize:4.4
OverallDifficulty:9
ApproachRate:9.5
SliderMultiplier:1.85
SliderTickRate:1

[Events]
//Background and Video events
0,0,"senjou_no_maou_instrument_usami_haru_violin_2560x1600.jpg",0,0
//Break Periods
//Storyboard Layer 0 (Background)
//Storyboard Layer 1 (Fail)
//Storyboard Layer 2 (Pass)
//Storyboard Layer 3 (Foreground)
//Storyboard Layer 4 (Overlay)
//Storyboard Sound Samples

[TimingPoints]
440,357.142857142857,4,2,0,50,1,0
8297,-125,4,2,0,50,0,0
8475,-117.647058823529,4,2,0,50,0,0
8654,-111.111111111111,4,2,0,50,0,0
8832,-105.263157894737,4,2,0,50,0,0
9011,-100,4,2,0,50,0,0
9189,-90.9090909090909,4,2,0,50,0,0
12939,-83.3333333333333,4,2,0,50,0,0
14011,-83.3333333333333,4,2,0,50,0,0
14368,-100,4,2,0,50,0,0
15439,-83.3333333333333,4,2,0,50,0,0
15797,-100,4,2,0,50,0,0
16868,-83.3333333333333,4,2,0,50,0,0
17225,-100,4,2,0,50,0,0
17582,-83.3333333333333,4,2,0,50,0,0
18297,-83.3333333333333,4,2,0,50,0,0
18654,-76.9230769230769,4,2,0,50,0,0
19724,-100,4,2,0,50,0,0
20439,-83.3333333333333,4,2,0,50,0,0
20797,-100,4,2,0,50,0,0
21154,-76.9230769230769,4,2,0,50,0,0
21689,-100,4,2,0,50,0,0
21868,-83.3333333333333,4,2,0,50,0,0
22225,-100,4,2,0,50,0,0
22582,-76.9230769230769,4,2,0,50,0,0
23118,-100,4,2,0,50,0,0
23297,-100,4,2,0,50,0,0
25261,-83.3333333333333,4,2,0,50,0,0
35439,-100,4,2,0,50,0,0
35797,-76.9230769230769,4,2,0,50,0,0
36154,-83.3333333333333,4,2,0,50,0,0
36511,-100,4,2,0,50,0,0
36868,-83.3333333333333,4,2,0,50,0,0
37225,-90.9090909090909,4,2,0,50,0,0
37582,-76.9230769230769,4,2,0,50,0,0
37939,-100,4,2,0,50,0,0
38297,-71.4285714285714,4,2,0,50,0,0
38654,-100,4,2,0,50,0,0
39011,-83.3333333333333,4,2,0,50,0,0
39368,-100,4,2,0,50,0,0
39725,-83.3333333333333,4,2,0,50,0,0
40082,-71.4285714285714,4,2,0,50,0,0
43297,-100,4,2,0,50,0,0
54725,-90.9090909090909,4,2,0,50,0,0
55082,-83.3333333333333,4,2,0,50,0,0
55439,-76.9230769230769,4,2,0,50,0,0
55797,-90.9090909090909,4,2,0,50,0,0
56154,-86.9565217391304,4,2,0,50,0,0
56511,-83.3333333333333,4,2,0,50,0,0
56868,-80,4,2,0,50,0,0
57225,-76.9230769230769,4,2,0,50,0,0
57582,-80,4,2,0,50,0,0
57939,-83.3333333333333,4,2,0,50,0,0
58297,-86.9565217391304,4,2,0,50,0,0
58654,-95.2380952380952,4,2,0,50,0,0
59011,-100,4,2,0,50,0,0
59368,-105.263157894737,4,2,0,50,0,0
59725,-111.111111111111,4,2,0,50,0,0
60082,-117.647058823529,4,2,0,50,0,0
60439,-125,4,2,0,50,0,0
61154,-83.3333333333333,4,2,0,50,0,0
104189,-83.3333333333333,4,2,0,50,0,0
104725,-76.9230769230769,4,2,0,50,0,0
104904,-83.3333333333333,4,2,0,50,0,0
105439,-76.9230769230769,4,2,0,50,0,0
105618,-83.3333333333333,4,2,0,50,0,0
106154,-76.9230769230769,4,2,0,50,0,0
106868,-83.3333333333333,4,2,0,50,0,0
109904,-71.4285714285714,4,2,0,50,0,0
110261,-83.3333333333333,4,2,0,50,0,0
110439,-76.9230769230769,4,2,0,50,0,0
110618,-71.4285714285714,4,2,0,50,0,0
111154,-83.3333333333333,4,2,0,50,0,0
111332,-71.4285714285714,4,2,0,50,0,0
111689,-83.3333333333333,4,2,0,50,0,0
115439,-100,4,2,0,50,0,0
116154,-83.3333333333333,4,2,0,50,0,0
119368,-100,4,2,0,50,0,0
127225,-133.333333333333,4,2,0,50,0,0
127493,-133.333333333333,4,2,0,50,0,0
127582,-100,4,2,0,50,0,0
127939,-117.647058823529,4,2,0,50,0,0
130439,-100,4,2,0,50,0,0
130797,-111.111111111111,4,2,0,50,0,0
132225,-100,4,2,0,50,0,0
133297,-111.111111111111,4,2,0,50,0,0
133654,-100,4,2,0,50,0,0
134725,-111.111111111111,4,2,0,50,0,0
135082,-117.647058823529,4,2,0,50,0,0
136154,-133.333333333333,4,2,0,50,0,0

[Colours]
Combo1 : 151,129,171
Combo2 : 33,150,184
Combo3 : 241,135,197
Combo4 : 226,77,69

[HitObjects]
504,224,440,5,0,0:0:0:0:
428,373,975,5,0,0:0:0:0:
298,348,1154,1,0,0:0:0:0:
202,226,1689,5,0,0:0:0:0:
83,184,1868,1,0,0:0:0:0:
4,236,2136,5,0,0:0:0:0:
0,328,2225,1,0,0:0:0:0:
84,284,2493,5,0,0:0:0:0:
83,184,2582,1,0,0:0:0:0:
168,328,2850,5,0,0:0:0:0:
175,216,2939,1,0,0:0:0:0:
264,176,3207,5,0,0:0:0:0:
272,296,3297,2,0,B|312:296|336:272|336:272|360:292|360:292|384:276|384:276|412:292|452:284,1,185,0|0,0:0|0:0,0:0:0:0:
424,200,3832,5,0,0:0:0:0:
395,164,3921,1,0,0:0:0:0:
395,119,4010,1,0,0:0:0:0:
424,85,4099,1,0,0:0:0:0:
469,77,4189,5,0,0:0:0:0:
439,112,4278,1,0,0:0:0:0:
396,128,4367,1,0,0:0:0:0:
351,121,4456,1,0,0:0:0:0:
315,93,4547,1,0,0:0:0:0:
274,72,4636,1,0,0:0:0:0:
229,77,4725,2,0,P|192:79|248:36,1,185
260,156,5261,5,0,0:0:0:0:
215,166,5350,1,0,0:0:0:0:
169,161,5439,1,0,0:0:0:0:
128,140,5528,1,0,0:0:0:0:
97,106,5618,5,0,0:0:0:0:
48,117,5707,1,0,0:0:0:0:
16,156,5796,1,0,0:0:0:0:
14,206,5885,1,0,0:0:0:0:
42,247,5975,1,0,0:0:0:0:
89,263,6064,1,0,0:0:0:0:
139,254,6154,2,0,B|179:234|231:261|221:270|266:302|315:279,1,185
496,264,6689,5,0,0:0:0:0:
511,306,6778,1,0,0:0:0:0:
494,348,6867,1,0,0:0:0:0:
454,368,6956,1,0,0:0:0:0:
410,357,7046,1,0,0:0:0:0:
386,319,7135,1,0,0:0:0:0:
392,274,7225,1,0,0:0:0:0:
409,227,7314,1,0,0:0:0:0:
391,180,7403,1,0,0:0:0:0:
348,156,7492,1,0,0:0:0:0:
299,167,7582,5,0,0:0:0:0:
345,196,7671,1,0,0:0:0:0:
400,195,7760,1,0,0:0:0:0:
445,164,7849,1,0,0:0:0:0:
466,114,7939,1,0,0:0:0:0:
456,60,8028,1,0,0:0:0:0:
418,21,8117,1,0,0:0:0:0:
365,9,8207,1,0,0:0:0:0:
314,28,8297,6,0,P|320:46|319:66,1,37
397,126,8475,2,0,P|383:141|366:149,1,39.3125007498264
354,247,8654,2,0,P|333:242|315:230,1,41.6249987297059
227,271,8832,2,0,P|220:243|221:227,1,43.9374988267422
144,172,9011,2,0,P|161:153|180:144,1,46.25
187,51,9189,2,0,P|214:56|237:72,1,50.8750015525818
314,28,9368,5,0,0:0:0:0:
330,56,9457,1,0,0:0:0:0:
330,86,9546,1,0,0:0:0:0:
319,114,9635,1,0,0:0:0:0:
380,164,9725,5,0,0:0:0:0:
358,187,9814,1,0,0:0:0:0:
329,197,9903,1,0,0:0:0:0:
299,195,9992,1,0,0:0:0:0:
276,272,10082,5,0,0:0:0:0:
246,258,10171,1,0,0:0:0:0:
228,234,10260,1,0,0:0:0:0:
221,205,10349,1,0,0:0:0:0:
144,204,10439,5,0,0:0:0:0:
147,171,10528,1,0,0:0:0:0:
165,147,10617,1,0,0:0:0:0:
190,131,10706,1,0,0:0:0:0:
164,56,10797,5,0,0:0:0:0:
195,49,10886,1,0,0:0:0:0:
224,58,10975,1,0,0:0:0:0:
247,77,11064,1,0,0:0:0:0:
272,124,11154,5,0,0:0:0:0:
306,160,11243,1,0,0:0:0:0:
354,171,11332,1,0,0:0:0:0:
401,152,11421,1,0,0:0:0:0:
428,111,11511,5,0,0:0:0:0:
387,148,11600,1,0,0:0:0:0:
368,201,11689,1,0,0:0:0:0:
375,256,11778,1,0,0:0:0:0:
406,302,11868,5,0,0:0:0:0:
388,354,11957,1,0,0:0:0:0:
342,383,12046,1,0,0:0:0:0:
288,375,12135,1,0,0:0:0:0:
250,333,12225,5,0,0:0:0:0:
222,320,12314,1,0,0:0:0:0:
192,319,12403,1,0,0:0:0:0:
163,329,12492,1,0,0:0:0:0:
140,349,12582,5,0,0:0:0:0:
104,368,12671,1,0,0:0:0:0:
64,372,12760,1,0,0:0:0:0:
28,352,12849,1,0,0:0:0:0:
16,304,12939,5,0,0:0:0:0:
52,336,13028,1,0,0:0:0:0:
100,340,13117,1,0,0:0:0:0:
144,320,13206,1,0,0:0:0:0:
172,276,13297,5,0,0:0:0:0:
208,244,13386,1,0,0:0:0:0:
256,240,13475,1,0,0:0:0:0:
300,260,13564,1,0,0:0:0:0:
328,304,13654,6,0,L|324:364,1,55.4999983062745
208,244,13832,2,0,L|205:189,1,55.4999983062745
284,32,14011,6,0,B|240:-8|176:24|176:24|196:44|200:84,1,166.499994918823
39,219,14368,2,0,P|39:196|46:174,1,46.25
200,300,14547,2,0,P|206:322|206:345,1,46.25,0|0,0:0|0:0,0:0:0:0:
120,207,14725,5,0,0:0:0:0:
161,184,14815,1,0,0:0:0:0:
206,179,14904,1,0,0:0:0:0:
251,191,14993,1,0,0:0:0:0:
287,219,15082,1,0,0:0:0:0:
320,251,15172,1,0,0:0:0:0:
362,268,15261,1,0,0:0:0:0:
409,268,15350,1,0,0:0:0:0:
452,248,15439,6,0,B|479:207|479:160|479:160|496:197|489:237,1,166.499994918823
480,338,15797,2,0,P|457:342|434:340,1,46.25
287,219,15975,2,0,P|310:218|332:224,1,46.25
171,288,16154,5,0,0:0:0:0:
128,269,16243,1,0,0:0:0:0:
98,235,16332,1,0,0:0:0:0:
85,191,16421,1,0,0:0:0:0:
92,145,16511,1,0,0:0:0:0:
118,107,16600,1,0,0:0:0:0:
157,84,16689,1,0,0:0:0:0:
203,79,16779,1,0,0:0:0:0:
248,100,16868,6,0,B|266:139|263:189|263:189|274:143|295:120,1,166.499994918823
316,256,17225,1,0,0:0:0:0:
274,275,17314,1,0,0:0:0:0:
229,269,17403,1,0,0:0:0:0:
194,241,17492,1,0,0:0:0:0:
179,197,17582,5,0,0:0:0:0:
136,164,17671,1,0,0:0:0:0:
81,161,17760,1,0,0:0:0:0:
33,188,17849,1,0,0:0:0:0:
8,236,17939,1,0,0:0:0:0:
14,291,18028,1,0,0:0:0:0:
49,333,18117,1,0,0:0:0:0:
101,349,18206,1,0,0:0:0:0:
153,335,18297,6,0,L|164:256,1,55.4999983062745,0|0,0:0|0:0,0:0:0:0:
33,187,18475,2,0,L|39:243,1,55.4999983062745
28,64,18654,2,0,B|66:60|86:43|86:43|91:74|112:102,1,120.249994495392
220,176,19011,2,0,P|200:200|172:212,1,55.4999983062745
241,49,19189,2,0,P|271:54|296:72,1,55.4999983062745,0|0,0:0|0:0,0:0:0:0:
372,200,19368,2,0,B|332:196|312:179|312:179|307:210|286:238,1,120.249994495392
372,91,19725,6,0,P|437:51|442:128,1,185
424,321,20261,1,0,0:0:0:0:
456,292,20350,1,0,0:0:0:0:
496,284,20439,2,0,B|455:281|423:322|423:322|413:274|356:256,1,166.499994918823
244,364,20797,2,0,B|248:315|294:300|294:300|315:336|354:340,1,138.75,0|0,0:0|0:0,0:0:0:0:
409,228,21154,2,0,B|392:232|372:262|372:262|347:189|383:134|383:134|358:163|332:165,1,240.499988990784
236,24,21689,5,0,0:0:0:0:
214,58,21779,1,0,0:0:0:0:
228,93,21868,2,0,P|237:23|296:61,1,166.499994918823,0|0,0:0|0:0,0:0:0:0:
240,208,22225,2,0,B|168:228|180:156|102:184,1,138.75,0|0,0:0|0:0,0:0:0:0:
32,312,22582,2,0,B|72:296|104:324|104:324|140:300|140:264|140:264|172:292|224:288,1,240.499988990784,0|0,0:0|0:0,0:0:0:0:
388,172,23118,5,0,0:0:0:0:
432,160,23207,1,0,0:0:0:0:
474,158,23297,2,0,B|418:162|418:162|402:170|402:170|322:174,1,138.75,0|0,0:0|0:0,0:0:0:0:
228,48,23654,2,0,B|264:64|268:104|268:104|236:132|244:176,1,138.75,0|0,0:0|0:0,0:0:0:0:
374,309,24011,5,0,0:0:0:0:
386,309,24100,1,0,0:0:0:0:
397,305,24189,1,0,0:0:0:0:
406,296,24279,1,0,0:0:0:0:
453,236,24368,5,0,0:0:0:0:
482,271,24457,1,0,0:0:0:0:
488,316,24546,1,0,0:0:0:0:
468,358,24635,1,0,0:0:0:0:
429,382,24725,1,0,0:0:0:0:
384,381,24814,1,0,0:0:0:0:
348,358,24904,1,0,0:0:0:0:
317,323,24993,1,0,0:0:0:0:
276,302,25082,1,0,0:0:0:0:
230,296,25171,1,0,0:0:0:0:
185,307,25261,1,0,0:0:0:0:
147,332,25350,1,0,0:0:0:0:
120,369,25439,5,0,0:0:0:0:
132,318,25528,1,0,0:0:0:0:
140,266,25617,1,0,0:0:0:0:
148,214,25706,1,0,0:0:0:0:
128,186,25797,1,0,0:0:0:0:
128,154,25886,1,0,0:0:0:0:
128,122,25975,1,0,0:0:0:0:
128,90,26064,1,0,0:0:0:0:
180,44,26154,6,0,L|235:51,1,55.4999983062745,0|0,0:0|0:0,0:0:0:0:
196,138,26332,2,0,L|251:145,1,55.4999983062745,0|0,0:0|0:0,0:0:0:0:
72,240,26511,2,0,L|16:247,1,55.4999983062745,0|0,0:0|0:0,0:0:0:0:
56,332,26689,2,0,L|0:339,1,55.4999983062745,0|0,0:0|0:0,0:0:0:0:
176,376,26868,5,0,0:0:0:0:
209,371,26957,1,0,0:0:0:0:
242,367,27046,1,0,0:0:0:0:
275,363,27135,1,0,0:0:0:0:
308,340,27225,1,0,0:0:0:0:
346,334,27314,1,0,0:0:0:0:
384,329,27403,1,0,0:0:0:0:
423,323,27492,1,0,0:0:0:0:
464,336,27582,5,0,0:0:0:0:
456,316,27672,1,0,0:0:0:0:
452,296,27761,1,0,0:0:0:0:
456,276,27850,1,0,0:0:0:0:
464,256,27939,5,0,0:0:0:0:
485,205,28028,1,0,0:0:0:0:
477,151,28117,1,0,0:0:0:0:
441,110,28206,1,0,0:0:0:0:
388,94,28296,1,0,0:0:0:0:
336,109,28385,1,0,0:0:0:0:
299,150,28474,1,0,0:0:0:0:
290,204,28563,1,0,0:0:0:0:
311,254,28654,5,0,0:0:0:0:
332,236,28743,1,0,0:0:0:0:
340,208,28832,1,0,0:0:0:0:
332,180,28921,1,0,0:0:0:0:
299,150,29011,5,0,0:0:0:0:
256,183,29100,1,0,0:0:0:0:
201,187,29189,1,0,0:0:0:0:
154,159,29278,1,0,0:0:0:0:
132,109,29368,1,0,0:0:0:0:
141,55,29457,1,0,0:0:0:0:
180,17,29546,1,0,0:0:0:0:
233,7,29635,1,0,0:0:0:0:
283,29,29725,5,0,0:0:0:0:
264,56,29814,1,0,0:0:0:0:
232,64,29904,1,0,0:0:0:0:
200,56,29993,1,0,0:0:0:0:
176,32,30082,1,0,0:0:0:0:
126,9,30171,1,0,0:0:0:0:
73,24,30260,1,0,0:0:0:0:
44,68,30349,1,0,0:0:0:0:
52,112,30439,5,0,0:0:0:0:
65,149,30528,1,0,0:0:0:0:
77,185,30617,1,0,0:0:0:0:
89,221,30707,1,0,0:0:0:0:
88,276,30797,1,0,0:0:0:0:
124,234,30886,1,0,0:0:0:0:
176,218,30975,1,0,0:0:0:0:
229,230,31064,1,0,0:0:0:0:
268,269,31154,5,0,0:0:0:0:
231,309,31243,1,0,0:0:0:0:
179,326,31332,1,0,0:0:0:0:
125,314,31421,1,0,0:0:0:0:
86,276,31511,1,0,0:0:0:0:
70,224,31600,1,0,0:0:0:0:
84,171,31689,1,0,0:0:0:0:
123,132,31778,1,0,0:0:0:0:
136,112,31868,5,0,0:0:0:0:
140,92,31957,1,0,0:0:0:0:
136,68,32047,1,0,0:0:0:0:
124,48,32136,1,0,0:0:0:0:
108,36,32225,1,0,0:0:0:0:
162,44,32314,1,0,0:0:0:0:
201,81,32403,1,0,0:0:0:0:
212,135,32492,1,0,0:0:0:0:
190,185,32582,5,0,0:0:0:0:
159,230,32671,1,0,0:0:0:0:
156,285,32760,1,0,0:0:0:0:
180,334,32849,1,0,0:0:0:0:
226,363,32939,1,0,0:0:0:0:
281,365,33028,1,0,0:0:0:0:
329,339,33117,1,0,0:0:0:0:
357,291,33207,1,0,0:0:0:0:
357,237,33297,6,0,P|351:206|336:172,1,55.4999983062745,0|0,0:0|0:0,0:0:0:0:
196,80,33475,2,0,P|201:108|211:134,1,55.4999983062745,0|0,0:0|0:0,0:0:0:0:
295,295,33654,2,0,P|313:269|326:234,1,55.4999983062745,0|0,0:0|0:0,0:0:0:0:
292,72,33832,2,0,P|276:94|264:119,1,55.4999983062745,0|0,0:0|0:0,0:0:0:0:
210,292,34011,5,0,0:0:0:0:
263,276,34100,1,0,0:0:0:0:
299,235,34189,1,0,0:0:0:0:
310,181,34278,1,0,0:0:0:0:
291,130,34368,1,0,0:0:0:0:
248,95,34457,1,0,0:0:0:0:
194,88,34546,1,0,0:0:0:0:
144,109,34636,1,0,0:0:0:0:
116,156,34725,5,0,0:0:0:0:
88,172,34814,1,0,0:0:0:0:
56,176,34904,1,0,0:0:0:0:
24,160,34993,1,0,0:0:0:0:
68,100,35082,5,0,0:0:0:0:
44,78,35171,1,0,0:0:0:0:
30,49,35261,1,0,0:0:0:0:
35,13,35350,1,0,0:0:0:0:
104,36,35439,6,0,L|216:24,1,92.5
324,180,35707,1,0,0:0:0:0:
336,196,35797,2,0,B|285:188|285:188|256:170|256:170|202:160,1,120.249994495392,0|0,0:0|0:0,0:0:0:0:
92,256,36064,1,0,0:0:0:0:
88,272,36154,6,0,P|160:304|220:228,1,166.499994918823
217,250,36511,2,0,P|207:301|228:347,1,92.5
418,290,36779,1,0,0:0:0:0:
427,303,36868,2,0,P|355:335|295:259,1,166.499994918823
371,171,37225,2,0,B|378:148|370:121|370:121|404:167|367:227,1,152.625004657746
189,155,37582,6,0,B|214:129|241:123|241:123|272:151|319:140,1,120.249994495392
425,51,37850,1,0,0:0:0:0:
425,51,37939,2,0,B|392:25|358:32|358:32|327:68|278:54,1,138.75
140,218,38297,2,0,P|124:149|218:183,1,194.249994071961
230,358,38654,6,0,P|248:314|230:260,1,92.5
30,264,38922,1,0,0:0:0:0:
16,277,39011,2,0,B|55:260|94:292|94:292|129:322|178:302,1,166.499994918823
351,196,39368,2,0,P|321:230|315:276,1,92.5
485,263,39636,1,0,0:0:0:0:
488,242,39725,2,0,P|430:186|350:196,1,166.499994918823
420,344,40082,6,0,B|440:292|401:258|401:258|408:284|400:312,1,129.499996047974
240,144,40439,2,0,B|260:196|221:229|221:229|228:204|220:176,1,129.499996047974
53,281,40797,2,0,P|70:308|73:340,2,64.7499980239869
109,107,41154,5,0,0:0:0:0:
147,138,41244,1,0,0:0:0:0:
196,147,41333,1,0,0:0:0:0:
242,131,41422,1,0,0:0:0:0:
276,95,41511,1,0,0:0:0:0:
304,61,41601,1,0,0:0:0:0:
345,45,41690,1,0,0:0:0:0:
388,52,41779,1,0,0:0:0:0:
422,80,41869,5,0,0:0:0:0:
437,121,41958,1,0,0:0:0:0:
430,165,42047,1,0,0:0:0:0:
403,199,42136,1,0,0:0:0:0:
372,231,42226,1,0,0:0:0:0:
341,263,42315,1,0,0:0:0:0:
331,304,42404,1,0,0:0:0:0:
338,348,42493,1,0,0:0:0:0:
314,311,42583,5,0,0:0:0:0:
276,290,42672,1,0,0:0:0:0:
232,291,42761,1,0,0:0:0:0:
192,310,42850,1,0,0:0:0:0:
166,347,42940,1,0,0:0:0:0:
131,374,43029,1,0,0:0:0:0:
88,379,43118,1,0,0:0:0:0:
48,360,43207,1,0,0:0:0:0:
8,275,43297,6,0,P|8:252|1:231,1,46.25
100,299,43475,2,0,P|104:277|103:254,1,46.25
192,197,43654,2,0,P|183:175|183:152,1,46.25
281,160,43832,2,0,P|285:138|296:117,1,46.25
358,279,44011,5,0,0:0:0:0:
352,280,44100,5,0,0:0:0:0:
345,285,44189,5,0,0:0:0:0:
339,295,44279,5,0,0:0:0:0:
341,315,44368,5,0,0:0:0:0:
362,327,44457,5,0,0:0:0:0:
388,314,44547,5,0,0:0:0:0:
400,285,44636,5,0,0:0:0:0:
382,251,44725,5,0,0:0:0:0:
351,216,44814,1,0,0:0:0:0:
312,192,44903,1,0,0:0:0:0:
267,180,44992,1,0,0:0:0:0:
221,181,45082,1,0,0:0:0:0:
177,195,45171,1,0,0:0:0:0:
140,222,45260,1,0,0:0:0:0:
111,258,45350,1,0,0:0:0:0:
85,219,45439,5,0,0:0:0:0:
83,174,45528,1,0,0:0:0:0:
100,131,45617,1,0,0:0:0:0:
132,98,45706,1,0,0:0:0:0:
176,82,45796,1,0,0:0:0:0:
221,87,45885,1,0,0:0:0:0:
261,109,45975,1,0,0:0:0:0:
284,154,46064,1,0,0:0:0:0:
315,186,46153,5,0,0:0:0:0:
355,204,46242,1,0,0:0:0:0:
403,204,46331,1,0,0:0:0:0:
445,185,46421,1,0,0:0:0:0:
473,150,46510,1,0,0:0:0:0:
485,105,46600,1,0,0:0:0:0:
471,60,46689,1,0,0:0:0:0:
439,26,46778,1,0,0:0:0:0:
395,15,46867,5,0,0:0:0:0:
352,30,46956,1,0,0:0:0:0:
325,67,47046,1,0,0:0:0:0:
324,112,47135,1,0,0:0:0:0:
348,151,47225,5,0,0:0:0:0:
342,200,47314,1,0,0:0:0:0:
370,236,47404,1,0,0:0:0:0:
374,276,47493,1,0,0:0:0:0:
398,304,47582,5,0,0:0:0:0:
378,340,47671,5,0,0:0:0:0:
338,364,47760,5,0,0:0:0:0:
286,360,47849,5,0,0:0:0:0:
242,324,47939,5,0,0:0:0:0:
230,264,48028,5,0,0:0:0:0:
262,208,48117,5,0,0:0:0:0:
326,188,48207,5,0,0:0:0:0:
386,224,48297,5,0,0:0:0:0:
329,261,48386,1,0,0:0:0:0:
261,261,48475,1,0,0:0:0:0:
204,224,48564,1,0,0:0:0:0:
177,161,48654,1,0,0:0:0:0:
188,94,48743,1,0,0:0:0:0:
235,44,48832,1,0,0:0:0:0:
302,28,48922,1,0,0:0:0:0:
366,44,49011,1,0,0:0:0:0:
402,96,49100,1,0,0:0:0:0:
390,156,49189,1,0,0:0:0:0:
358,200,49279,1,0,0:0:0:0:
310,212,49368,1,0,0:0:0:0:
266,200,49457,1,0,0:0:0:0:
242,164,49547,1,0,0:0:0:0:
238,128,49636,1,0,0:0:0:0:
254,100,49725,5,0,0:0:0:0:
278,88,49814,1,0,0:0:0:0:
302,88,49904,1,0,0:0:0:0:
318,96,49993,1,0,0:0:0:0:
326,108,50082,1,0,0:0:0:0:
326,116,50172,1,0,0:0:0:0:
322,124,50261,1,0,0:0:0:0:
314,128,50350,1,0,0:0:0:0:
306,124,50439,5,0,0:0:0:0:
331,162,50528,1,0,0:0:0:0:
339,207,50617,1,0,0:0:0:0:
327,251,50706,1,0,0:0:0:0:
298,286,50796,1,0,0:0:0:0:
257,306,50885,1,0,0:0:0:0:
211,308,50974,1,0,0:0:0:0:
169,289,51064,1,0,0:0:0:0:
142,260,51153,1,0,0:0:0:0:
110,232,51243,1,0,0:0:0:0:
70,220,51332,1,0,0:0:0:0:
30,232,51422,1,0,0:0:0:0:
2,264,51511,5,0,0:0:0:0:
33,297,51600,1,0,0:0:0:0:
76,314,51689,1,0,0:0:0:0:
121,310,51778,1,0,0:0:0:0:
161,287,51868,1,0,0:0:0:0:
186,248,51957,1,0,0:0:0:0:
192,203,52046,1,0,0:0:0:0:
178,159,52136,1,0,0:0:0:0:
146,126,52225,5,0,0:0:0:0:
111,156,52314,1,0,0:0:0:0:
92,198,52403,1,0,0:0:0:0:
91,244,52492,1,0,0:0:0:0:
109,286,52582,5,0,0:0:0:0:
143,317,52671,1,0,0:0:0:0:
186,331,52760,1,0,0:0:0:0:
232,327,52850,1,0,0:0:0:0:
272,304,52939,1,0,0:0:0:0:
297,266,53028,1,0,0:0:0:0:
336,242,53117,1,0,0:0:0:0:
382,238,53206,1,0,0:0:0:0:
425,254,53296,1,0,0:0:0:0:
450,280,53386,1,0,0:0:0:0:
462,308,53475,1,0,0:0:0:0:
466,336,53564,1,0,0:0:0:0:
458,360,53654,1,0,0:0:0:0:
420,333,53743,1,0,0:0:0:0:
399,293,53832,1,0,0:0:0:0:
398,247,53921,1,0,0:0:0:0:
419,206,54011,6,0,L|522:196,1,92.5
320,144,54368,2,0,B|376:136|376:136|396:124|396:124|460:116,1,138.75
268,204,54725,2,0,P|240:136|284:72,1,152.625004657746
292,296,55082,2,0,B|246:308|209:276|209:276|167:301|175:342,1,166.499994918823
8,300,55439,2,0,B|53:291|90:324|90:324|94:258|140:233,1,180.374991743088
256,102,55797,6,0,L|269:215,1,101.750003105164
104,178,56154,2,0,B|97:285|97:285|100:266|125:242,1,159.562503043413
244,355,56511,2,0,P|217:312|174:338,1,110.999996612549
14,282,56868,2,0,P|57:210|129:253,1,173.4375
266,181,57225,6,0,P|249:127|196:143,1,120.249994495392
48,92,57582,2,0,P|72:12|151:35,1,173.4375
198,139,57939,2,0,P|256:144|300:104,1,110.999996612549
475,62,58297,2,0,P|427:28|372:39,1,106.375002028942
450,211,58654,2,0,L|556:202,1,97.1249970359803
372,335,59011,6,0,L|266:326,1,92.5
166,171,59368,2,0,P|197:202|204:246,1,87.8749976534844
0,256,59725,2,0,L|82:248,1,83.2499974594117
65,319,60082,2,0,P|62:279|83:247,1,78.6250014996529
240,308,60439,2,0,L|166:303,1,74
220,132,60797,2,0,L|215:206,1,74
69,363,61154,5,0,0:0:0:0:
65,319,61243,1,0,0:0:0:0:
61,275,61332,1,0,0:0:0:0:
57,231,61421,1,0,0:0:0:0:
28,216,61511,1,0,0:0:0:0:
32,168,61600,1,0,0:0:0:0:
40,120,61689,1,0,0:0:0:0:
48,72,61778,1,0,0:0:0:0:
16,28,61868,5,0,0:0:0:0:
4,80,61957,1,0,0:0:0:0:
30,128,62046,1,0,0:0:0:0:
82,145,62135,1,0,0:0:0:0:
132,123,62225,1,0,0:0:0:0:
172,84,62314,1,0,0:0:0:0:
224,68,62403,1,0,0:0:0:0:
276,88,62492,1,0,0:0:0:0:
317,24,62582,5,0,0:0:0:0:
345,48,62672,1,0,0:0:0:0:
357,84,62761,1,0,0:0:0:0:
345,120,62850,1,0,0:0:0:0:
321,152,62939,1,0,0:0:0:0:
301,182,63029,1,0,0:0:0:0:
298,220,63118,1,0,0:0:0:0:
319,251,63207,1,0,0:0:0:0:
356,262,63297,5,0,0:0:0:0:
406,239,63386,1,0,0:0:0:0:
438,195,63475,1,0,0:0:0:0:
445,141,63564,1,0,0:0:0:0:
423,90,63654,1,0,0:0:0:0:
379,57,63743,1,0,0:0:0:0:
325,50,63832,1,0,0:0:0:0:
274,71,63922,1,0,0:0:0:0:
241,115,64011,5,0,0:0:0:0:
224,167,64100,1,0,0:0:0:0:
185,206,64189,1,0,0:0:0:0:
133,222,64278,1,0,0:0:0:0:
79,212,64368,1,0,0:0:0:0:
36,178,64457,1,0,0:0:0:0:
13,128,64546,1,0,0:0:0:0:
17,74,64636,1,0,0:0:0:0:
45,27,64725,5,0,0:0:0:0:
72,54,64814,1,0,0:0:0:0:
87,83,64904,1,0,0:0:0:0:
89,110,64993,1,0,0:0:0:0:
82,131,65082,5,0,0:0:0:0:
54,178,65171,1,0,0:0:0:0:
52,233,65260,1,0,0:0:0:0:
77,282,65349,1,0,0:0:0:0:
122,313,65439,1,0,0:0:0:0:
176,320,65528,1,0,0:0:0:0:
227,299,65617,1,0,0:0:0:0:
262,257,65707,1,0,0:0:0:0:
273,203,65797,5,0,0:0:0:0:
298,252,65886,1,0,0:0:0:0:
344,281,65975,1,0,0:0:0:0:
399,284,66064,1,0,0:0:0:0:
447,258,66154,1,0,0:0:0:0:
476,212,66243,1,0,0:0:0:0:
478,157,66332,1,0,0:0:0:0:
452,109,66421,1,0,0:0:0:0:
405,80,66511,5,0,0:0:0:0:
355,102,66600,1,0,0:0:0:0:
300,97,66689,1,0,0:0:0:0:
254,67,66778,1,0,0:0:0:0:
228,19,66868,1,0,0:0:0:0:
210,71,66957,1,0,0:0:0:0:
171,109,67046,1,0,0:0:0:0:
118,126,67135,1,0,0:0:0:0:
64,117,67225,6,0,P|46:96|36:68,1,55.4999983062745
170,209,67404,2,0,P|187:230|197:255,1,55.4999983062745
120,54,67582,2,0,P|115:26|120:-2,1,55.4999983062745
118,270,67761,2,0,P|122:297|118:324,1,55.4999983062745
196,86,67939,2,0,P|211:63|235:46,1,55.4999983062745
41,237,68118,2,0,P|26:260|3:276,1,55.4999983062745
242,154,68297,2,0,P|297:153|351:163,1,110.999996612549
433,296,68654,5,0,0:0:0:0:
420,314,68743,1,0,0:0:0:0:
395,327,68832,1,0,0:0:0:0:
361,330,68922,1,0,0:0:0:0:
326,311,69011,5,0,0:0:0:0:
283,276,69100,1,0,0:0:0:0:
229,262,69189,1,0,0:0:0:0:
175,270,69278,1,0,0:0:0:0:
129,300,69368,5,0,0:0:0:0:
181,315,69457,1,0,0:0:0:0:
231,294,69546,1,0,0:0:0:0:
255,245,69635,1,0,0:0:0:0:
243,192,69725,5,0,0:0:0:0:
216,145,69814,1,0,0:0:0:0:
215,90,69903,1,0,0:0:0:0:
243,42,69992,1,0,0:0:0:0:
290,15,70082,1,0,0:0:0:0:
345,15,70171,1,0,0:0:0:0:
392,42,70260,1,0,0:0:0:0:
420,89,70349,1,0,0:0:0:0:
420,144,70439,5,0,0:0:0:0:
392,186,70529,1,0,0:0:0:0:
351,203,70618,1,0,0:0:0:0:
314,190,70707,1,0,0:0:0:0:
295,162,70797,1,0,0:0:0:0:
292,134,70886,1,0,0:0:0:0:
306,117,70975,1,0,0:0:0:0:
322,114,71064,1,0,0:0:0:0:
334,116,71154,5,0,0:0:0:0:
320,169,71243,1,0,0:0:0:0:
284,210,71332,1,0,0:0:0:0:
233,231,71421,1,0,0:0:0:0:
178,228,71511,5,0,0:0:0:0:
131,201,71600,1,0,0:0:0:0:
77,192,71689,1,0,0:0:0:0:
29,218,71778,1,0,0:0:0:0:
6,267,71867,1,0,0:0:0:0:
19,320,71957,1,0,0:0:0:0:
62,354,72046,1,0,0:0:0:0:
116,356,72135,1,0,0:0:0:0:
160,324,72225,5,0,0:0:0:0:
173,270,72314,1,0,0:0:0:0:
175,215,72403,1,0,0:0:0:0:
165,160,72492,1,0,0:0:0:0:
143,109,72582,1,0,0:0:0:0:
111,64,72671,1,0,0:0:0:0:
70,27,72760,1,0,0:0:0:0:
21,0,72850,1,0,0:0:0:0:
39,52,72939,5,0,0:0:0:0:
76,92,73028,1,0,0:0:0:0:
127,114,73117,1,0,0:0:0:0:
182,113,73207,1,0,0:0:0:0:
232,89,73297,1,0,0:0:0:0:
285,74,73386,1,0,0:0:0:0:
339,82,73475,1,0,0:0:0:0:
384,113,73564,1,0,0:0:0:0:
412,161,73654,5,0,0:0:0:0:
393,188,73743,1,0,0:0:0:0:
386,215,73832,1,0,0:0:0:0:
389,237,73922,1,0,0:0:0:0:
398,249,74011,5,0,0:0:0:0:
448,225,74100,1,0,0:0:0:0:
481,182,74189,1,0,0:0:0:0:
490,127,74278,1,0,0:0:0:0:
472,75,74368,5,0,0:0:0:0:
432,38,74457,1,0,0:0:0:0:
379,24,74546,1,0,0:0:0:0:
325,37,74635,1,0,0:0:0:0:
284,73,74725,1,0,0:0:0:0:
251,117,74814,1,0,0:0:0:0:
201,140,74903,1,0,0:0:0:0:
146,138,74992,1,0,0:0:0:0:
98,111,75082,5,0,0:0:0:0:
85,80,75172,1,0,0:0:0:0:
87,52,75261,1,0,0:0:0:0:
96,32,75350,1,0,0:0:0:0:
110,24,75439,5,0,0:0:0:0:
143,68,75528,1,0,0:0:0:0:
157,122,75617,1,0,0:0:0:0:
149,176,75706,1,0,0:0:0:0:
120,223,75797,5,0,0:0:0:0:
174,215,75886,1,0,0:0:0:0:
221,185,75975,1,0,0:0:0:0:
251,140,76064,1,0,0:0:0:0:
260,85,76154,5,0,0:0:0:0:
269,139,76243,1,0,0:0:0:0:
303,183,76332,1,0,0:0:0:0:
354,204,76421,1,0,0:0:0:0:
399,201,76511,1,0,0:0:0:0:
427,183,76600,1,0,0:0:0:0:
444,161,76689,1,0,0:0:0:0:
450,139,76778,1,0,0:0:0:0:
446,121,76868,5,0,0:0:0:0:
393,105,76957,1,0,0:0:0:0:
339,119,77046,1,0,0:0:0:0:
300,157,77135,1,0,0:0:0:0:
284,209,77225,1,0,0:0:0:0:
297,263,77314,1,0,0:0:0:0:
335,302,77403,1,0,0:0:0:0:
388,318,77492,1,0,0:0:0:0:
442,304,77582,5,0,0:0:0:0:
474,259,77671,1,0,0:0:0:0:
482,205,77760,1,0,0:0:0:0:
463,153,77849,1,0,0:0:0:0:
423,116,77939,1,0,0:0:0:0:
370,102,78028,1,0,0:0:0:0:
316,114,78117,1,0,0:0:0:0:
275,150,78206,1,0,0:0:0:0:
255,201,78297,5,0,0:0:0:0:
225,155,78386,1,0,0:0:0:0:
176,131,78475,1,0,0:0:0:0:
121,136,78564,1,0,0:0:0:0:
77,169,78654,1,0,0:0:0:0:
57,220,78743,1,0,0:0:0:0:
66,274,78832,1,0,0:0:0:0:
102,315,78921,1,0,0:0:0:0:
155,331,79011,5,0,0:0:0:0:
202,304,79100,1,0,0:0:0:0:
257,303,79189,1,0,0:0:0:0:
306,329,79278,1,0,0:0:0:0:
337,374,79368,5,0,0:0:0:0:
334,319,79457,1,0,0:0:0:0:
357,269,79546,1,0,0:0:0:0:
401,236,79635,1,0,0:0:0:0:
455,226,79725,5,0,0:0:0:0:
436,254,79814,1,0,0:0:0:0:
430,281,79904,1,0,0:0:0:0:
431,303,79993,1,0,0:0:0:0:
437,318,80082,1,0,0:0:0:0:
445,324,80172,1,0,0:0:0:0:
455,326,80261,1,0,0:0:0:0:
465,323,80350,1,0,0:0:0:0:
473,316,80439,5,0,0:0:0:0:
450,265,80528,1,0,0:0:0:0:
409,228,80617,1,0,0:0:0:0:
356,211,80706,1,0,0:0:0:0:
302,217,80797,1,0,0:0:0:0:
252,240,80886,1,0,0:0:0:0:
198,234,80975,1,0,0:0:0:0:
154,200,81064,1,0,0:0:0:0:
138,147,81154,5,0,0:0:0:0:
154,94,81243,1,0,0:0:0:0:
193,63,81332,1,0,0:0:0:0:
237,57,81422,1,0,0:0:0:0:
272,73,81511,1,0,0:0:0:0:
287,102,81600,1,0,0:0:0:0:
283,129,81689,1,0,0:0:0:0:
265,143,81779,1,0,0:0:0:0:
248,146,81868,6,0,P|236:120|231:93,3,55.4999983062745
363,151,82225,2,0,P|378:128|400:110,3,55.4999983062745
416,253,82582,2,0,P|443:255|469:265,3,55.4999983062745
350,332,82939,2,0,P|361:357|366:384,3,55.4999983062745
241,323,83297,2,0,P|225:345|203:363,3,55.4999983062745
165,235,83654,2,0,P|137:232|111:222,3,55.4999983062745
286,206,84011,5,0,0:0:0:0:
285,196,84100,1,0,0:0:0:0:
284,184,84189,1,0,0:0:0:0:
280,175,84279,1,0,0:0:0:0:
274,164,84368,1,0,0:0:0:0:
267,157,84457,1,0,0:0:0:0:
258,150,84547,1,0,0:0:0:0:
247,146,84636,1,0,0:0:0:0:
235,145,84725,5,0,0:0:0:0:
246,125,84814,1,0,0:0:0:0:
250,104,84904,1,0,0:0:0:0:
245,82,84993,1,0,0:0:0:0:
234,63,85082,1,0,0:0:0:0:
218,49,85172,1,0,0:0:0:0:
197,57,85261,1,0,0:0:0:0:
182,73,85350,1,0,0:0:0:0:
176,94,85439,5,0,0:0:0:0:
154,68,85529,1,0,0:0:0:0:
123,56,85618,1,0,0:0:0:0:
89,56,85707,1,0,0:0:0:0:
57,68,85797,1,0,0:0:0:0:
61,100,85886,1,0,0:0:0:0:
84,123,85975,1,0,0:0:0:0:
115,134,86064,1,0,0:0:0:0:
148,131,86154,5,0,0:0:0:0:
109,151,86243,1,0,0:0:0:0:
78,184,86332,1,0,0:0:0:0:
59,226,86422,1,0,0:0:0:0:
60,269,86511,1,0,0:0:0:0:
103,276,86600,1,0,0:0:0:0:
146,267,86689,1,0,0:0:0:0:
182,243,86779,1,0,0:0:0:0:
205,204,86868,5,0,0:0:0:0:
196,260,86957,1,0,0:0:0:0:
216,312,87047,1,0,0:0:0:0:
260,346,87136,1,0,0:0:0:0:
312,358,87225,1,0,0:0:0:0:
345,316,87314,1,0,0:0:0:0:
364,264,87404,1,0,0:0:0:0:
349,210,87493,1,0,0:0:0:0:
307,174,87582,5,0,0:0:0:0:
361,200,87671,1,0,0:0:0:0:
422,196,87761,1,0,0:0:0:0:
469,158,87850,1,0,0:0:0:0:
500,105,87939,1,0,0:0:0:0:
458,60,88028,1,0,0:0:0:0:
399,41,88118,1,0,0:0:0:0:
338,39,88207,1,0,0:0:0:0:
283,68,88297,5,0,0:0:0:0:
231,111,88386,1,0,0:0:0:0:
163,134,88475,1,0,0:0:0:0:
91,140,88564,1,0,0:0:0:0:
23,113,88654,5,0,0:0:0:0:
94,115,88743,1,0,0:0:0:0:
163,134,88832,1,0,0:0:0:0:
225,170,88922,1,0,0:0:0:0:
274,219,89011,6,0,P|283:246|287:273,1,55.4999983062745
283,68,89189,2,0,P|301:47|323:30,1,55.4999983062745
163,134,89368,2,0,P|135:128|110:117,1,55.4999983062745
369,179,89547,2,0,P|396:184|421:195,1,55.4999983062745
287,273,89725,5,0,0:0:0:0:
251,314,89814,1,0,0:0:0:0:
200,336,89903,1,0,0:0:0:0:
145,334,89992,1,0,0:0:0:0:
97,307,90082,1,0,0:0:0:0:
66,262,90171,1,0,0:0:0:0:
57,208,90260,1,0,0:0:0:0:
73,155,90349,1,0,0:0:0:0:
111,116,90439,6,0,P|117:144|118:170,1,55.4999983062745
200,336,90618,2,0,P|206:309|216:283,1,55.4999983062745
277,68,90797,2,0,P|283:96|284:122,1,55.4999983062745
357,317,90975,2,0,P|363:290|373:264,1,55.4999983062745
461,34,91154,2,0,P|467:62|468:88,1,55.4999983062745
459,192,91332,1,0,0:0:0:0:
436,190,91422,1,0,0:0:0:0:
415,181,91511,1,0,0:0:0:0:
297,240,91689,1,0,0:0:0:0:
275,232,91779,1,0,0:0:0:0:
257,215,91868,5,0,0:0:0:0:
223,185,91957,1,0,0:0:0:0:
181,169,92046,1,0,0:0:0:0:
136,169,92135,1,0,0:0:0:0:
96,190,92225,2,0,P|69:196|42:203,1,55.4999983062745
225,78,92404,2,0,P|249:64|273:50,1,55.4999983062745
84,23,92582,5,0,0:0:0:0:
41,57,92671,1,0,0:0:0:0:
28,110,92760,1,0,0:0:0:0:
48,161,92849,1,0,0:0:0:0:
95,189,92939,1,0,0:0:0:0:
131,230,93028,1,0,0:0:0:0:
135,284,93117,1,0,0:0:0:0:
104,329,93206,1,0,0:0:0:0:
53,346,93297,5,0,0:0:0:0:
20,301,93386,1,0,0:0:0:0:
12,247,93475,1,0,0:0:0:0:
30,195,93564,1,0,0:0:0:0:
70,157,93654,1,0,0:0:0:0:
122,141,93743,1,0,0:0:0:0:
176,152,93832,1,0,0:0:0:0:
220,186,93921,1,0,0:0:0:0:
243,237,94011,5,0,0:0:0:0:
282,274,94100,1,0,0:0:0:0:
335,291,94189,1,0,0:0:0:0:
389,285,94278,1,0,0:0:0:0:
436,257,94368,1,0,0:0:0:0:
467,211,94457,1,0,0:0:0:0:
476,157,94546,1,0,0:0:0:0:
461,104,94635,1,0,0:0:0:0:
417,68,94725,5,0,0:0:0:0:
362,61,94814,1,0,0:0:0:0:
309,80,94904,1,0,0:0:0:0:
279,126,94993,1,0,0:0:0:0:
293,178,95082,2,0,P|320:188|347:187,3,55.4999983062745
188,275,95439,2,0,P|161:284|134:283,3,55.4999983062745
319,278,95797,5,0,0:0:0:0:
356,280,95886,1,0,0:0:0:0:
391,298,95975,1,0,0:0:0:0:
416,326,96064,1,0,0:0:0:0:
430,362,96154,5,0,0:0:0:0:
464,320,96243,1,0,0:0:0:0:
468,264,96332,1,0,0:0:0:0:
441,218,96421,1,0,0:0:0:0:
392,194,96511,1,0,0:0:0:0:
338,180,96600,1,0,0:0:0:0:
299,142,96689,1,0,0:0:0:0:
283,90,96778,1,0,0:0:0:0:
298,37,96868,5,0,0:0:0:0:
328,69,96957,1,0,0:0:0:0:
338,100,97046,1,0,0:0:0:0:
338,122,97135,1,0,0:0:0:0:
332,137,97225,5,0,0:0:0:0:
291,173,97314,1,0,0:0:0:0:
237,187,97403,1,0,0:0:0:0:
184,173,97492,1,0,0:0:0:0:
144,136,97582,1,0,0:0:0:0:
149,190,97671,1,0,0:0:0:0:
125,240,97760,1,0,0:0:0:0:
81,271,97849,1,0,0:0:0:0:
26,276,97939,5,0,0:0:0:0:
5,237,98029,1,0,0:0:0:0:
5,203,98118,1,0,0:0:0:0:
13,182,98207,1,0,0:0:0:0:
25,171,98297,5,0,0:0:0:0:
54,186,98386,1,0,0:0:0:0:
83,218,98475,1,0,0:0:0:0:
106,268,98564,1,0,0:0:0:0:
113,323,98654,5,0,0:0:0:0:
160,294,98743,1,0,0:0:0:0:
191,249,98832,1,0,0:0:0:0:
200,195,98921,1,0,0:0:0:0:
186,142,99011,5,0,0:0:0:0:
232,172,99100,1,0,0:0:0:0:
268,214,99189,1,0,0:0:0:0:
289,265,99278,1,0,0:0:0:0:
294,321,99368,5,0,0:0:0:0:
345,299,99457,1,0,0:0:0:0:
379,256,99546,1,0,0:0:0:0:
390,202,99635,1,0,0:0:0:0:
373,149,99725,5,0,0:0:0:0:
340,192,99814,1,0,0:0:0:0:
340,247,99903,1,0,0:0:0:0:
371,292,99992,1,0,0:0:0:0:
423,309,100082,1,0,0:0:0:0:
475,294,100171,1,0,0:0:0:0:
508,250,100260,1,0,0:0:0:0:
510,196,100349,1,0,0:0:0:0:
479,150,100439,6,0,P|463:173|454:199,3,55.4999983062745
341,84,100797,2,0,P|334:57|337:29,3,55.4999983062745
268,214,101154,2,0,P|255:238|250:265,2,55.4999983062745
16,232,101868,5,0,0:0:0:0:
156,172,102047,1,0,0:0:0:0:
104,362,102225,1,0,0:0:0:0:
284,156,102404,1,0,0:0:0:0:
244,346,102582,5,0,0:0:0:0:
512,232,102761,1,0,0:0:0:0:
417,380,102939,5,0,0:0:0:0:
396,108,103118,1,0,0:0:0:0:
512,345,103297,5,0,0:0:0:0:
355,236,103475,5,0,0:0:0:0:
512,140,103654,5,0,0:0:0:0:
328,384,103832,5,0,0:0:0:0:
164,188,104011,5,0,0:0:0:0:
0,274,104189,6,0,B|40:254|72:262|92:282|92:282|80:254|84:226|84:226|68:198|84:162,1,221.999993225098
268,172,104725,1,0,0:0:0:0:
192,40,104904,2,0,P|247:-13|240:84,1,221.999993225098,0|0,0:0|0:0,0:0:0:0:
92,281,105439,1,0,0:0:0:0:
268,172,105618,2,0,B|308:165|332:132|332:132|356:157|356:157|388:141|388:141|404:176|448:188,1,221.999993225098,0|0,0:0|0:0,0:0:0:0:
381,18,106154,5,0,0:0:0:0:
351,201,106332,1,0,0:0:0:0:
336,356,106511,1,0,0:0:0:0:
240,280,106689,1,0,0:0:0:0:
432,296,106868,6,0,L|428:351,1,55.4999983062745
335,355,107047,2,0,L|339:300,1,55.4999983062745,0|0,0:0|0:0,0:0:0:0:
280,120,107225,2,0,L|284:176,1,55.4999983062745,0|0,0:0|0:0,0:0:0:0:
191,172,107404,2,0,L|187:116,1,55.4999983062745,0|0,0:0|0:0,0:0:0:0:
405,59,107582,6,0,P|432:58|458:69,1,55.4999983062745
458,69,107761,2,0,P|430:70|404:60,1,55.4999983062745
307,277,107940,2,0,P|332:264|359:264,1,55.4999983062745
368,292,108118,2,0,P|342:302|314:305,1,55.4999983062745
128,160,108297,2,0,P|154:147|182:148,1,55.4999983062745
194,222,108475,2,0,P|168:232|140:234,1,55.4999983062745
3,55,108654,2,0,P|10:82|9:110,1,55.4999983062745
53,313,108832,2,0,P|62:287|64:260,1,55.4999983062745
132,28,109011,6,0,P|138:54|137:82,1,55.4999983062745
190,313,109189,2,0,P|199:287|200:259,1,55.4999983062745,0|0,0:0|0:0,0:0:0:0:
277,106,109368,2,0,P|278:78|272:52,1,55.4999983062745,0|0,0:0|0:0,0:0:0:0:
336,316,109546,2,0,P|335:343|326:369,1,55.4999983062745,0|0,0:0|0:0,0:0:0:0:
400,216,109725,2,0,B|424:228|460:216,1,55.4999983062745
427,134,109904,6,0,B|377:113|334:157|334:157|299:198|255:198|224:150|271:118|301:134|295:173,1,258.999992095948
400,216,110439,1,0,0:0:0:0:
336,68,110618,2,0,B|408:32|480:80|480:80|443:25|384:8,1,258.999992095948,0|0,0:0|0:0,0:0:0:0:
236,176,111154,1,0,0:0:0:0:
57,123,111332,6,0,B|97:147|141:123|141:123|108:161|115:205|115:205|159:231|146:295,1,258.999992095948
256,384,111868,2,0,L|260:304,1,55.4999983062745,0|0,0:0|0:0,0:0:0:0:
376,259,112047,2,0,L|380:324,1,55.4999983062745,0|0,0:0|0:0,0:0:0:0:
483,275,112226,2,0,L|480:220,1,55.4999983062745
491,370,112404,1,0,0:0:0:0:
484,276,112582,5,0,0:0:0:0:
481,237,112671,1,0,0:0:0:0:
478,198,112760,1,0,0:0:0:0:
475,159,112849,1,0,0:0:0:0:
472,121,112939,5,0,0:0:0:0:
423,150,113028,1,0,0:0:0:0:
366,144,113117,1,0,0:0:0:0:
323,106,113206,1,0,0:0:0:0:
312,49,113297,5,0,0:0:0:0:
341,76,113386,1,0,0:0:0:0:
357,111,113475,1,0,0:0:0:0:
357,149,113564,1,0,0:0:0:0:
343,185,113654,1,0,0:0:0:0:
316,212,113743,1,0,0:0:0:0:
280,227,113832,1,0,0:0:0:0:
242,226,113921,1,0,0:0:0:0:
206,211,114011,5,0,0:0:0:0:
173,171,114100,1,0,0:0:0:0:
124,155,114189,1,0,0:0:0:0:
75,167,114278,1,0,0:0:0:0:
39,203,114368,1,0,0:0:0:0:
28,253,114457,1,0,0:0:0:0:
45,302,114546,1,0,0:0:0:0:
85,333,114635,1,0,0:0:0:0:
135,340,114725,5,0,0:0:0:0:
176,372,114814,1,0,0:0:0:0:
156,317,114903,1,0,0:0:0:0:
165,260,114992,1,0,0:0:0:0:
199,214,115081,1,0,0:0:0:0:
251,189,115171,1,0,0:0:0:0:
309,193,115260,1,0,0:0:0:0:
358,223,115349,1,0,0:0:0:0:
387,272,115439,6,0,P|388:300|380:336,1,46.25,0|0,0:0|0:0,0:0:0:0:
272,300,115618,2,0,P|265:327|248:360,1,46.25,0|0,0:0|0:0,0:0:0:0:
167,256,115796,2,0,P|168:228|160:192,1,46.25,0|0,0:0|0:0,0:0:0:0:
52,228,115975,2,0,P|45:200|28:167,1,46.25,0|0,0:0|0:0,0:0:0:0:
54,343,116154,5,0,0:0:0:0:
107,329,116243,1,0,0:0:0:0:
148,291,116332,1,0,0:0:0:0:
166,240,116421,1,0,0:0:0:0:
158,185,116511,5,0,0:0:0:0:
160,130,116601,1,0,0:0:0:0:
190,84,116690,1,0,0:0:0:0:
239,60,116779,1,0,0:0:0:0:
293,64,116868,1,0,0:0:0:0:
338,96,116958,1,0,0:0:0:0:
360,146,117047,1,0,0:0:0:0:
353,200,117136,1,0,0:0:0:0:
320,244,117225,5,0,0:0:0:0:
347,246,117314,1,0,0:0:0:0:
375,248,117404,1,0,0:0:0:0:
403,251,117493,1,0,0:0:0:0:
440,276,117582,5,0,0:0:0:0:
406,279,117671,1,0,0:0:0:0:
373,282,117760,1,0,0:0:0:0:
340,285,117850,1,0,0:0:0:0:
306,311,117939,5,0,0:0:0:0:
344,314,118028,1,0,0:0:0:0:
383,317,118117,1,0,0:0:0:0:
422,321,118206,1,0,0:0:0:0:
460,324,118296,5,0,0:0:0:0:
462,335,118386,1,0,0:0:0:0:
462,347,118475,1,0,0:0:0:0:
458,355,118564,1,0,0:0:0:0:
450,363,118654,1,0,0:0:0:0:
438,359,118743,1,0,0:0:0:0:
430,351,118832,1,0,0:0:0:0:
430,339,118922,1,0,0:0:0:0:
438,331,119011,5,0,0:0:0:0:
450,327,119100,1,0,0:0:0:0:
462,331,119189,1,0,0:0:0:0:
470,339,119279,1,0,0:0:0:0:
470,351,119368,2,0,P|466:323|474:299,1,46.25
406,243,119547,2,0,P|428:225|453:220,1,46.25
472,140,119725,5,0,0:0:0:0:
481,142,119814,1,0,0:0:0:0:
489,145,119903,1,0,0:0:0:0:
497,150,119992,1,0,0:0:0:0:
504,156,120082,1,0,0:0:0:0:
468,185,120171,1,0,0:0:0:0:
424,196,120260,1,0,0:0:0:0:
379,187,120349,1,0,0:0:0:0:
343,159,120439,5,0,0:0:0:0:
322,118,120529,1,0,0:0:0:0:
293,82,120618,1,0,0:0:0:0:
252,63,120707,1,0,0:0:0:0:
206,63,120796,1,0,0:0:0:0:
165,83,120886,1,0,0:0:0:0:
136,119,120975,5,0,0:0:0:0:
158,127,121064,1,0,0:0:0:0:
181,126,121153,1,0,0:0:0:0:
201,116,121242,1,0,0:0:0:0:
228,124,121332,5,0,0:0:0:0:
248,104,121422,1,0,0:0:0:0:
256,80,121511,1,0,0:0:0:0:
252,52,121600,1,0,0:0:0:0:
268,24,121689,5,0,0:0:0:0:
299,56,121778,1,0,0:0:0:0:
312,100,121867,1,0,0:0:0:0:
302,145,121956,1,0,0:0:0:0:
271,180,122047,5,0,0:0:0:0:
240,225,122136,1,0,0:0:0:0:
233,279,122225,1,0,0:0:0:0:
252,331,122314,1,0,0:0:0:0:
292,368,122404,1,0,0:0:0:0:
346,381,122493,1,0,0:0:0:0:
400,368,122582,5,0,0:0:0:0:
374,324,122671,1,0,0:0:0:0:
331,297,122760,1,0,0:0:0:0:
281,293,122849,1,0,0:0:0:0:
232,312,122939,1,0,0:0:0:0:
195,346,123028,1,0,0:0:0:0:
147,361,123117,1,0,0:0:0:0:
97,352,123206,1,0,0:0:0:0:
55,322,123296,5,0,0:0:0:0:
56,288,123386,1,0,0:0:0:0:
60,256,123475,1,0,0:0:0:0:
64,224,123564,1,0,0:0:0:0:
88,188,123654,1,0,0:0:0:0:
84,148,123743,1,0,0:0:0:0:
76,108,123832,1,0,0:0:0:0:
68,68,123922,1,0,0:0:0:0:
60,28,124011,5,0,0:0:0:0:
128,36,124100,1,0,0:0:0:0:
196,44,124189,1,0,0:0:0:0:
216,64,124279,5,0,0:0:0:0:
284,56,124368,1,0,0:0:0:0:
352,48,124457,1,0,0:0:0:0:
412,20,124547,5,0,0:0:0:0:
370,55,124636,1,0,0:0:0:0:
354,108,124725,1,0,0:0:0:0:
368,161,124814,1,0,0:0:0:0:
408,198,124904,1,0,0:0:0:0:
435,245,124993,1,0,0:0:0:0:
431,299,125082,1,0,0:0:0:0:
397,342,125171,1,0,0:0:0:0:
345,359,125261,1,0,0:0:0:0:
293,343,125350,1,0,0:0:0:0:
258,301,125439,5,0,0:0:0:0:
228,280,125529,1,0,0:0:0:0:
196,276,125618,1,0,0:0:0:0:
168,284,125707,1,0,0:0:0:0:
148,296,125797,1,0,0:0:0:0:
136,312,125886,1,0,0:0:0:0:
132,324,125975,1,0,0:0:0:0:
132,332,126064,1,0,0:0:0:0:
136,340,126154,5,0,0:0:0:0:
160,301,126243,1,0,0:0:0:0:
161,255,126332,1,0,0:0:0:0:
138,216,126421,1,0,0:0:0:0:
98,193,126511,2,0,P|72:192|40:204,1,46.25,0|0,0:0|0:0,0:0:0:0:
0,116,126689,2,0,L|45:105,1,46.25
212,156,126868,5,0,0:0:0:0:
251,180,126957,1,0,0:0:0:0:
297,181,127046,1,0,0:0:0:0:
336,156,127135,1,0,0:0:0:0:
358,117,127225,2,0,P|353:78|343:39,1,69.3750026464463,0|0,0:0|0:0,0:0:0:0:
504,216,127493,5,0,0:0:0:0:
499,227,127582,2,0,P|509:182|509:135,1,92.5,0|0,0:0|0:0,0:0:0:0:
345,277,127850,1,0,0:0:0:0:
352,292,127939,2,0,P|336:229|336:165,1,117.937502249479,0|0,0:0|0:0,0:0:0:0:
428,344,128297,5,0,0:0:0:0:
392,372,128386,1,0,0:0:0:0:
347,380,128475,1,0,0:0:0:0:
304,364,128564,1,0,0:0:0:0:
274,330,128654,5,0,0:0:0:0:
240,299,128743,1,0,0:0:0:0:
195,288,128832,1,0,0:0:0:0:
150,297,128921,1,0,0:0:0:0:
114,324,129011,5,0,0:0:0:0:
100,340,129100,1,0,0:0:0:0:
84,348,129189,1,0,0:0:0:0:
64,352,129279,1,0,0:0:0:0:
40,344,129368,1,0,0:0:0:0:
27,300,129457,1,0,0:0:0:0:
39,256,129546,1,0,0:0:0:0:
72,224,129635,1,0,0:0:0:0:
117,215,129725,1,0,0:0:0:0:
160,230,129814,1,0,0:0:0:0:
189,266,129904,1,0,0:0:0:0:
228,297,129993,1,0,0:0:0:0:
278,301,130082,1,0,0:0:0:0:
321,276,130171,1,0,0:0:0:0:
343,231,130261,1,0,0:0:0:0:
335,181,130350,5,0,0:0:0:0:
328,176,130439,2,0,P|320:132|336:88,1,92.5,0|0,0:0|0:0,0:0:0:0:
171,221,130707,1,0,0:0:0:0:
160,230,130796,2,0,P|174:162|133:101,1,138.75,0|0,0:0|0:0,0:0:0:0:
20,168,131154,5,0,0:0:0:0:
39,180,131244,1,0,0:0:0:0:
62,184,131333,1,0,0:0:0:0:
85,179,131422,1,0,0:0:0:0:
140,106,131511,5,0,0:0:0:0:
168,88,131601,1,0,0:0:0:0:
200,88,131690,1,0,0:0:0:0:
228,100,131779,1,0,0:0:0:0:
296,184,131868,2,0,B|328:176|356:196|356:196|380:172|420:172,1,124.874996189118,0|0,0:0|0:0,0:0:0:0:
487,236,132225,2,0,P|508:194|505:149,1,92.5,0|0,0:0|0:0,0:0:0:0:
360,32,132582,5,0,0:0:0:0:
348,52,132672,1,0,0:0:0:0:
344,76,132761,1,0,0:0:0:0:
348,100,132850,1,0,0:0:0:0:
296,184,132939,5,0,0:0:0:0:
316,216,133029,1,0,0:0:0:0:
324,252,133118,1,0,0:0:0:0:
316,288,133207,1,0,0:0:0:0:
276,368,133297,2,0,B|326:371|326:371|347:360|347:360|401:364,1,124.874996189118,0|0,0:0|0:0,0:0:0:0:
240,248,133654,2,0,L|140:256,1,92.5,0|0,0:0|0:0,0:0:0:0:
120,348,134011,5,0,0:0:0:0:
148,356,134100,1,0,0:0:0:0:
176,352,134189,1,0,0:0:0:0:
200,336,134279,1,0,0:0:0:0:
147,255,134368,5,0,0:0:0:0:
109,240,134458,1,0,0:0:0:0:
70,246,134547,1,0,0:0:0:0:
40,275,134636,1,0,0:0:0:0:
32,372,134725,2,0,L|20:248,1,124.874996189118,0|0,0:0|0:0,0:0:0:0:
182,252,135082,2,0,P|143:255|108:239,1,78.6250014996529,0|0,0:0|0:0,0:0:0:0:
0,148,135439,5,0,0:0:0:0:
21,152,135528,1,0,0:0:0:0:
43,149,135617,1,0,0:0:0:0:
63,140,135706,1,0,0:0:0:0:
108,80,135797,5,0,0:0:0:0:
132,64,135886,1,0,0:0:0:0:
160,60,135975,1,0,0:0:0:0:
188,68,136064,1,0,0:0:0:0:
256,112,136154,2,0,P|272:56|248:8,1,104.06250396967,0|0,0:0|0:0,0:0:0:0:
156,132,136511,2,0,L|160:212,1,69.3750026464463,0|0,0:0|0:0,0:0:0:0:
88,268,136868,5,0,0:0:0:0:
152,296,137047,1,0,0:0:0:0:
220,276,137225,1,0,0:0:0:0:
256,216,137404,1,0,0:0:0:0:
386,245,137582,5,0,0:0:0:0:
316,256,137761,1,0,0:0:0:0:
256,216,137939,1,0,0:0:0:0:
252,144,138118,1,0,0:0:0:0:
336,172,138297,5,0,0:0:0:0:
340,176,138475,1,0,0:0:0:0:
344,184,138654,1,0,0:0:0:0:
420,280,138832,1,0,0:0:0:0:
416,284,139010,1,0,0:0:0:0:
412,292,139189,1,0,0:0:0:0:
488,180,139368,5,0,0:0:0:0:
416,160,139547,1,0,0:0:0:0:
344,184,139725,1,0,0:0:0:0:
308,256,139904,1,0,0:0:0:0:
232,292,140082,1,0,0:0:0:0:
148,264,140261,1,0,0:0:0:0:
116,180,140439,1,0,0:0:0:0:
164,100,140618,5,0,0:0:0:0:
196,128,140797,1,0,0:0:0:0:
208,168,140975,1,0,0:0:0:0:
288,188,141154,5,0,0:0:0:0:
273,222,141333,1,0,0:0:0:0:
247,243,141511,1,0,0:0:0:0:
248,324,141689,5,0,0:0:0:0:
222,322,141868,1,0,0:0:0:0:
198,310,142046,1,0,0:0:0:0:
124,340,142225,5,0,0:0:0:0:
118,320,142404,1,0,0:0:0:0:
117,300,142582,1,0,0:0:0:0:
60,240,142761,5,0,0:0:0:0:
71,231,142940,1,0,0:0:0:0:
84,224,143118,1,0,0:0:0:0:
152,236,143297,5,0,0:0:0:0:
208,196,143475,1,0,0:0:0:0:
217,113,143654,1,0,0:0:0:0:
221,192,143832,1,0,0:0:0:0:
192,106,144011,1,0,0:0:0:0:
233,186,144189,1,0,0:0:0:0:
170,111,144368,1,0,0:0:0:0:
243,176,144547,1,0,0:0:0:0:
153,124,144725,5,0,0:0:0:0:
145,207,144904,1,0,0:0:0:0:
202,267,145082,1,0,0:0:0:0:
285,267,145261,1,0,0:0:0:0:
342,216,145439,1,0,0:0:0:0:
416,234,145618,1,0,0:0:0:0:
431,308,145797,1,0,0:0:0:0:
381,365,145975,1,0,0:0:0:0:
307,344,146154,5,0,0:0:0:0:
286,277,146332,1,0,0:0:0:0:
325,219,146511,1,0,0:0:0:0:
301,154,146689,1,0,0:0:0:0:
325,88,146868,6,0,B|372:49|425:58|449:98|449:98|409:76|363:94,1,208.125007939339
256,192,150439,12,0,152582,0:0:0:0:
