osu file format v14

[General]
AudioFilename: audio.mp3
AudioLeadIn: 0
PreviewTime: 194445
Countdown: 0
SampleSet: Soft
StackLeniency: 0.7
Mode: 0
LetterboxInBreaks: 0
WidescreenStoryboard: 1

[Editor]
DistanceSpacing: 1.9
BeatDivisor: 6
GridSize: 16
TimelineZoom: 2.899999

[Metadata]
Title:Ni Yao De Quan Na Zou
TitleUnicode:你要的全拿走
Artist:Tiger Hu
ArtistUnicode:胡彦斌
Creator:Chuanzhongyi
Version:Insane
Source:Tiger hu
Tags:R&B chinese Hu Yan Bin tiger hu 胡彦斌 你要的全拿走 两不相欠 Liang Bu Xiang Qian tiger entertainment Cpop
BeatmapID:4547273
BeatmapSetID:2114481

[Difficulty]
HPDrainRate:6
CircleSize:4
OverallDifficulty:7
ApproachRate:8.8
SliderMultiplier:1.4
SliderTickRate:1

[Events]
//Background and Video events
0,0,"BG.jpg",0,0
Video,0,"video.avi"
//Break Periods
2,131064,133817
2,254644,260307
//Storyboard Layer 0 (Background)
//Storyboard Layer 1 (Fail)
//Storyboard Layer 2 (Pass)
//Storyboard Layer 3 (Foreground)
//Storyboard Layer 4 (Overlay)
//Storyboard Sound Samples

[TimingPoints]
120,447.761194029851,4,2,1,60,1,0
7284,-100,4,2,1,30,0,0
12657,-200,4,2,1,38,0,0
13552,-100,4,2,1,38,0,0
19821,-200,4,2,1,38,0,0
20717,-100,4,2,1,38,0,0
35045,-200,4,2,1,38,0,0
35940,-100,4,2,1,38,0,0
41314,-200,4,2,1,38,0,0
42209,-100,4,2,1,38,0,0
49373,-100,4,2,1,46,0,0
67284,-100,4,2,1,50,0,0
76911,-200,4,2,1,50,0,0
77806,-100,4,2,1,50,0,0
82657,-100,4,2,1,30,0,0
89671,447.761194029851,3,2,1,60,1,0
92357,447.761194029851,4,2,1,60,1,0
95939,-100,4,2,1,50,0,1
124595,-100,4,2,1,48,0,0
134446,-100,4,2,1,50,0,0
146983,-200,4,2,1,50,0,0
147879,-100,4,2,1,50,0,0
165789,-100,4,2,1,52,0,0
175416,-200,4,2,1,52,0,0
176312,-100,4,2,1,52,0,0
188177,447.761194029851,3,2,1,60,1,0
190863,447.761194029851,4,2,1,60,1,0
190863,-100,4,2,1,56,0,0
225116,-100,4,2,1,60,0,1
254445,-100,4,2,1,60,0,0
261609,-100,4,2,1,60,0,1
282206,-100,4,2,1,38,0,0

[HitObjects]
352,304,7284,5,0,0:0:0:0:
128,144,7731,1,0,0:0:0:0:
416,96,8179,2,0,P|448:144|400:240,1,140
336,112,8851,1,0,0:0:0:0:
160,192,9522,1,0,0:0:0:0:
364,34,9970,1,0,0:0:0:0:
321,279,10418,1,0,0:0:0:0:
207,296,10642,1,0,0:0:0:0:
252,189,10866,5,0,0:0:0:0:
48,48,11314,1,0,0:0:0:0:
96,288,11761,1,0,0:0:0:0:
80,32,12209,1,0,0:0:0:0:
144,272,12657,2,0,B|176:240|208:224|224:288|288:224,1,140,2|0,0:0|0:0,0:0:0:0:
416,288,14000,1,0,0:0:0:0:
432,48,14448,1,0,0:0:0:0:
224,64,14896,6,0,P|160:48|96:80,1,140
320,112,15791,1,0,0:0:0:0:
352,208,16015,2,0,P|320:288|240:320,1,140
192,224,16687,1,0,0:0:0:0:
464,256,17134,1,0,0:0:0:0:
416,32,17582,1,0,0:0:0:0:
448,288,18030,1,0,0:0:0:0:
320,32,18478,1,0,0:0:0:0:
416,304,18925,1,0,0:0:0:0:
240,96,19373,1,0,0:0:0:0:
384,304,19821,2,0,B|336:304|320:272|304:240|240:256,1,140,2|0,0:0|0:0,0:0:0:0:
208,144,20940,5,0,0:0:0:0:
224,47,21164,1,0,0:0:0:0:
313,103,21388,1,0,0:0:0:0:
416,64,21612,2,0,P|432:128|384:176,1,140
240,307,22508,1,0,0:0:0:0:
79,224,22955,2,0,P|111:160|159:112,1,140
256,208,24299,1,2,0:0:0:0:
160,32,24970,5,0,0:0:0:0:
304,32,25194,2,0,P|368:48|432:96,1,140
288,112,25866,1,0,0:0:0:0:
384,304,26314,1,0,0:0:0:0:
272,320,26537,2,0,P|192:304|144:272,1,140
224,35,27433,1,0,0:0:0:0:
160,160,27657,1,0,0:0:0:0:
112,32,27881,2,0,P|64:144|64:176,1,140
304,208,28776,5,0,0:0:0:0:
96,80,29224,1,0,0:0:0:0:
368,64,29672,1,0,0:0:0:0:
144,272,30120,1,0,0:0:0:0:
240,48,30567,2,0,P|256:128|288:176,1,140
464,320,31463,1,0,0:0:0:0:
336,112,31911,1,0,0:0:0:0:
176,304,32358,5,0,0:0:0:0:
96,16,32806,1,0,0:0:0:0:
256,272,33254,1,0,0:0:0:0:
128,0,33702,1,0,0:0:0:0:
320,208,34149,1,2,0:0:0:0:
80,176,35045,2,0,B|112:96|144:144|176:112|192:64,1,140
464,128,36388,6,0,P|416:96|336:80,1,140
224,224,37284,1,0,0:0:0:0:
80,160,37508,2,0,P|144:96|192:80,1,140
144,224,38179,1,0,0:0:0:0:
336,48,38627,2,0,P|400:64|464:112,1,140
320,128,39299,1,0,0:0:0:0:
208,48,39522,5,0,0:0:0:0:
48,256,39970,1,0,0:0:0:0:
176,32,40418,1,0,0:0:0:0:
128,304,40866,1,0,0:0:0:0:
144,32,41314,2,0,B|112:80|144:96|160:128|112:176,1,140,2|0,0:0|0:0,0:0:0:0:
416,192,42657,1,0,0:0:0:0:
112,256,43105,1,0,0:0:0:0:
240,48,43552,6,0,P|160:32|96:48,1,140
368,96,44448,1,0,0:0:0:0:
512,64,44672,2,0,P|480:144|432:176,1,140
320,224,45343,1,0,0:0:0:0:
112,80,45791,2,0,B|48:128|64:208,1,140
320,288,46687,1,0,0:0:0:0:
176,48,47134,1,0,0:0:0:0:
240,304,47582,1,0,0:0:0:0:
256,32,48030,1,0,0:0:0:0:
160,288,48478,2,0,P|128:208|80:176,1,140,2|0,0:0|0:0,0:0:0:0:
320,144,49373,1,0,0:0:0:0:
288,224,49597,5,0,0:0:0:0:
400,192,49821,1,0,0:0:0:0:
368,288,50045,1,0,0:0:0:0:
320,144,50269,2,0,P|224:96|192:96,1,140
272,208,50940,1,0,0:0:0:0:
160,160,51164,1,0,0:0:0:0:
288,112,51388,2,0,P|368:64|416:48,1,140
480,160,52060,1,0,0:0:0:0:
240,288,52508,1,0,0:0:0:0:
256,32,52955,1,2,0:0:0:0:
368,256,53403,5,0,0:0:0:0:
272,160,53627,1,0,0:0:0:0:
416,112,53851,2,0,P|352:64|288:48,1,140
352,176,54522,1,0,0:0:0:0:
128,304,54970,1,0,0:0:0:0:
128,64,55418,1,0,0:0:0:0:
272,32,55642,2,0,P|336:32|400:80,1,140
240,112,56314,1,0,0:0:0:0:
364,157,56537,1,0,0:0:0:0:
289,267,56761,5,0,0:0:0:0:
128,170,56911,1,0,0:0:0:0:
185,42,57060,1,0,0:0:0:0:
251,236,57209,2,0,L|174:188,1,70
48,32,57657,1,0,0:0:0:0:
144,91,57881,1,0,0:0:0:0:
16,144,58105,1,0,0:0:0:0:
112,208,58328,2,0,L|128:352,1,140
224,80,59224,1,0,0:0:0:0:
400,320,59672,1,0,0:0:0:0:
336,32,60120,1,2,0:0:0:0:
272,160,60343,5,0,0:0:0:0:
327,221,60455,1,0,0:0:0:0:
352,144,60567,2,0,P|400:128|432:96,1,70
192,112,61463,1,0,0:0:0:0:
64,80,61687,1,0,0:0:0:0:
96,208,62358,2,0,P|128:272|208:288,1,140
224,16,63254,1,0,0:0:0:0:
368,272,63702,1,0,0:0:0:0:
128,80,64149,1,0,0:0:0:0:
384,240,64597,1,0,0:0:0:0:
224,112,67508,5,0,0:0:0:0:
208,272,67731,1,0,0:0:0:0:
96,176,67955,1,0,0:0:0:0:
272,192,68179,2,0,P|351:161|384:112,1,140
272,48,68851,1,2,0:0:0:0:
192,240,69299,1,0,0:0:0:0:
64,144,69522,1,0,0:0:0:0:
48,288,69746,1,0,0:0:0:0:
160,160,69970,2,0,P|208:112|240:48,1,140
112,32,70642,1,2,0:0:0:0:
256,256,71090,5,0,0:0:0:0:
384,192,71314,1,0,0:0:0:0:
368,336,71537,1,0,0:0:0:0:
304,192,71761,2,0,P|288:112|320:64,1,140
432,144,72433,1,2,0:0:0:0:
224,112,72881,1,0,0:0:0:0:
74,149,73105,1,0,0:0:0:0:
181,260,73328,1,0,0:0:0:0:
128,80,73552,1,0,0:0:0:0:
93,230,73776,1,0,0:0:0:0:
240,185,74000,1,0,0:0:0:0:
288,32,74224,1,2,0:0:0:0:
448,80,74672,6,0,L|505:128,1,70
480,256,75120,1,0,0:0:0:0:
336,176,75343,2,0,P|343:250|400:320,1,140
416,160,76015,1,0,0:0:0:0:
304,64,76239,1,0,0:0:0:0:
256,192,76463,2,0,L|176:160,1,70
128,48,76911,2,0,B|64:48|64:96|64:112|16:128,1,140
224,64,78254,6,0,L|288:32,1,70
320,160,78702,1,0,0:0:0:0:
432,80,78925,2,0,L|496:112,2,70
432,224,79597,1,0,0:0:0:0:
288,256,79821,1,0,0:0:0:0:
336,128,80045,2,0,P|272:96|192:96,1,140,2|0,0:0|0:0,0:0:0:0:
144,208,80717,1,0,0:0:0:0:
80,96,80940,2,0,L|48:160,1,70
64,288,81388,1,0,0:0:0:0:
208,272,81612,2,0,L|272:224,1,70,0|2,0:0|0:0,0:0:0:0:
112,96,82284,6,0,P|192:32|224:32,1,140
378,41,82955,1,0,0:0:0:0:
249,125,83179,1,0,0:0:0:0:
381,211,83403,1,0,0:0:0:0:
241,273,83627,1,2,0:0:0:0:
341,134,83851,1,0,0:0:0:0:
334,280,84075,1,0,0:0:0:0:
205,196,84299,1,0,0:0:0:0:
112,96,84522,2,0,L|160:32,2,70
16,224,85194,1,0,0:0:0:0:
128,320,85418,1,2,0:0:0:0:
160,176,85642,1,0,0:0:0:0:
288,272,85866,6,0,P|320:208|304:144,1,140
400,32,86537,1,0,0:0:0:0:
496,144,86761,2,0,L|432:176,1,70
288,128,87209,1,0,0:0:0:0:
176,32,87433,2,0,L|112:64,1,70
27,185,87881,1,0,0:0:0:0:
99,308,88105,2,0,L|163:340,2,70
209,219,88776,1,0,0:0:0:0:
333,117,89000,1,0,0:0:0:0:
349,277,89224,1,0,0:0:0:0:
254,146,89448,1,0,0:0:0:0:
96,160,89671,5,0,0:0:0:0:
61,62,89820,1,0,0:0:0:0:
158,78,89969,1,0,0:0:0:0:
53,120,90118,1,0,0:0:0:0:
116,35,90268,1,0,0:0:0:0:
150,137,90417,1,0,0:0:0:0:
230,98,90565,1,2,0:0:0:0:
368,248,91014,5,0,0:0:0:0:
286,294,91163,1,0,0:0:0:0:
282,197,91312,1,0,0:0:0:0:
341,296,91462,1,0,0:0:0:0:
251,248,91611,1,0,0:0:0:0:
343,193,91760,1,0,0:0:0:0:
294,102,91909,1,0,0:0:0:0:
212,38,92059,1,0,0:0:0:0:
212,140,92208,1,0,0:0:0:0:
256,64,92357,1,2,0:0:0:0:
160,224,92804,6,0,L|208:288,1,70
96,144,93253,1,0,0:0:0:0:
112,304,93476,1,0,0:0:0:0:
256,208,93700,1,0,0:0:0:0:
400,304,93924,1,0,0:0:0:0:
448,144,94148,2,0,P|384:176|352:240,1,140
400,80,94819,1,0,0:0:0:0:
256,32,95043,5,0,0:0:0:0:
160,64,95192,1,0,0:0:0:0:
240,128,95342,1,0,0:0:0:0:
144,160,95491,1,0,0:0:0:0:
224,224,95640,1,0,0:0:0:0:
128,256,95789,1,0,0:0:0:0:
208,320,95939,1,0,0:0:0:0:
336,304,96162,6,0,L|304:240,2,70
368,144,96834,2,0,P|432:144|496:192,1,140
432,32,97506,2,0,P|400:80|368:80,1,70,2|0,0:0|0:0,0:0:0:0:
224,128,97954,1,0,0:0:0:0:
64,192,98178,1,0,0:0:0:0:
96,32,98402,1,0,0:0:0:0:
160,192,98625,2,0,P|160:256|112:320,1,140
192,160,99297,2,0,P|224:176|240:208,1,70,2|0,0:0|0:0,0:0:0:0:
320,64,99745,5,0,0:0:0:0:
448,176,99969,1,0,0:0:0:0:
480,16,100193,1,0,0:0:0:0:
368,144,100416,2,0,P|320:192|288:256,1,140
352,96,101088,2,0,P|320:96|272:112,1,70,2|0,0:0|0:0,0:0:0:0:
128,192,101536,1,0,0:0:0:0:
256,80,101759,1,0,0:0:0:0:
96,32,101983,1,0,0:0:0:0:
208,160,102207,2,0,P|256:224|224:304,1,140
176,128,102879,2,0,P|176:80|208:48,1,70,2|0,0:0|0:0,0:0:0:0:
352,32,103327,6,0,P|384:48|400:96,1,70
320,224,103775,1,0,0:0:0:0:
448,144,103998,2,0,P|432:208|384:272,1,140
222,291,104670,1,0,0:0:0:0:
90,186,104894,1,0,0:0:0:0:
249,132,105118,1,0,0:0:0:0:
137,258,105342,1,0,0:0:0:0:
151,91,105565,1,0,0:0:0:0:
282,195,105789,1,0,0:0:0:0:
122,140,106013,1,0,0:0:0:0:
286,105,106237,1,0,0:0:0:0:
238,266,106461,1,0,0:0:0:0:
202,101,106685,1,0,0:0:0:0:
361,159,106911,6,0,L|313:223,2,70
256,29,107580,1,0,0:0:0:0:
112,117,107804,1,0,0:0:0:0:
239,227,108028,2,0,P|255:163|303:99,1,140
457,49,108700,1,2,0:0:0:0:
465,216,108924,1,0,0:0:0:0:
344,98,109148,1,0,0:0:0:0:
416,128,109260,1,0,0:0:0:0:
352,176,109371,1,0,0:0:0:0:
240,304,109596,2,0,L|176:336,2,70
272,144,110267,2,0,L|208:112,1,70,0|2,0:0|0:0,0:0:0:0:
64,48,110715,1,0,0:0:0:0:
32,208,110939,6,0,P|80:224|128:304,1,140
160,128,111610,1,0,0:0:0:0:
240,272,111834,2,0,L|272:336,1,70
352,192,112282,1,2,0:0:0:0:
288,32,112506,1,0,0:0:0:0:
240,192,112730,2,0,L|176:224,1,70
208,64,113177,1,0,0:0:0:0:
368,112,113401,1,0,0:0:0:0:
400,272,113625,2,0,P|432:256|448:224,1,70
432,64,114073,1,2,0:0:0:0:
304,176,114297,1,0,0:0:0:0:
240,48,114521,6,0,P|176:48|112:96,1,140
256,176,115192,1,0,0:0:0:0:
96,224,115416,2,0,L|160:288,1,70
304,304,115864,1,0,0:0:0:0:
336,144,116088,1,0,0:0:0:0:
176,208,116312,1,0,0:0:0:0:
336,224,116536,2,0,L|400:272,2,70
384,64,117207,1,0,0:0:0:0:
448,219,117431,1,0,0:0:0:0:
285,174,117655,2,0,L|349:142,2,70
176,192,118328,5,0,0:0:0:0:
147,291,118477,1,0,0:0:0:0:
78,220,118626,1,0,0:0:0:0:
187,250,118775,1,0,0:0:0:0:
87,277,118925,1,0,0:0:0:0:
120,178,119074,1,0,0:0:0:0:
228,155,119222,1,2,0:0:0:0:
407,152,119671,5,0,0:0:0:0:
396,244,119820,1,0,0:0:0:0:
310,189,119969,1,0,0:0:0:0:
429,201,120119,1,0,0:0:0:0:
338,246,120268,1,0,0:0:0:0:
348,139,120417,1,0,0:0:0:0:
452,98,120566,1,0,0:0:0:0:
469,212,120716,1,0,0:0:0:0:
370,189,120865,1,2,0:0:0:0:
128,160,121461,5,0,0:0:0:0:
128,160,121610,1,0,0:0:0:0:
128,160,121759,2,0,L|144:112,1,46.6666666666667
235,84,122058,1,0,0:0:0:0:
235,84,122207,1,0,0:0:0:0:
235,84,122357,2,0,L|294:98,1,46.6666666666667
350,171,122655,1,0,0:0:0:0:
350,171,122804,1,0,0:0:0:0:
350,171,122954,2,0,L|334:219,1,46.6666666666667
268,165,123252,1,0,0:0:0:0:
268,165,123401,1,0,0:0:0:0:
268,165,123551,1,0,0:0:0:0:
281,265,123700,1,0,0:0:0:0:
281,265,123849,1,0,0:0:0:0:
281,265,123998,1,0,0:0:0:0:
197,223,124148,1,0,0:0:0:0:
197,223,124297,1,0,0:0:0:0:
197,223,124446,1,0,0:0:0:0:
299,214,124595,5,0,0:0:0:0:
144,112,125043,1,0,0:0:0:0:
352,272,125491,1,0,0:0:0:0:
144,272,125938,1,0,0:0:0:0:
352,112,126442,1,0,0:0:0:0:
256,192,126946,12,0,130864,0:0:0:0:
384,112,134446,5,0,0:0:0:0:
109,54,134894,1,0,0:0:0:0:
283,272,135341,2,0,L|347:240,1,70
68,195,136013,2,0,P|148:227|212:211,1,140
183,77,136685,1,0,0:0:0:0:
430,206,137132,2,0,P|398:254|318:270,1,140
236,158,137804,1,0,0:0:0:0:
222,297,138028,5,0,0:0:0:0:
326,37,138476,1,0,0:0:0:0:
258,308,138923,1,0,0:0:0:0:
396,64,139371,1,0,0:0:0:0:
290,323,139819,2,0,P|341:262|402:243,1,140,2|0,0:0|0:0,0:0:0:0:
414,103,140491,1,0,0:0:0:0:
473,228,140714,1,0,0:0:0:0:
200,291,141162,1,0,0:0:0:0:
449,163,141610,1,0,0:0:0:0:
240,48,142058,6,0,P|192:80|160:160,1,140
434,95,142954,1,0,0:0:0:0:
296,119,143177,2,0,P|312:183|376:231,1,140
363,87,143849,1,0,0:0:0:0:
169,289,144297,2,0,P|121:225|121:161,1,140
353,320,145192,1,0,0:0:0:0:
290,46,145640,1,0,0:0:0:0:
387,308,146088,1,0,0:0:0:0:
255,60,146536,1,0,0:0:0:0:
420,291,146983,2,0,P|404:243|324:211,1,140,2|0,0:0|0:0,0:0:0:0:
176,256,148103,5,0,0:0:0:0:
48,198,148326,1,0,0:0:0:0:
59,337,148550,1,0,0:0:0:0:
120,210,148774,2,0,P|168:146|232:114,1,140
333,35,149446,1,0,0:0:0:0:
275,162,149670,1,0,0:0:0:0:
392,86,149894,1,0,0:0:0:0:
439,234,150341,2,0,P|407:266|327:314,1,140
185,313,151013,1,0,0:0:0:0:
418,158,151461,1,2,0:0:0:0:
224,192,151909,6,0,L|208:112,1,70
323,205,152356,1,0,0:0:0:0:
68,110,152804,1,0,0:0:0:0:
197,55,153028,1,0,0:0:0:0:
123,188,153476,2,0,P|107:300|123:332,1,140
222,229,154147,1,0,0:0:0:0:
345,162,154371,1,0,0:0:0:0:
337,301,154595,1,0,0:0:0:0:
273,175,154819,1,0,0:0:0:0:
383,89,155043,1,2,0:0:0:0:
253,36,155267,5,0,0:0:0:0:
220,98,155379,1,0,0:0:0:0:
181,39,155491,1,0,0:0:0:0:
102,153,155714,2,0,P|70:185|54:281,1,140
182,221,156386,1,0,0:0:0:0:
316,181,156610,1,0,0:0:0:0:
285,317,156834,1,0,0:0:0:0:
127,85,157282,1,0,0:0:0:0:
400,142,157729,2,0,P|400:206|352:270,1,140
164,62,158625,1,2,0:0:0:0:
238,180,158849,5,0,0:0:0:0:
306,196,158961,1,0,0:0:0:0:
257,247,159073,1,0,0:0:0:0:
155,150,159297,2,0,P|187:118|283:102,1,140
412,138,159968,1,0,0:0:0:0:
313,38,160192,1,0,0:0:0:0:
66,331,160864,1,0,0:0:0:0:
106,54,161311,1,0,0:0:0:0:
86,333,161759,1,0,0:0:0:0:
176,67,162207,1,0,0:0:0:0:
106,340,162655,1,0,0:0:0:0:
243,97,163103,1,0,0:0:0:0:
57,80,166013,5,0,0:0:0:0:
193,50,166237,1,0,0:0:0:0:
157,185,166461,1,0,0:0:0:0:
124,48,166685,2,0,P|150:108|223:135,1,140
177,270,167356,1,2,0:0:0:0:
443,184,167804,1,0,0:0:0:0:
326,105,168028,1,0,0:0:0:0:
450,41,168252,1,0,0:0:0:0:
375,159,168476,2,0,P|343:191|327:287,1,140
463,257,169147,1,2,0:0:0:0:
240,176,169595,6,0,L|208:112,1,70
81,53,170043,1,0,0:0:0:0:
33,184,170267,2,0,P|49:232|113:296,1,140
242,342,170938,1,2,0:0:0:0:
138,81,171386,1,0,0:0:0:0:
273,117,171610,1,0,0:0:0:0:
174,217,171834,1,0,0:0:0:0:
210,81,172058,1,0,0:3:0:0:
249,215,172282,1,0,0:3:0:0:
116,170,172506,1,0,0:3:0:0:
252,142,172729,1,0,0:0:0:0:
144,256,173179,6,0,L|208:288,2,70
71,137,173849,2,0,P|119:121|215:153,1,140
329,83,174520,1,0,0:0:0:0:
318,222,174744,1,0,0:0:0:0:
256,95,174968,2,0,L|288:159,1,70
386,196,175416,2,0,B|362:128|395:116|429:104|405:37,1,140
356,299,176759,2,0,L|292:267,1,70
166,207,177207,1,0,0:0:0:0:
305,198,177431,2,0,L|273:134,2,70
189,278,178103,1,0,0:0:0:0:
194,138,178326,2,0,L|226:74,1,70,0|2,0:0|0:0,0:0:0:0:
360,113,178774,1,0,0:0:0:0:
261,13,178998,5,0,0:0:0:0:
140,87,179224,2,0,L|108:23,2,70
264,150,179894,1,0,0:0:0:0:
127,178,180117,2,0,L|63:210,1,70,0|2,0:0|0:0,0:0:0:0:
201,240,180565,1,0,0:0:0:0:
78,308,180789,6,0,P|190:324|222:308,1,140
335,250,181461,1,0,0:0:0:0:
438,155,181685,1,0,0:0:0:0:
306,106,181909,1,0,0:0:0:0:
395,212,182132,1,2,0:0:0:0:
446,81,182357,1,0,0:0:0:0:
340,172,182580,6,0,P|377:108|346:47,1,140
212,65,183252,1,0,0:0:0:0:
160,195,183476,1,0,0:0:0:0:
63,93,183700,1,0,0:0:0:0:
196,132,183923,1,2,0:0:0:0:
95,230,184148,1,0,0:0:0:0:
134,96,184371,6,0,P|100:152|28:155,1,140
165,197,185043,1,0,0:0:0:0:
304,210,185267,1,0,0:0:0:0:
183,281,185491,1,0,0:0:0:0:
243,155,185714,1,0,0:0:0:0:
273,292,185939,1,0,0:0:0:0:
379,201,186162,2,0,L|411:121,1,70
327,45,186610,1,0,0:0:0:0:
310,187,186834,2,0,L|390:203,1,70
265,256,187282,1,0,0:0:0:0:
247,117,187506,1,0,0:0:0:0:
133,199,187730,1,0,0:0:0:0:
272,184,187954,1,0,0:0:0:0:
412,182,188177,5,0,0:0:0:0:
398,284,188326,1,0,0:0:0:0:
317,222,188475,1,0,0:0:0:0:
434,239,188624,1,0,0:0:0:0:
340,278,188774,1,0,0:0:0:0:
354,176,188923,1,0,0:0:0:0:
302,87,189072,1,0,0:0:0:0:
129,137,189520,5,0,0:0:0:0:
161,38,189669,1,0,0:0:0:0:
228,114,189818,1,0,0:0:0:0:
117,77,189968,1,0,0:0:0:0:
218,57,190117,1,0,0:0:0:0:
186,155,190266,1,0,0:0:0:0:
168,246,190415,1,0,0:0:0:0:
256,220,190565,1,0,0:0:0:0:
233,310,190714,1,0,0:0:0:0:
320,277,190863,5,0,0:0:0:0:
320,277,191012,1,0,0:0:0:0:
320,277,191161,1,0,0:0:0:0:
360,203,191310,1,0,0:0:0:0:
360,203,191460,1,0,0:0:0:0:
360,203,191609,1,0,0:0:0:0:
347,128,191758,1,0,0:0:0:0:
347,128,191907,1,0,0:0:0:0:
347,128,192057,1,0,0:0:0:0:
276,166,192206,1,0,0:0:0:0:
276,166,192355,1,0,0:0:0:0:
276,166,192504,1,0,0:0:0:0:
212,127,192654,1,0,0:0:0:0:
212,129,192803,1,0,0:0:0:0:
212,127,192952,1,0,0:0:0:0:
140,163,193101,1,0,0:0:0:0:
140,163,193251,1,0,0:0:0:0:
140,163,193400,1,0,0:0:0:0:
201,219,193549,2,0,L|233:283,5,46.6666666666667
350,274,194669,6,0,L|414:242,1,70
290,172,195117,1,0,0:0:0:0:
418,116,195341,2,0,P|370:68|290:52,1,140
161,55,196012,2,0,P|145:55|97:87,1,70,2|0,0:0|0:0,0:0:0:0:
70,219,196460,2,0,L|102:283,1,70
198,180,196908,1,0,0:0:0:0:
240,313,197132,2,0,P|320:281|352:233,1,140
368,100,197803,2,0,P|336:68|288:68,1,70,2|0,0:0|0:0,0:0:0:0:
234,179,198251,6,0,L|202:243,1,70
78,175,198699,1,0,0:0:0:0:
195,99,198923,2,0,P|259:99|323:147,1,140
369,272,199594,2,0,P|353:304|305:320,1,70,2|0,0:0|0:0,0:0:0:0:
378,189,200042,2,0,L|314:221,1,70
179,184,200490,1,0,0:0:0:0:
47,230,200714,2,0,P|79:278|159:294,1,140
280,231,201385,2,0,P|312:199|344:199,1,70,2|0,0:0|0:0,0:0:0:0:
400,72,201833,5,0,0:0:0:0:
475,190,202057,2,0,L|411:222,1,70
293,295,202505,2,0,P|293:247|341:167,1,140
427,276,203176,1,0,0:0:0:0:
405,137,203400,1,0,0:0:0:0:
290,56,203624,2,0,P|210:72|162:104,1,140
75,213,204295,1,0,0:0:0:0:
336,111,204743,1,0,0:0:0:0:
92,251,205191,1,0,0:0:0:0:
207,172,205415,5,0,0:0:0:0:
347,173,205639,1,0,0:0:0:0:
220,233,205863,1,0,0:0:0:0:
310,126,206087,1,0,0:0:0:0:
320,265,206311,2,0,L|352:329,2,70
255,140,206982,2,0,L|223:76,1,70,0|2,0:0|0:0,0:0:0:0:
287,202,207430,1,0,0:0:0:0:
386,153,207654,1,0,0:0:0:0:
453,135,207765,1,0,0:0:0:0:
434,202,207877,1,0,0:0:0:0:
362,81,208101,2,0,L|426:49,2,70
255,173,208773,1,0,0:0:0:0:
304,41,208997,1,2,0:0:0:0:
61,95,209445,6,0,L|157:207,1,140
225,80,210117,1,0,0:0:0:0:
240,219,210341,2,0,L|304:171,1,70
415,103,210788,2,0,P|383:135|351:135,1,70,2|0,0:0|0:0,0:0:0:0:
307,267,211236,2,0,L|435:203,1,140
305,143,211908,1,0,0:0:0:0:
164,142,212132,2,0,L|196:78,2,70,0|0|2,0:0|0:0|0:0,0:0:0:0:
105,269,212803,1,0,0:0:0:0:
237,314,213027,6,0,P|285:250|301:186,1,140
440,183,213699,2,0,L|376:151,1,70
237,152,214146,1,0,0:0:0:0:
361,88,214370,1,0,0:0:0:0:
359,228,214594,1,0,0:0:0:0:
291,105,214818,2,0,L|259:41,2,70
154,122,215490,2,0,L|90:90,1,70
213,159,215937,1,0,0:0:0:0:
128,240,216161,2,0,L|64:272,2,70
272,256,216833,5,0,0:0:0:0:
367,217,216982,1,0,0:0:0:0:
353,319,217131,1,0,0:0:0:0:
310,210,217280,1,0,0:0:0:0:
388,271,217430,1,0,0:0:0:0:
293,309,217579,1,0,0:0:0:0:
208,251,217728,1,2,0:0:0:0:
195,131,218176,1,0,0:0:0:0:
195,28,218325,1,0,0:0:0:0:
283,79,218474,1,0,0:0:0:0:
167,81,218624,1,0,0:0:0:0:
254,28,218773,1,0,0:0:0:0:
255,130,218922,1,0,0:0:0:0:
194,212,219071,1,0,0:0:0:0:
135,126,219221,1,0,0:0:0:0:
226,79,219370,1,2,0:0:0:0:
352,96,219967,5,0,0:0:0:0:
352,96,220116,1,0,0:0:0:0:
352,96,220265,2,0,L|384:144,1,46.6666666666667
374,225,220564,1,0,0:0:0:0:
374,225,220713,1,0,0:0:0:0:
374,225,220863,2,0,L|320:256,1,46.6666666666667
263,222,221161,1,0,0:0:0:0:
263,222,221310,1,0,0:0:0:0:
263,222,221460,2,0,L|231:174,1,46.6666666666667
276,113,221758,1,0,0:0:0:0:
276,113,221907,1,0,0:0:0:0:
276,113,222057,1,0,0:0:0:0:
221,63,222206,1,0,0:0:0:0:
221,63,222355,1,0,0:0:0:0:
221,63,222504,1,0,0:0:0:0:
186,132,222654,1,0,0:0:0:0:
186,132,222803,1,0,0:0:0:0:
186,132,222952,1,0,0:0:0:0:
155,199,223101,5,0,0:0:0:0:
300,27,223549,1,0,0:0:0:0:
184,241,223997,1,0,0:0:0:0:
333,38,224444,1,0,0:0:0:0:
227,267,224892,2,0,L|211:347,2,70
381,267,225564,1,0,0:0:0:0:
394,113,225788,2,0,P|330:145|298:209,1,140
384,74,226460,2,0,P|352:58|304:58,1,70,2|0,0:0|0:0,0:0:0:0:
215,170,226907,1,0,0:0:0:0:
90,79,227131,2,0,L|170:47,1,70
81,189,227579,2,0,P|113:237|193:269,1,140
90,147,228251,2,0,P|138:163|170:163,1,70,2|0,0:0|0:0,0:0:0:0:
296,97,228698,5,0,0:0:0:0:
433,166,228922,2,0,L|401:102,1,70
339,245,229370,2,0,P|259:293|243:341,1,140
330,203,230042,2,0,P|298:187|250:187,1,70,2|0,0:0|0:0,0:0:0:0:
115,225,230489,2,0,L|83:161,2,70
164,78,231161,1,0,0:0:0:0:
161,232,231385,1,0,0:0:0:0:
115,85,231609,1,0,0:0:0:0:
201,212,231833,2,0,L|233:148,1,70
361,65,232280,6,0,L|345:145,1,70
471,225,232728,1,0,0:0:0:0:
325,274,232952,2,0,B|245:274|213:354,1,140
80,274,233623,1,0,0:0:0:0:
226,227,233847,2,0,L|178:163,1,70
28,179,234295,1,0,0:0:0:0:
121,56,234519,2,0,B|185:40|265:88,1,140
103,115,235191,1,0,0:0:0:0:
406,164,235638,1,2,0:0:0:0:
293,269,235862,6,0,L|229:221,2,70
176,170,236534,1,0,0:0:0:0:
294,70,236758,2,0,L|230:118,1,70
379,175,237206,1,0,0:0:0:0:
224,175,237430,2,0,L|304:175,1,70,0|2,0:0|0:0,0:0:0:0:
148,125,237877,1,0,0:0:0:0:
112,273,238101,1,0,0:0:0:0:
41,135,238325,2,0,L|73:199,2,70
180,201,238997,1,0,0:0:0:0:
202,49,239220,2,0,L|234:113,1,70,0|2,0:0|0:0,0:0:0:0:
411,36,239892,6,0,P|459:84|475:164,1,140
321,165,240564,1,0,0:0:0:0:
402,296,240788,1,0,0:0:0:0:
259,238,241012,1,0,0:0:0:0:
408,205,241235,1,2,0:0:0:0:
305,321,241460,1,0,0:0:0:0:
167,263,241683,2,0,L|231:135,1,140
356,49,242355,1,0,0:0:0:0:
429,184,242579,1,0,0:0:0:0:
288,119,242803,1,0,0:0:0:0:
439,95,243026,1,2,0:0:0:0:
332,206,243251,1,0,0:0:0:0:
433,320,243474,6,0,L|288:273,1,140
146,259,244146,1,0,0:0:0:0:
92,114,244370,1,0,0:0:0:0:
225,190,244594,1,0,0:0:0:0:
72,205,244817,1,0,0:0:0:0:
191,106,245042,1,0,0:0:0:0:
326,33,245265,2,0,L|278:113,1,70
440,128,245713,1,0,0:0:0:0:
312,214,245937,2,0,L|248:262,1,70
409,275,246385,1,0,0:0:0:0:
362,128,246609,2,0,L|394:48,2,70
224,144,247280,5,0,0:0:0:0:
159,65,247430,1,0,0:0:0:0:
122,160,247579,1,0,0:0:0:0:
217,85,247728,1,0,0:0:0:0:
112,99,247877,1,0,0:0:0:0:
178,178,248027,1,0,0:0:0:0:
87,228,248175,1,2,0:0:0:0:
306,166,248624,5,0,0:3:0:0:
406,155,248773,1,0,0:3:0:0:
371,250,248922,1,0,0:3:0:0:
352,132,249071,1,0,0:3:0:0:
415,211,249221,1,0,0:3:0:0:
314,225,249370,1,0,0:3:0:0:
226,279,249519,1,0,0:0:0:0:
137,226,249668,1,0,0:0:0:0:
226,174,249818,1,0,0:0:0:0:
177,264,249967,1,2,0:0:0:0:
189,92,250414,5,0,0:0:0:0:
333,39,250638,1,0,0:0:0:0:
315,198,250862,1,0,0:0:0:0:
315,198,251012,1,0,0:0:0:0:
315,198,251161,1,0,0:0:0:0:
372,149,251310,1,0,0:0:0:0:
372,149,251460,1,0,0:0:0:0:
372,149,251609,1,0,0:0:0:0:
397,226,251758,1,0,0:0:0:0:
397,226,251907,1,0,0:0:0:0:
397,226,252057,1,0,0:0:0:0:
342,272,252206,1,0,0:0:0:0:
341,272,252355,1,0,0:0:0:0:
341,272,252504,1,0,0:0:0:0:
239,292,252654,1,0,0:0:0:0:
137,274,252803,1,0,0:0:0:0:
220,214,252952,1,0,0:0:0:0:
119,193,253101,1,0,0:0:0:0:
204,135,253251,1,0,0:0:0:0:
103,114,253400,1,0,0:0:0:0:
187,55,253549,2,0,L|267:39,6,46.6666666666667
77,58,260936,5,0,0:0:0:0:
148,194,261160,2,0,L|212:162,1,70
364,143,261608,1,0,0:0:0:0:
220,86,261832,2,0,P|252:86|300:102,2,70
228,239,262503,1,0,0:0:0:0:
375,193,262727,1,0,0:0:0:0:
223,163,262951,1,0,0:0:0:0:
90,242,263175,2,0,B|138:306|218:322,1,140
345,318,263848,1,0,0:0:0:0:
458,236,264071,1,0,0:0:0:0:
371,125,264295,1,2,0:0:0:0:
234,95,264518,5,0,0:0:0:0:
198,245,264742,1,0,0:0:0:0:
140,101,264966,1,0,0:0:0:0:
272,180,265191,1,0,0:0:0:0:
118,192,265415,1,0,0:0:0:0:
260,135,265638,1,0,0:0:0:0:
149,241,265862,2,0,L|181:177,1,70
250,41,266309,1,2,0:0:0:0:
243,195,266534,1,0,0:0:0:0:
344,191,266758,5,0,0:0:0:0:
420,184,266870,1,0,0:0:0:0:
388,254,266982,1,0,0:0:0:0:
397,100,267205,2,0,L|429:36,2,70
244,118,267876,1,0,0:0:0:0:
310,258,268100,2,0,P|262:322|198:338,1,140,2|0,0:0|0:0,0:0:0:0:
66,270,268773,5,0,0:0:0:0:
45,117,268997,1,0,0:0:0:0:
156,222,269220,2,0,L|124:158,1,70
268,214,269667,2,0,L|236:150,1,70,0|2,0:0|0:0,0:0:0:0:
381,207,270116,1,0,0:0:0:0:
294,80,270339,2,0,P|246:48|166:48,1,140
60,161,271011,1,0,0:0:0:0:
181,255,271235,1,0,0:0:0:0:
27,248,271459,1,0,0:0:0:0:
157,168,271682,1,2,0:0:0:0:
99,311,271907,1,0,0:0:0:0:
252,320,272130,6,0,L|348:208,1,140
446,98,272802,2,0,L|478:34,1,70
475,190,273250,2,0,L|443:254,1,70
347,131,273698,1,0,0:0:0:0:
378,281,273921,1,0,0:0:0:0:
245,202,274145,2,0,L|181:154,2,70
269,48,274818,2,0,L|189:64,1,70
80,160,275265,2,0,L|0:112,2,70
195,211,275937,5,0,0:0:0:0:
198,314,276086,1,0,0:0:0:0:
111,268,276235,1,0,0:0:0:0:
224,260,276384,1,0,0:0:0:0:
138,318,276534,1,0,0:0:0:0:
137,212,276683,1,0,0:0:0:0:
214,145,276831,1,2,0:0:0:0:
365,164,277280,5,0,0:0:0:0:
371,71,277429,1,0,0:0:0:0:
456,127,277578,1,0,0:0:0:0:
338,114,277728,1,0,0:0:0:0:
429,69,277877,1,0,0:0:0:0:
419,176,278026,1,0,0:0:0:0:
332,231,278175,1,0,0:0:0:0:
299,133,278325,1,0,0:0:0:0:
400,122,278474,1,2,0:0:0:0:
152,128,279071,5,0,0:0:0:0:
152,128,279220,1,0,0:0:0:0:
152,128,279369,2,0,L|184:80,1,46.6666666666667
202,198,279668,1,0,0:0:0:0:
202,198,279817,1,0,0:0:0:0:
202,198,279967,2,0,L|250:214,1,46.6666666666667
346,176,280265,1,0,0:0:0:0:
346,176,280414,1,0,0:0:0:0:
346,176,280564,2,0,L|314:224,1,46.6666666666667
268,138,280862,1,0,0:0:0:0:
268,138,281011,1,0,0:0:0:0:
268,138,281161,1,0,0:0:0:0:
363,93,281310,1,0,0:0:0:0:
363,93,281459,1,0,0:0:0:0:
363,93,281608,1,0,0:0:0:0:
280,49,281758,1,0,0:0:0:0:
280,49,281907,1,0,0:0:0:0:
280,49,282056,1,0,0:0:0:0:
178,66,282206,5,0,0:0:0:0:
310,312,282654,1,0,0:0:0:0:
214,49,283101,1,0,0:0:0:0:
270,323,283549,1,0,0:0:0:0:
81,65,284053,1,0,0:0:0:0:
256,192,284668,12,0,288474,0:0:0:0:
