osu file format v14

[General]
AudioFilename: audio.mp3
AudioLeadIn: 0
PreviewTime: 7065
Countdown: 0
SampleSet: Soft
StackLeniency: 0.3
Mode: 0
LetterboxInBreaks: 0
WidescreenStoryboard: 1

[Editor]
Bookmarks: 40652,47677
DistanceSpacing: 1.3
BeatDivisor: 4
GridSize: 16
TimelineZoom: 1.8

[Metadata]
Title:Hungry Hippo
TitleUnicode:Hungry Hippo
Artist:Tierra Whack
ArtistUnicode:Tierra Whack
Creator:Qiyana
Version:Normal
Source:
Tags:dyl-byl imaginative gordon lazarus xoul craezy jas jamesjan3 helena world english pop hiphop hip hop rap tiktok tik tok
BeatmapID:2479433
BeatmapSetID:1189948

[Difficulty]
HPDrainRate:3
CircleSize:3
OverallDifficulty:4
ApproachRate:5
SliderMultiplier:1.3
SliderTickRate:1

[Events]
//Background and Video events
0,0,"bg.jpg",0,0
Video,-450,"hungryhippo.mp4"
//Break Periods
//Storyboard Layer 0 (Background)
//Storyboard Layer 1 (Fail)
//Storyboard Layer 2 (Pass)
//Storyboard Layer 3 (Foreground)
//Storyboard Layer 4 (Overlay)
//Storyboard Sound Samples

[TimingPoints]
41,439.045807112542,4,2,1,35,1,0
7065,-100,4,2,1,50,0,0
35164,-100,4,2,1,60,0,0
36042,-100,4,2,2,60,0,0
36482,-100,4,2,1,60,0,0
37798,-100,4,2,2,60,0,0
38677,-100,4,2,1,60,0,0
39555,-100,4,2,2,60,0,0
39994,-100,4,2,1,60,0,0
41311,-100,4,2,2,60,0,0
41750,-100,4,2,1,60,0,0
43067,-100,4,2,2,60,0,0
43506,-100,4,2,1,60,0,0
44823,-100,4,2,2,60,0,0
45701,-100,4,2,1,60,0,0
46579,-100,4,2,2,60,0,0
47018,-100,4,2,1,60,0,0
48336,-100,4,2,2,60,0,0
48775,-100,4,2,1,60,0,0
49653,-100,4,2,1,50,0,0
50532,-100,4,2,1,65,0,0
51848,-100,4,2,2,65,0,0
52726,-100,4,2,1,65,0,0
53604,-100,4,2,2,65,0,0
54044,-100,4,2,1,65,0,0
55360,-100,4,2,2,65,0,0
55799,-100,4,2,1,65,0,0
57116,-100,4,2,2,65,0,0
57556,-100,4,2,1,65,0,0
58873,-100,4,2,2,50,0,0
59531,-100,4,2,2,35,0,0
59751,-100,4,2,2,35,0,0

[Colours]
Combo1 : 255,198,255
Combo2 : 215,0,215
Combo3 : 234,98,135

[HitObjects]
89,250,7065,6,0,P|131:262|211:201,1,130,0|0,3:3|3:3,0:0:0:0:
132,174,7724,1,0,3:3:0:0:
59,129,7943,2,0,P|109:91|172:100,1,130,8|2,2:2|3:2,0:0:0:0:
339,75,8821,2,0,L|334:-1,2,65,2|0|2,2:2|3:2|2:2,0:0:0:0:
331,159,9480,1,2,3:2:0:0:
307,240,9700,2,0,P|401:208|403:116,1,195,10|0,2:2|2:2,0:0:0:0:
339,75,10578,6,0,B|269:90|280:51|211:71,1,130,0|0,3:3|2:2,0:0:0:0:
130,92,11236,1,0,3:3:0:0:
66,35,11456,2,0,P|44:100|70:154,1,130,8|2,2:2|3:2,0:0:0:0:
38,319,12334,2,0,P|68:325|101:315,1,65,2|2,2:2|3:2,0:0:0:0:
181,290,12773,2,0,P|211:284|244:294,1,65,2|2,3:2|2:2,0:0:0:0:
326,310,13212,2,0,L|478:303,1,130,10|2,2:2|3:2,0:0:0:0:
497,135,14090,6,0,L|345:128,1,130,0|0,3:3|3:3,0:0:0:0:
287,104,14749,1,0,3:3:0:0:
231,40,14968,2,0,P|290:20|357:58,1,130,8|2,2:2|3:2,0:0:0:0:
368,130,15627,1,2,3:2:0:0:
307,188,15846,2,0,L|311:270,2,65,2|2|2,2:2|3:2|2:2,0:0:0:0:
167,92,16724,2,0,B|100:113|105:69|31:90|31:90|49:120|38:165,1,195,10|0,2:2|2:2,0:0:0:0:
9,222,17602,6,0,P|29:273|112:300,1,130,0|0,3:3|2:2,0:0:0:0:
178,293,18261,1,0,3:3:0:0:
225,363,18480,2,0,B|300:348|278:382|354:368,1,130,8|2,2:2|3:2,0:0:0:0:
437,365,19139,1,2,2:2:0:0:
460,283,19359,2,0,P|470:252|459:212,1,65,2|2,2:2|3:2,0:0:0:0:
391,178,19798,2,0,P|381:147|392:107,1,65,2|2,3:2|2:2,0:0:0:0:
461,75,20237,2,0,P|419:38|340:46,1,130,10|2,2:2|3:2,0:0:0:0:
190,100,21115,6,0,P|126:105|77:66,2,130,0|2|10,3:3|3:2|2:2,0:0:0:0:
348,41,22432,2,0,L|342:114,1,65,0|0,3:3|3:3,0:0:0:0:
363,187,22871,2,0,L|369:260,2,65,2|2|2,2:2|3:2|2:2,0:0:0:0:
280,167,23529,1,2,3:2:0:0:
217,223,23749,2,0,B|145:233|169:192|84:207,1,130,10|2,2:2|2:2,0:0:0:0:
142,44,24627,6,0,B|220:57|196:16|268:26,2,130,0|2|10,3:3|2:2|2:2,0:0:0:0:
90,205,25944,2,0,L|94:283,1,65,0|0,3:3|2:2,0:0:0:0:
128,347,26383,2,0,P|92:356|50:343,2,65,2|2|2,2:2|3:2|3:2,0:0:0:0:
177,278,27042,1,2,2:2:0:0:
257,302,27261,2,0,B|319:324|319:324|398:306,1,130,10|2,2:2|3:2,0:0:0:0:
448,154,28139,6,0,B|426:92|426:92|436:13,2,130,0|2|10,3:3|3:2|2:2,0:0:0:0:
381,309,29457,2,0,L|311:316,1,65,0|0,3:3|3:3,0:0:0:0:
232,303,29896,1,2,2:2:0:0:
148,289,30115,1,2,3:2:0:0:
73,330,30335,2,0,P|62:300|64:268,1,65,2|2,2:2|3:2,0:0:0:0:
6,205,30774,2,0,P|69:182|127:209,1,130,10|2,2:2|2:2,0:0:0:0:
256,101,31652,6,0,P|313:126|372:102,2,130,0|2|10,3:3|2:2|2:2,0:0:0:0:
124,206,32969,1,0,3:3:0:0:
253,313,33408,2,0,L|324:311,1,65,2|2,2:2|3:2,0:0:0:0:
397,339,33847,2,0,P|403:307|390:268,1,65,2|0,3:2|2:2,0:0:0:0:
459,221,34286,2,0,P|401:190|338:211,1,130,10|2,2:2|3:2,0:0:0:0:
289,76,35164,6,0,L|211:74,1,65,2|2,3:2|2:2,0:0:0:0:
161,131,35603,2,0,B|153:166|153:166|162:197,1,65,2|2,3:2|3:2,0:0:0:0:
203,267,36042,2,0,L|267:268,2,65,10|2|0,2:2|2:2|3:3,0:0:0:0:
36,296,36920,2,0,L|36:361,1,65,2|2,2:2|3:2,0:0:0:0:
118,380,37359,2,0,L|118:315,1,65,2|2,2:2|3:2,0:0:0:0:
93,233,37798,2,0,P|90:183|108:158,1,65,10|2,2:2|2:2,0:0:0:0:
143,100,38237,1,0,2:2:0:0:
203,258,38677,6,0,B|274:244|254:288|330:269,1,130,2|2,3:2|2:2,0:0:0:0:
410,248,39335,1,2,3:2:0:0:
472,304,39555,2,0,P|493:257|452:179,1,130,10|0,2:2|3:3,0:0:0:0:
349,64,40433,2,0,L|275:68,1,65,2|2,2:2|3:2,0:0:0:0:
206,99,40872,2,0,L|141:95,1,65,2|2,3:2|2:2,0:0:0:0:
61,64,41311,2,0,P|53:95|61:127,1,65,10|2,2:2|2:2,0:0:0:0:
126,181,41750,1,0,3:3:0:0:
69,340,42189,6,0,L|5:346,2,65,2|2|2,3:2|2:2|3:2,0:0:0:0:
120,273,42847,1,2,3:2:0:0:
191,318,43067,2,0,P|218:333|259:330,1,65,10|2,2:2|2:2,0:0:0:0:
240,248,43506,1,0,3:3:0:0:
200,83,43945,2,0,L|329:106,1,130,2|2,2:2|2:2,0:0:0:0:
412,114,44604,1,2,3:2:0:0:
486,75,44823,2,0,P|445:34|356:52,1,130,10|0,2:2|2:2,0:0:0:0:
462,182,45701,6,0,L|460:246,1,65,2|2,3:2|2:2,0:0:0:0:
387,290,46140,2,0,P|366:253|337:239,1,65,2|2,2:2|3:2,0:0:0:0:
268,273,46579,2,0,B|201:283|216:247|130:265,1,130,10|0,2:2|3:3,0:0:0:0:
9,155,47457,1,2,2:2:0:0:
16,68,47677,1,2,3:2:0:0:
101,63,47896,2,0,P|139:79|167:74,1,65,2|2,3:2|2:2,0:0:0:0:
240,45,48336,1,10,2:2:0:0:
315,7,48555,2,0,B|390:-3|371:38|451:27,1,130,2|0,2:2|2:2,0:0:0:0:
312,247,49653,6,0,P|318:307|244:292,1,130,2|10,0:2|0:2,0:0:0:0:
192,267,50311,1,2,0:2:0:0:
117,307,50531,2,0,P|107:281|115:233,1,65,2|2,3:2|3:2,0:0:0:0:
168,182,50970,2,0,P|171:149|160:119,1,65,2|2,2:2|3:2,0:0:0:0:
119,45,51409,2,0,P|149:34|181:37,1,65,2|2,2:2|3:2,0:0:0:0:
258,0,51848,2,0,P|248:91|160:119,1,195,10|0,2:2|2:2,0:0:0:0:
75,123,52726,6,0,L|82:254,1,130,0|0,3:3|2:2,0:0:0:0:
54,332,53385,1,0,3:3:0:0:
134,357,53604,2,0,B|207:340|191:378|265:360,1,130,8|2,2:2|3:2,0:0:0:0:
336,320,54263,1,2,2:2:0:0:
409,362,54482,2,0,P|420:322|414:290,1,65,2|2,2:2|3:2,0:0:0:0:
489,255,54921,2,0,P|461:225|430:215,1,65,2|2,3:2|2:2,0:0:0:0:
390,147,55360,2,0,B|318:131|334:176|261:152,1,130,10|2,2:2|3:2,0:0:0:0:
126,54,56238,6,0,P|63:44|11:81,1,130,0|0,3:3|3:3,0:0:0:0:
83,127,56897,1,0,3:3:0:0:
39,199,57116,2,0,B|13:263|13:263|30:321,1,130,8|2,2:2|3:2,0:0:0:0:
103,364,57775,1,2,3:2:0:0:
178,325,57995,2,0,P|228:318|247:325,1,65,2|2,2:2|3:2,0:0:0:0:
321,346,58434,1,2,2:2:0:0:
444,230,58873,2,0,B|436:185|436:185|488:162|499:97|448:22|359:71,1,260,10|0,2:2|0:0,0:0:0:0:
