osu file format v14

[General]
AudioFilename: audio.mp3
AudioLeadIn: 0
PreviewTime: 525
Countdown: 0
SampleSet: Normal
StackLeniency: 0.7
Mode: 1
LetterboxInBreaks: 0
WidescreenStoryboard: 1

[Editor]
DistanceSpacing: 0.9
BeatDivisor: 2
GridSize: 32
TimelineZoom: 2

[Metadata]
Title:Fruit Salad
TitleUnicode:Fruit Salad
Artist:Tierra Whack
ArtistUnicode:Tierra Whack
Creator:AJT
Version:Muzukashii
Source:
Tags:english hip hop whack world jamesjan3 imaginative apo11o mynt
BeatmapID:3620611
BeatmapSetID:1768706

[Difficulty]
HPDrainRate:7
CircleSize:6
OverallDifficulty:4
ApproachRate:9
SliderMultiplier:1.4
SliderTickRate:1

[Events]
//Background and Video events
0,0,"thumb-1920-408543.jpg",0,0
Video,0,"video.mp4" F,0,0,,0,1 S,0,0,,0.32 MY,0,0,,130 F,0,59667,,1,0
//Break Periods
//Storyboard Layer 0 (Background)
Sprite,Background,Centre,"image",320,-40 S,0,0,,0.4444444 F,0,0,59667,1
Sprite,Background,Centre,"image",-295,240 S,0,0,,0.4444444 F,0,0,59667,1
Sprite,Background,Centre,"image",935,240 S,0,0,,0.4444444 F,0,0,59667,1
//Storyboard Layer 1 (Fail)
//Storyboard Layer 2 (Pass)
//Storyboard Layer 3 (Foreground)
//Storyboard Layer 4 (Overlay)
//Storyboard Sound Samples

[TimingPoints]
525,428.571428571429,4,1,0,50,1,0
27953,-90.9090909090909,4,1,0,50,0,1
55382,-90.9090909090909,4,1,0,50,0,0

[Colours]
Combo1 : 255,255,0
Combo2 : 255,128,64
Combo3 : 128,0,64

[HitObjects]
256,192,525,5,12,0:0:0:0:
256,192,739,1,0,0:0:0:0:
256,192,953,1,8,0:0:0:0:
256,192,1382,1,8,0:0:0:0:
256,192,1596,1,0,0:0:0:0:
256,192,1810,1,8,0:0:0:0:
256,192,2025,1,0,0:0:0:0:
256,192,2453,1,8,0:0:0:0:
256,192,2667,1,8,0:0:0:0:
256,192,3096,1,8,0:0:0:0:
256,192,3525,1,0,0:0:0:0:
256,192,3953,1,0,0:0:0:0:
256,192,4167,1,0,0:0:0:0:
256,192,4382,1,8,0:0:0:0:
256,192,4810,1,8,0:0:0:0:
256,192,5025,1,0,0:0:0:0:
256,192,5239,1,0,0:0:0:0:
256,192,5453,1,8,0:0:0:0:
256,192,5667,1,0,0:0:0:0:
256,192,6096,1,8,0:0:0:0:
256,192,6525,1,8,0:0:0:0:
256,192,6953,1,0,0:0:0:0:
256,192,7382,1,8,0:0:0:0:
256,192,7596,1,0,0:0:0:0:
256,192,7810,1,8,0:0:0:0:
256,192,8239,1,8,0:0:0:0:
256,192,8453,1,8,0:0:0:0:
256,192,8667,1,0,0:0:0:0:
256,192,8882,1,8,0:0:0:0:
256,192,9310,1,8,0:0:0:0:
256,192,9525,1,8,0:0:0:0:
256,192,9953,1,8,0:0:0:0:
256,192,10382,1,0,0:0:0:0:
256,192,10810,1,8,0:0:0:0:
256,192,11025,1,0,0:0:0:0:
256,192,11239,1,8,0:0:0:0:
256,192,11667,1,8,0:0:0:0:
256,192,11882,1,0,0:0:0:0:
256,192,12096,1,8,0:0:0:0:
256,192,12310,1,0,0:0:0:0:
256,192,12739,1,0,0:0:0:0:
256,192,12953,1,8,0:0:0:0:
256,192,13167,1,0,0:0:0:0:
256,192,13382,1,8,0:0:0:0:
256,192,13810,1,0,0:0:0:0:
256,192,14453,1,8,0:0:0:0:
256,192,14667,1,0,0:0:0:0:
256,192,14882,1,0,0:0:0:0:
256,192,15096,1,8,0:0:0:0:
256,192,15739,1,0,0:0:0:0:
256,192,16167,1,8,0:0:0:0:
256,192,16382,1,8,0:0:0:0:
256,192,16596,1,0,0:0:0:0:
256,192,16810,1,8,0:0:0:0:
256,192,17453,1,0,0:0:0:0:
256,192,17882,1,0,0:0:0:0:
256,192,18096,1,8,0:0:0:0:
256,192,18310,1,0,0:0:0:0:
256,192,18525,1,8,0:0:0:0:
256,192,19167,1,0,0:0:0:0:
256,192,19596,1,8,0:0:0:0:
256,192,19810,1,0,0:0:0:0:
256,192,20025,1,8,0:0:0:0:
256,192,20239,1,8,0:0:0:0:
256,192,20882,1,0,0:0:0:0:
256,192,21096,1,8,0:0:0:0:
256,192,21310,1,8,0:0:0:0:
256,192,21525,1,0,0:0:0:0:
256,192,21739,1,0,0:0:0:0:
256,192,21953,1,8,0:0:0:0:
256,192,22596,1,8,0:0:0:0:
256,192,23025,1,0,0:0:0:0:
256,192,23239,1,8,0:0:0:0:
256,192,23453,1,0,0:0:0:0:
256,192,23667,1,8,0:0:0:0:
256,192,24310,1,8,0:0:0:0:
256,192,24525,1,0,0:0:0:0:
256,192,24739,1,8,0:0:0:0:
256,192,24953,1,0,0:0:0:0:
256,192,25167,1,8,0:0:0:0:
256,192,25382,1,8,0:0:0:0:
256,192,25810,1,0,0:0:0:0:
256,192,26239,1,8,0:0:0:0:
256,192,26382,1,0,0:0:0:0:
256,192,26667,1,8,0:0:0:0:
256,192,26810,1,0,0:0:0:0:
256,192,27096,1,8,0:0:0:0:
256,192,27525,1,8,0:0:0:0:
256,192,27953,5,4,0:0:0:0:
256,192,28382,1,8,0:0:0:0:
256,192,28489,1,8,0:0:0:0:
256,192,28596,1,8,0:0:0:0:
256,192,28810,1,8,0:0:0:0:
256,192,29239,1,0,0:0:0:0:
256,192,29346,1,0,0:0:0:0:
256,192,29453,1,0,0:0:0:0:
256,192,29667,1,8,0:0:0:0:
256,192,29882,1,8,0:0:0:0:
256,192,30096,1,8,0:0:0:0:
256,192,30310,1,0,0:0:0:0:
256,192,30525,1,8,0:0:0:0:
256,192,30739,1,0,0:0:0:0:
256,192,30953,1,8,0:0:0:0:
256,192,31382,1,0,0:0:0:0:
256,192,31810,1,8,0:0:0:0:
256,192,31917,1,8,0:0:0:0:
256,192,32025,1,8,0:0:0:0:
256,192,32239,1,8,0:0:0:0:
256,192,32667,1,0,0:0:0:0:
256,192,32775,1,0,0:0:0:0:
256,192,32882,1,0,0:0:0:0:
256,192,33096,1,8,0:0:0:0:
256,192,33310,1,0,0:0:0:0:
256,192,33525,1,8,0:0:0:0:
256,192,33739,1,0,0:0:0:0:
256,192,33953,1,8,0:0:0:0:
256,192,34167,1,8,0:0:0:0:
256,192,34382,1,0,0:0:0:0:
256,192,34810,1,0,0:0:0:0:
256,192,35239,1,8,0:0:0:0:
256,192,35346,1,8,0:0:0:0:
256,192,35453,1,8,0:0:0:0:
256,192,35667,1,8,0:0:0:0:
256,192,36096,1,0,0:0:0:0:
256,192,36203,1,0,0:0:0:0:
256,192,36310,1,0,0:0:0:0:
256,192,36525,1,8,0:0:0:0:
256,192,36739,1,8,0:0:0:0:
256,192,36953,1,8,0:0:0:0:
256,192,37167,1,0,0:0:0:0:
256,192,37382,1,8,0:0:0:0:
256,192,37596,1,0,0:0:0:0:
256,192,37810,1,8,0:0:0:0:
256,192,38239,1,0,0:0:0:0:
256,192,38667,1,8,0:0:0:0:
256,192,38775,1,8,0:0:0:0:
256,192,38882,1,8,0:0:0:0:
256,192,39096,1,8,0:0:0:0:
256,192,39525,1,0,0:0:0:0:
256,192,39632,1,0,0:0:0:0:
256,192,39739,1,0,0:0:0:0:
256,192,39953,1,8,0:0:0:0:
256,192,40167,1,0,0:0:0:0:
256,192,40382,1,8,0:0:0:0:
256,192,40596,1,0,0:0:0:0:
256,192,40810,1,8,0:0:0:0:
256,192,41239,1,8,0:0:0:0:
256,192,41667,1,0,0:0:0:0:
256,192,42096,1,8,0:0:0:0:
256,192,42203,1,8,0:0:0:0:
256,192,42310,1,8,0:0:0:0:
256,192,42525,1,8,0:0:0:0:
256,192,42953,1,0,0:0:0:0:
256,192,43060,1,0,0:0:0:0:
256,192,43167,1,0,0:0:0:0:
256,192,43382,1,8,0:0:0:0:
256,192,43596,1,8,0:0:0:0:
256,192,43810,1,8,0:0:0:0:
256,192,44025,1,0,0:0:0:0:
256,192,44239,1,8,0:0:0:0:
256,192,44453,1,0,0:0:0:0:
256,192,44667,1,8,0:0:0:0:
256,192,45096,1,0,0:0:0:0:
256,192,45525,1,8,0:0:0:0:
256,192,45632,1,8,0:0:0:0:
256,192,45739,1,8,0:0:0:0:
256,192,45953,1,8,0:0:0:0:
256,192,46382,1,0,0:0:0:0:
256,192,46489,1,0,0:0:0:0:
256,192,46596,1,0,0:0:0:0:
256,192,46810,1,8,0:0:0:0:
256,192,47025,1,0,0:0:0:0:
256,192,47239,1,8,0:0:0:0:
256,192,47453,1,0,0:0:0:0:
256,192,47667,1,8,0:0:0:0:
256,192,47882,1,8,0:0:0:0:
256,192,48096,1,0,0:0:0:0:
256,192,48739,1,0,0:0:0:0:
256,192,48846,1,0,0:0:0:0:
256,192,48953,1,0,0:0:0:0:
256,192,49167,1,0,0:0:0:0:
256,192,49382,1,8,0:0:0:0:
256,192,49810,1,0,0:0:0:0:
256,192,50025,1,0,0:0:0:0:
256,192,50239,1,8,0:0:0:0:
256,192,50453,1,0,0:0:0:0:
256,192,50560,1,0,0:0:0:0:
256,192,50667,1,0,0:0:0:0:
256,192,50882,1,0,0:0:0:0:
256,192,51096,1,8,0:0:0:0:
256,192,51525,1,0,0:0:0:0:
256,192,51739,1,8,0:0:0:0:
256,192,51953,1,0,0:0:0:0:
256,192,52167,1,8,0:0:0:0:
256,192,52382,1,8,0:0:0:0:
256,192,52489,1,8,0:0:0:0:
256,192,52596,1,8,0:0:0:0:
256,192,52810,1,8,0:0:0:0:
256,192,53239,1,8,0:0:0:0:
256,192,53453,1,0,0:0:0:0:
256,192,53667,1,8,0:0:0:0:
256,192,53810,1,8,0:0:0:0:
256,192,54096,1,8,0:0:0:0:
256,192,54239,1,8,0:0:0:0:
256,192,54525,1,8,0:0:0:0:
256,192,54739,1,0,0:0:0:0:
256,192,54846,1,0,0:0:0:0:
256,192,54953,1,0,0:0:0:0:
256,192,55167,1,0,0:0:0:0:
256,192,55382,5,12,0:0:0:0:
