osu file format v14

[General]
AudioFilename: Tiara - Be With You.mp3
AudioLeadIn: 0
PreviewTime: 80262
Countdown: 0
SampleSet: Soft
StackLeniency: 0.6
Mode: 0
LetterboxInBreaks: 1
WidescreenStoryboard: 0

[Editor]
Bookmarks: 12048,34905,103477,197762,217762,266334
DistanceSpacing: 1.2
BeatDivisor: 4
GridSize: 8
TimelineZoom: 1

[Metadata]
Title:Be With You
TitleUnicode:Be With You
Artist:Tiara
ArtistUnicode:Tiara
Creator:yanlu
Version:Together
Source:
Tags:
BeatmapID:674835
BeatmapSetID:300925

[Difficulty]
HPDrainRate:5
CircleSize:4
OverallDifficulty:6
ApproachRate:7
SliderMultiplier:2
SliderTickRate:1

[Events]
//Background and Video events
Video,0,"[MAD] be with you.avi"
0,0,"BG.jpg",0,0
//Break Periods
//Storyboard Layer 0 (Background)
//Storyboard Layer 1 (Fail)
//Storyboard Layer 2 (Pass)
//Storyboard Layer 3 (Foreground)
//Storyboard Sound Samples

[TimingPoints]
620,714.285714285714,4,2,1,60,1,0
12048,-83.3333333333333,4,2,1,60,0,0
29191,-100,4,2,1,60,0,0
32048,-133.333333333333,4,2,1,60,0,0
33477,-100,4,2,1,60,0,0
57405,-133.333333333333,4,2,1,60,0,0
57762,-100,4,2,1,60,0,0
80619,-83.3333333333333,4,2,1,60,0,1
103477,-100,4,2,1,60,0,0
149191,-100,4,2,1,60,0,1
172048,-100,4,2,1,60,0,0
232048,-100,4,2,1,60,0,1
254905,-100,4,2,1,60,0,0

[Colours]
Combo1 : 128,255,128
Combo2 : 243,183,177
Combo3 : 170,194,230
Combo4 : 255,255,128

[HitObjects]
72,192,10619,5,0,0:0:0:0:
144,240,11334,1,0,0:0:0:0:
144,240,11512,2,0,P|112:272|56:280,1,100
72,192,12048,6,0,P|80:136|104:72,1,119.999996337891,4|0,0:0|0:0,0:0:0:0:
312,32,12762,2,0,P|264:56|200:72,1,119.999996337891,2|0,0:0|0:0,0:0:0:0:
232,264,13477,2,0,P|248:202|278:152,1,119.999996337891,0|0,0:0|0:0,3:0:0:0:
344,104,14012,1,0,0:0:0:0:
429,105,14191,2,0,P|469:153|469:209,1,119.999996337891,2|0,0:0|0:0,0:0:0:0:
232,264,14905,6,0,P|288:248|352:248,1,119.999996337891
296,56,15619,2,0,P|337:96|369:151,1,119.999996337891,2|0,0:0|0:0,0:0:0:0:
464,328,16334,2,0,P|493:276|508:218,1,119.999996337891
471,141,16869,1,0,0:0:0:0:
392,170,17048,2,0,P|336:178|280:152,1,119.999996337891,2|0,0:0|0:0,0:0:0:0:
296,56,17584,1,0,0:0:0:0:
200,136,17762,6,0,P|176:192|176:256,1,119.999996337891
355,152,18477,2,0,P|411:176|475:176,1,119.999996337891,2|0,0:0|0:0,0:0:0:0:
343,18,19191,2,0,P|297:58|280:118,1,119.999996337891
284,198,19727,1,0,0:0:0:0:
275,282,19905,2,0,P|243:332|188:348,1,119.999996337891,2|0,0:0|0:0,0:0:0:0:
184,250,20441,1,0,0:0:0:0:
351,138,20619,6,0,P|352:74|343:18,1,119.999996337891
161,246,21334,2,0,P|159:305|168:365,1,119.999996337891,2|0,0:0|0:0,0:0:0:0:
256,304,21869,1,0,0:0:0:0:
240,216,22048,2,0,P|208:168|144:160,1,119.999996337891
64,152,22584,2,0,P|48:128|40:96,1,59.9999981689454,0|2,0:0|0:0,0:0:0:0:
256,24,23119,1,0,0:0:0:0:
256,24,23477,6,0,P|272:88|256:144,1,119.999996337891,4|0,0:0|0:0,0:0:0:0:
401,276,24191,2,0,P|338:257|297:215,1,119.999996337891,2|0,0:0|0:0,0:0:0:0:
110,276,24905,2,0,P|157:230|214:216,1,119.999996337891
301,220,25441,1,0,0:0:0:0:
384,192,25619,2,0,P|345:145|288:133,1,119.999996337891,2|0,0:0|0:0,0:0:0:0:
64,86,26334,6,0,P|66:140|96:197,1,119.999996337891
272,0,27048,2,0,P|226:28|191:83,1,119.999996337891,2|0,0:0|0:0,0:0:0:0:
448,144,27762,2,0,P|400:118|335:116,1,119.999996337891
256,152,28298,1,0,0:0:0:0:
176,184,28477,2,0,P|112:184|72:144,1,119.999996337891,2|0,0:0|0:0,0:0:0:0:
256,56,29191,6,0,P|344:96|344:192,1,200,2|2,0:0|0:0,0:0:0:0:
176,96,30262,1,0,0:0:0:0:
390,62,30619,2,0,P|350:150|254:150,1,200,2|2,0:0|0:0,0:0:0:0:
256,8,31691,1,2,0:0:0:0:
256,248,32048,6,0,B|232:192|272:152|256:96,2,150.000005722046,4|2|2,0:0|0:0|0:0,0:0:0:0:
376,208,34191,1,8,0:0:0:0:
390,130,34369,1,0,0:0:0:0:
314,155,34548,2,0,L|303:107,1,50,2|0,0:0|0:0,0:0:0:0:
431,24,34905,5,4,0:0:0:0:
431,24,35619,2,0,P|472:56|480:104,1,100,8|0,0:0|0:0,0:0:0:0:
408,161,36155,1,0,0:0:0:0:
314,155,36334,2,0,P|273:123|265:75,1,100
355,75,36869,1,0,0:0:0:0:
408,161,37048,6,0,P|392:232|432:296,1,150,8|0,0:0|0:0,0:0:0:0:
482,218,37762,2,0,P|432:200|384:216,1,100
304,248,38298,1,0,0:0:0:0:
144,192,38477,2,0,L|88:192,2,50,8|0|0,0:0|0:0|0:0,0:0:0:0:
238,192,39012,6,0,P|249:104|219:51,1,150
55,25,39905,1,8,0:0:0:0:
88,189,40262,2,0,P|134:175|167:134,1,100
147,48,40798,1,0,0:0:0:0:
238,48,40977,6,0,L|340:47,2,100,0|8|0,0:0|0:0|0:0,0:0:0:0:
55,25,42048,1,2,0:0:0:0:
89,189,42405,1,0,0:0:0:0:
214,77,42762,1,8,0:0:0:0:
34,117,43119,2,0,P|15:136|4:157,1,50,2|0,0:0|0:0,0:0:0:0:
16,248,43477,6,0,P|112:272|176:200,1,200,4|8,0:0|0:0,0:0:0:0:
131,122,44369,1,0,0:0:0:0:
148,30,44548,1,0,0:0:0:0:
256,192,44905,5,0,0:0:0:0:
364,30,45262,1,2,0:0:0:0:
275,17,45441,1,0,0:0:0:0:
220,88,45619,2,0,P|180:116|131:122,1,100,8|0,0:0|0:0,0:0:0:0:
291,295,46334,6,0,P|331:267|381:262,1,100,4|0,0:0|0:0,0:0:0:0:
405,174,46869,1,0,0:0:0:0:
458,99,47048,2,0,P|488:142|491:188,1,100,8|0,0:0|0:0,0:0:0:0:
472,272,47584,1,0,0:0:0:0:
384,288,47762,5,2,0:0:0:0:
256,192,48119,1,0,0:0:0:0:
320,56,48477,2,0,B|354:17|354:17|403:-11|447:10,1,150,8|0,0:0|0:0,0:0:0:0:
485,132,49191,2,0,P|457:167|403:173,1,100,4|0,0:0|0:0,0:0:0:0:
412,89,49727,1,0,0:0:0:0:
325,106,49905,2,0,L|320:52,2,50,8|0|0,0:0|0:0|0:0,0:0:0:0:
280,184,50441,6,0,P|280:264|320:320,1,150
456,200,51334,1,8,0:0:0:0:
312,32,51691,2,0,L|264:56,1,50
176,64,52048,6,0,L|72:48,2,100,2|0|8,0:0|0:0|0:0,0:0:0:0:
256,108,52941,1,0,0:0:0:0:
256,192,53119,1,0,0:0:0:0:
216,272,53298,2,0,P|160:216|176:152,1,150
256,108,54191,1,8,0:0:0:0:
256,108,54548,6,0,P|288:112|320:96,1,50
384,64,54905,2,0,P|424:88|448:136,1,100,2|0,0:0|0:0,0:0:0:0:
216,208,55619,2,0,P|176:184|152:136,1,100,8|0,0:0|0:0,0:0:0:0:
171,48,56155,1,0,0:0:0:0:
80,56,56334,6,0,P|56:144|104:240,1,200,2|8,0:0|0:0,0:0:0:0:
192,256,57227,1,0,0:0:0:0:
256,320,57405,6,0,L|336:320,1,75.0000028610231,2|4,0:0|0:0,0:0:0:0:
413,269,58119,1,0,0:0:0:0:
448,192,58477,5,8,0:0:0:0:
267,158,59191,1,2,0:0:0:0:
387,29,59727,1,0,0:0:0:0:
387,29,60262,1,2,0:0:0:0:
439,97,60619,6,0,P|448:150|448:198,2,100,4|0|8,0:0|0:0|0:0,0:0:0:0:
388,30,61512,1,0,0:0:0:0:
305,31,61691,2,0,L|256:38,1,50
199,123,62048,6,0,L|348:107,1,150
440,97,62762,1,8,0:0:0:0:
256,192,63119,1,0,0:0:0:0:
320,256,63298,1,0,0:0:0:0:
392,312,63477,6,0,B|432:344|432:344|440:256|480:280,1,150,2|0,0:0|0:0,0:0:0:0:
472,192,64191,2,0,P|423:198|376:176,1,100,8|0,0:0|0:0,0:0:0:0:
351,20,64905,1,2,0:0:0:0:
155,61,65262,1,0,0:0:0:0:
306,192,65619,1,8,0:0:0:0:
249,0,65977,2,0,L|270:45,1,50
340,109,66334,6,0,P|384:154|384:237,1,150,6|0,0:0|0:0,0:0:0:0:
304,280,67048,2,0,P|255:283|216:312,1,100,8|0,0:0|0:0,0:0:0:0:
286,370,67584,1,0,0:0:0:0:
370,335,67762,2,0,P|418:327|458:295,1,100,2|0,0:0|0:0,0:0:0:0:
272,192,68477,1,8,0:0:0:0:
192,352,68834,1,0,0:0:0:0:
120,304,69012,1,0,0:0:0:0:
32,312,69191,6,0,P|8:272|0:216,1,100,4|0,0:0|0:0,0:0:0:0:
72,48,69905,1,8,0:0:0:0:
256,56,70262,1,0,0:0:0:0:
160,208,70619,2,0,P|73:189|55:138,1,150,2|0,0:0|0:0,0:0:0:0:
72,48,71334,1,8,0:0:0:0:
256,160,71691,5,0,0:0:0:0:
322,103,71869,1,0,0:0:0:0:
407,86,72048,2,0,P|455:102|479:142,1,100,2|0,0:0|0:0,0:0:0:0:
319,232,72762,2,0,P|345:190|392:176,1,100,8|0,0:0|0:0,0:0:0:0:
216,216,73477,2,0,P|144:216|88:272,1,150,2|0,0:0|0:0,0:0:0:0:
56,352,74191,1,8,0:0:0:0:
232,312,74548,2,0,L|176:304,1,50,2|0,0:0|0:0,0:0:0:0:
140,220,74905,6,0,L|36:204,1,100,6|0,0:0|0:0,0:0:0:0:
372,220,75619,2,0,L|476:204,1,100,8|0,0:0|0:0,0:0:0:0:
296,144,76334,1,0,0:0:0:0:
208,304,76691,2,0,P|255:318|301:302,2,100,0|8|0,0:0|0:0|0:0,0:0:0:0:
254,221,77584,6,0,P|291:253|302:301,1,100
208,304,78119,2,0,P|170:271|208:144,1,200
368,232,79191,1,2,0:0:0:0:
368,232,79727,6,0,L|376:288,1,50,0|8,0:0|0:0,0:0:0:0:
360,192,80084,1,0,0:0:0:0:
344,104,80262,2,0,L|336:48,1,50,2|0,0:0|0:0,0:0:0:0:
208,16,80619,5,4,0:0:0:0:
424,136,80977,1,0,0:0:0:0:
256,80,81334,1,8,0:0:0:0:
496,80,81691,1,0,0:0:0:0:
328,144,82048,2,0,L|336:208,1,59.9999981689454,2|0,0:0|0:0,0:0:0:0:
396,269,82405,1,0,0:0:0:0:
432,188,82584,2,0,P|416:108|392:44,1,119.999996337891
256,48,83119,2,0,P|280:56|320:56,1,59.9999981689454,2|0,0:0|0:0,0:0:0:0:
408,32,83477,5,4,0:0:0:0:
256,192,83834,1,0,0:0:0:0:
456,112,84191,1,8,0:0:0:0:
240,104,84548,1,0,0:0:0:0:
432,200,84905,2,0,P|408:224|376:240,1,59.9999981689454,2|0,0:0|0:0,0:0:0:0:
336,168,85262,1,0,0:0:0:0:
256,192,85441,2,0,P|216:160|240:104,1,119.999996337891
326,77,85977,1,2,0:0:0:0:
409,112,86155,1,0,0:0:0:0:
432,200,86334,6,0,P|432:272|408:320,1,119.999996337891,6|0,0:0|0:0,0:0:0:0:
256,192,87048,2,0,P|304:232|320:288,1,119.999996337891,8|0,0:0|0:0,0:0:0:0:
104,296,87762,2,0,P|162:274|219:288,1,119.999996337891,2|0,0:0|0:0,0:0:0:0:
216,287,88298,1,0,0:0:0:0:
320,256,88477,2,0,P|344:192|328:144,1,119.999996337891,8|2,0:0|0:0,0:0:0:0:
256,64,89012,1,0,0:0:0:0:
168,112,89191,6,0,P|112:136|56:120,1,119.999996337891,2|0,0:0|0:0,0:0:0:0:
106,24,89727,1,0,0:0:0:0:
106,24,89905,2,0,P|130:80|114:144,1,119.999996337891,8|0,0:0|0:0,0:0:0:0:
56,224,90441,1,0,0:0:0:0:
152,224,90619,2,0,L|216:240,2,59.9999981689454,2|0|2,0:0|0:0|0:0,0:0:0:0:
240,160,91155,2,0,L|360:192,1,119.999996337891
448,224,91691,2,0,P|454:192|448:160,1,59.9999981689454,2|0,0:0|0:0,0:0:0:0:
376,88,92048,5,6,0:0:0:0:
312,288,92405,1,0,0:0:0:0:
240,160,92762,1,8,0:0:0:0:
448,224,93119,1,0,0:0:0:0:
376,88,93477,2,0,P|336:91|312:80,2,59.9999981689454,2|0|0,0:0|0:0|0:0,0:0:0:0:
472,112,94012,2,0,P|440:160|384:184,1,119.999996337891
240,159,94548,2,0,P|269:167|296:182,1,59.9999981689454,2|0,0:0|0:0,0:0:0:0:
384,264,94905,5,4,0:0:0:0:
344,48,95262,1,0,0:0:0:0:
256,248,95619,1,8,0:0:0:0:
168,48,95977,1,0,0:0:0:0:
128,264,96334,2,0,P|96:264|64:256,1,59.9999981689454,2|0,0:0|0:0,0:0:0:0:
11,178,96691,1,0,0:0:0:0:
95,131,96869,2,0,P|152:95|168:48,1,119.999996337891
32,72,97405,2,0,P|57:55|85:45,1,59.9999981689454,2|0,0:0|0:0,0:0:0:0:
248,88,97762,6,0,B|248:152|208:184|208:184|176:176|176:176|136:208|136:264,1,239.999992675781,4|8,0:0|0:0,0:0:0:0:
168,48,98834,1,0,0:0:0:0:
328,183,99191,2,0,B|296:228|245:231|245:231|223:206|223:206|172:209|135:262,1,239.999992675781,6|8,0:0|0:0,0:0:0:0:
288,32,100262,1,0,0:0:0:0:
396,139,100619,6,0,B|494:229|356:309|326:179,2,239.999992675781,4|2|0,0:0|0:0|0:0,0:0:0:0:
256,56,102405,1,2,0:0:0:0:
128,152,102762,2,0,L|64:136,2,59.9999981689454,8|0|2,0:0|0:0|0:0,0:0:0:0:
208,160,103298,2,0,P|237:155|265:143,1,59.9999981689454,0|2,0:0|0:0,0:0:0:0:
