osu file format v14

[General]
AudioFilename: BALLOON.mp3
AudioLeadIn: 0
PreviewTime: 69088
Countdown: 0
SampleSet: None
StackLeniency: 0.7
Mode: 0
LetterboxInBreaks: 0
WidescreenStoryboard: 1

[Editor]
DistanceSpacing: 1.2
BeatDivisor: 4
GridSize: 4
TimelineZoom: 1

[Metadata]
Title:BALLOON
TitleUnicode:BALLOON
Artist:Tiara
ArtistUnicode:てぃあら
Creator:Tsumetaku
Version:Hard
Source:
Tags:Hatsune Miku tanshin output-P marieroy studio@tiara Remix
BeatmapID:1098461
BeatmapSetID:191103

[Difficulty]
HPDrainRate:5.5
CircleSize:3.8
OverallDifficulty:6
ApproachRate:7.4
SliderMultiplier:1.4
SliderTickRate:1

[Events]
//Background and Video events
0,0,"Hatsune.Miku.full.1023423.jpg",0,0
Video,0,"PVQ.flv"
//Break Periods
2,37600,68249
2,82788,85686
//Storyboard Layer 0 (Background)
//Storyboard Layer 1 (Fail)
//Storyboard Layer 2 (Pass)
//Storyboard Layer 3 (Foreground)
//Storyboard Sound Samples

[TimingPoints]
1588,375,4,2,0,55,1,0
12838,-100,4,2,0,65,0,0
16588,-100,4,2,1,60,0,0
17338,-100,4,2,1,70,0,0
31588,-100,4,2,2,75,0,0
57088,-100,4,2,2,65,0,0
67588,-100,4,2,2,75,0,0
69088,-100,4,2,2,80,0,1
81088,-100,4,2,0,55,0,0
87088,-100,4,2,1,55,0,0
92900,-100,4,2,0,45,0,0
93838,375,4,2,2,75,1,0
103588,-100,4,2,5,75,0,0
103963,-100,4,2,2,75,0,0
119338,-100,4,2,2,65,0,0
129838,-100,4,2,2,75,0,0
131338,-100,4,2,2,80,0,1
143338,-100,4,2,1,55,0,0
155338,-100,4,2,1,60,0,0
158338,-100,4,2,1,70,0,0
159838,-100,4,2,1,50,0,0
161338,-100,4,2,1,60,0,0
165838,-100,4,2,1,70,0,0
168838,-100,4,2,2,70,0,0
180838,-100,4,2,2,80,0,1
201838,-100,4,3,1,70,0,1
203338,-100,4,2,2,60,0,1
204838,-100,4,2,2,75,0,1
207838,-100,4,2,2,70,0,0
216838,-100,4,2,2,65,0,0
229213,-100,4,2,1,15,0,0

[Colours]
Combo1 : 221,163,74
Combo2 : 159,147,210
Combo3 : 245,101,104
Combo4 : 164,231,135

[HitObjects]
152,196,7588,6,0,P|115:191|80:164,2,70,2|0|0,0:0|0:0|0:0,0:0:0:0:
244,148,8150,2,0,P|320:144|364:212,1,140
368,312,8713,1,0,0:0:0:0:
452,312,8900,2,0,L|464:212,1,70
436,104,9275,2,0,P|360:76|296:124,1,140
120,192,9838,2,0,L|164:284,1,70
232,240,10213,1,0,0:0:0:0:
200,68,10588,2,0,P|140:48|76:96,1,140
180,216,11150,2,0,P|272:232|316:192,1,140
380,128,11713,2,0,L|440:204,1,70
360,284,12088,2,0,P|280:308|232:256,1,140
192,176,12650,1,0,0:0:0:0:
112,112,12838,2,0,L|72:160,2,46.6666666666667
200,84,13213,2,0,L|204:16,2,46.6666666666667
256,192,13588,12,0,15463,0:0:0:0:
256,128,15838,6,0,L|196:44,1,70
128,140,16213,2,0,L|156:224,1,70
260,160,16588,2,0,P|320:228|296:280,1,140
416,284,17150,2,0,P|440:208|408:128,1,140
136,276,17713,1,0,0:0:0:0:
304,260,18088,1,0,0:0:0:0:
364,204,18275,2,0,L|336:112,1,70
256,144,18650,2,0,L|288:72,2,70
88,244,19213,1,0,0:0:0:0:
160,276,19400,1,0,0:0:0:0:
176,188,19588,2,0,P|236:132|312:148,1,140
248,264,20150,2,0,P|316:292|392:240,1,140
240,128,20713,1,0,0:0:0:0:
152,196,20900,2,0,P|216:160|200:84,2,140
148,100,22025,2,0,P|48:112|56:148,1,140
272,96,22588,2,0,P|328:92|392:176,1,140
160,236,23150,2,0,P|200:284|284:284,1,140
268,208,23713,1,0,0:0:0:0:
376,288,23900,2,0,P|420:248|400:152,2,140
204,188,25025,2,0,L|100:308,1,140
88,220,25588,2,0,P|92:160|40:80,1,140
216,72,26150,2,0,P|288:64|320:124,1,140
240,200,26713,2,0,L|292:288,1,70
368,280,27088,2,0,L|420:124,1,140
236,128,27650,2,0,L|120:248,1,140
176,304,28213,1,0,0:0:0:0:
288,316,28400,1,0,0:0:0:0:
420,280,28588,2,0,L|408:192,1,70
336,124,28963,1,0,0:0:0:0:
252,168,29150,2,0,P|152:164|136:116,1,140
56,76,29713,2,0,L|0:148,1,70
84,200,30088,1,0,0:0:0:0:
144,244,30275,2,0,P|168:288|96:360,2,140
196,180,31213,2,0,L|280:140,1,70
328,180,31588,1,0,0:0:0:0:
388,308,31963,1,0,0:0:0:0:
424,280,32150,1,0,0:0:0:0:
492,240,32338,2,0,L|496:160,1,70
428,72,32713,2,0,P|336:48|284:92,1,140
216,248,33275,2,0,L|160:204,1,70
128,116,33650,2,0,L|152:216,1,70
304,180,34025,1,0,0:0:0:0:
88,232,34213,1,0,0:0:0:0:
120,276,34400,1,0,0:0:0:0:
240,212,34588,2,0,P|308:228|344:296,1,140
400,304,35150,1,0,0:0:0:0:
456,212,35338,2,0,L|436:120,1,70
320,136,35713,1,0,0:0:0:0:
276,248,36088,2,0,P|200:212|184:144,1,140
156,104,36650,1,0,0:0:0:0:
92,240,37025,1,0,0:0:0:0:
156,316,37213,1,0,0:0:0:0:
216,216,37400,1,0,0:0:0:0:
216,96,69088,6,0,P|328:116|344:144,1,140
288,288,69650,2,0,P|360:300|416:236,1,140
416,144,70213,1,0,0:0:0:0:
376,268,70588,2,0,P|296:216|288:156,1,140
192,124,71150,1,0,0:0:0:0:
84,176,71338,2,0,L|48:260,1,70
168,320,71713,2,0,L|188:228,1,70
332,148,72088,2,0,P|368:180|348:280,1,140
208,208,72650,2,0,P|192:128|240:92,1,140
368,144,73213,1,0,0:0:0:0:
384,312,73588,2,0,P|440:316|480:232,1,140
260,208,74150,1,0,0:0:0:0:
176,304,74338,2,0,L|104:232,1,70
184,168,74713,2,0,L|144:92,1,70
280,48,75088,2,0,P|352:52|380:124,1,140
336,304,75650,2,0,P|400:312|436:224,1,140
320,192,76213,1,0,0:0:0:0:
192,264,76588,2,0,P|120:224|116:144,1,140
184,120,77150,1,0,0:0:0:0:
280,104,77338,2,0,L|360:136,1,70
416,248,77713,2,0,L|328:220,1,70
284,288,78088,2,0,P|192:272|176:220,1,140
140,100,78650,2,0,P|72:80|40:152,1,140
88,236,79213,1,0,0:0:0:0:
212,180,79588,2,0,P|308:180|324:240,1,140
232,288,80150,1,0,0:0:0:0:
388,296,80338,2,0,L|476:320,1,70
424,204,80713,2,0,L|476:136,1,70
400,64,81088,1,0,0:0:0:0:
256,192,81181,12,0,82588,0:0:0:0:
48,144,86525,5,0,0:0:0:0:
128,204,86713,2,0,L|160:260,2,46.6666666666667
176,128,87088,2,0,P|232:88|304:116,1,140
344,220,87650,2,0,P|420:228|448:152,1,140
448,76,88213,1,0,0:0:0:0:
168,264,88588,2,0,L|80:272,2,70
228,204,89150,1,0,0:0:0:0:
348,272,89338,2,0,L|308:192,1,70
192,232,89713,2,0,L|168:324,1,70
128,192,90088,2,0,P|96:144|152:64,1,140
264,300,90650,2,0,P|332:256|316:180,1,140
372,160,91213,1,0,0:0:0:0:
160,288,91588,2,0,L|116:140,1,140
212,76,92150,2,0,L|256:228,1,140
356,204,92713,2,0,L|436:252,2,70
208,248,93275,1,0,0:0:0:0:
208,248,93838,1,0,0:0:0:0:
