osu file format v14

[General]
AudioFilename: audio.mp3
AudioLeadIn: 0
PreviewTime: 65758
Countdown: 0
SampleSet: Soft
StackLeniency: 0.7
Mode: 3
LetterboxInBreaks: 0
SpecialStyle: 0
WidescreenStoryboard: 0

[Editor]
Bookmarks: 127470
DistanceSpacing: 0.8
BeatDivisor: 4
GridSize: 32
TimelineZoom: 1.9

[Metadata]
Title:The Glory Days
TitleUnicode:The Glory Days
Artist:Tia
ArtistUnicode:Tia
Creator:Litharrale
Version:Insane
Source:キャプテン・アース
Tags:supercell captain earth ending piano ED Raveille
BeatmapID:1232409
BeatmapSetID:582367

[Difficulty]
HPDrainRate:8
CircleSize:4
OverallDifficulty:8
ApproachRate:5
SliderMultiplier:1.4
SliderTickRate:1

[Events]
//Background and Video events
0,0,"BGtia.jpg",0,0
//Break Periods
//Storyboard Layer 0 (Background)
//Storyboard Layer 1 (Fail)
//Storyboard Layer 2 (Pass)
//Storyboard Layer 3 (Foreground)
//Storyboard Sound Samples

[TimingPoints]
3150,326.086956521739,4,2,2,20,1,0
13511,-100,4,2,2,30,0,0
21410,-100,4,2,2,35,0,0
39671,-100,4,2,2,30,0,0
44889,-100,4,2,2,20,0,0
55323,-100,4,2,2,30,0,0
65269,-100,4,2,1,40,0,0
65758,-100,4,2,2,40,0,1
76438,-100,4,2,2,40,0,1
84019,-100,4,2,2,30,0,0
86628,-100,4,2,2,20,0,0
97063,-100,4,2,2,30,0,0
107497,-100,4,2,2,20,0,0
117769,-100,4,2,2,30,0,0
128367,-100,4,2,2,20,0,0
138802,-100,4,2,2,30,0,0
148910,-57.1428571428571,4,2,2,30,0,0
148992,-200,4,2,2,30,0,0
149236,-100,4,2,2,40,0,1
167497,-100,4,2,2,30,0,0
170106,-100,4,2,2,20,0,0
180133,-100,4,2,2,30,0,0
180541,-100,4,2,2,40,0,0
188367,-100,4,2,2,35,0,0
198476,-57.1428571428571,4,2,2,35,0,0
198557,-200,4,2,2,35,0,0
198802,-100,4,2,2,40,0,1
217063,-100,4,2,2,30,0,0
219508,-100,4,2,2,50,0,0
219753,-100,4,2,2,30,0,0
241682,-100,4,2,2,15,0,0

[HitObjects]
320,192,2823,5,0,0:0:0:40:soft-hitfinish.wav
448,192,3150,128,8,7063:0:0:0:0:
64,192,3150,1,0,1:1:0:0:normal-hitclap.wav
192,192,3150,1,4,0:0:0:0:
320,192,4454,1,0,0:0:0:0:
192,192,4617,1,0,0:0:0:0:
64,192,4780,1,0,0:0:0:0:
192,192,4943,1,0,0:0:0:0:
320,192,5595,1,0,0:0:0:0:
192,192,5758,1,0,0:0:0:0:
64,192,5758,1,8,0:0:0:0:
64,192,7715,128,0,8367:0:0:0:0:
448,192,8041,128,0,9997:0:0:0:0:
320,192,8367,128,8,9345:0:0:0:0:
192,192,8367,1,0,0:0:0:0:
64,192,8856,1,0,0:0:0:0:
192,192,9345,1,0,0:0:0:0:
64,192,9508,1,0,0:0:0:0:
192,192,9563,1,0,0:0:0:0:
320,192,9617,1,0,0:0:0:0:
64,192,9671,1,0,0:0:0:0:
320,192,9834,1,0,0:0:0:0:
192,192,9997,1,0,0:0:0:0:
320,192,10160,1,0,0:0:0:0:
64,192,10323,128,0,12932:0:0:0:0:
448,192,10486,1,0,0:0:0:0:
192,192,10649,128,0,12932:0:0:0:0:
320,192,10976,128,8,12932:0:0:0:0:
448,192,10976,1,0,0:0:0:0:
64,192,13584,1,0,0:0:0:0:
192,192,13584,1,2,0:0:0:0:
448,192,13584,1,8,0:0:0:0:
320,192,13747,1,0,0:0:0:0:
64,192,13910,1,0,0:0:0:0:
192,192,13910,1,2,0:0:0:0:
448,192,14073,1,0,0:0:0:0:
320,192,14236,1,2,0:0:0:0:
64,192,14236,1,0,0:0:0:0:
192,192,14399,1,0,0:0:0:0:
320,192,14563,1,2,0:0:0:0:
448,192,14563,1,0,0:0:0:0:
192,192,14726,1,0,0:0:0:0:
64,192,14889,1,0,0:0:0:0:
320,192,14889,1,2,0:0:0:0:
448,192,14889,1,8,0:0:0:0:
320,192,15052,1,0,0:0:0:0:
64,192,15215,1,0,0:0:0:0:
192,192,15215,1,2,0:0:0:0:
448,192,15378,1,0,0:0:0:0:
64,192,15541,1,0,0:0:0:0:
320,192,15541,1,2,0:0:0:0:
448,192,15704,1,0,0:0:0:0:
192,192,15867,1,2,0:0:0:0:
64,192,15867,1,0,0:0:0:0:
320,192,16030,1,0,0:0:0:0:
448,192,16193,1,8,0:0:0:0:
64,192,16193,1,0,0:0:0:0:
192,192,16193,1,2,0:0:0:0:
320,192,16356,1,0,0:0:0:0:
64,192,16519,1,0,0:0:0:0:
448,192,16519,1,2,0:0:0:0:
320,192,16682,1,0,0:0:0:0:
448,192,16845,1,0,0:0:0:0:
64,192,16845,1,2,0:0:0:0:
192,192,17008,1,0,0:0:0:0:
320,192,17171,1,2,0:0:0:0:
448,192,17171,1,0,0:0:0:0:
192,192,17334,1,0,0:0:0:0:
64,192,17497,1,0,0:0:0:0:
320,192,17497,1,2,0:0:0:0:
448,192,17497,1,8,0:0:0:0:
192,192,17660,1,0,0:0:0:0:
320,192,17823,1,2,0:0:0:0:
64,192,17823,1,0,0:0:0:0:
448,192,17986,1,0,0:0:0:0:
448,192,18149,128,2,18802:0:0:0:0:
320,192,18149,1,0,0:0:0:0:
192,192,18313,1,0,0:0:0:0:
64,192,18476,1,0,0:0:0:0:
320,192,18476,128,2,18802:0:0:0:0:
192,192,18639,1,0,0:0:0:0:
64,192,18802,1,2,0:0:0:0:
192,192,18802,1,8,0:0:0:0:
320,192,18965,1,0,0:0:0:0:
192,192,19128,1,2,0:0:0:0:
64,192,19128,1,0,0:0:0:0:
320,192,19291,1,0,0:0:0:0:
448,192,19454,1,2,0:0:0:0:
64,192,19454,1,0,0:0:0:0:
320,192,19617,1,0,0:0:0:0:
448,192,19780,1,2,0:0:0:0:
192,192,19780,1,0,0:0:0:0:
64,192,19943,1,0,0:0:0:0:
192,192,19997,1,0,0:0:0:0:
320,192,20052,1,0,0:0:0:0:
448,192,20106,1,8,0:0:0:0:
192,192,20106,1,2,0:0:0:0:
64,192,20106,1,0,0:0:0:0:
192,192,20269,1,0,0:0:0:0:
320,192,20432,1,2,0:0:0:0:
448,192,20432,1,0,0:0:0:0:
64,192,20595,1,0,0:0:0:0:
320,192,20758,1,2,0:0:0:0:
448,192,20758,1,0,0:0:0:0:
192,192,20921,1,0,0:0:0:0:
64,192,21084,1,0,0:0:0:0:
448,192,21084,1,2,0:0:0:0:
320,192,21247,1,0,0:0:0:0:
448,192,21410,1,8,0:0:0:0:
192,192,21410,1,2,0:0:0:0:
64,192,21410,1,0,0:0:0:0:
320,192,21573,1,0,0:0:0:0:
64,192,21736,1,0,0:0:0:25:normal-hitclap.wav
448,192,21736,1,2,0:0:0:0:
192,192,21899,1,0,0:0:0:0:
64,192,22063,1,0,0:0:0:0:
448,192,22063,1,2,0:0:0:0:
192,192,22226,1,0,0:0:0:0:
320,192,22389,1,2,0:0:0:0:
448,192,22389,1,0,0:0:0:0:
64,192,22552,1,0,0:0:0:25:normal-hitclap.wav
192,192,22552,1,0,0:0:0:0:
448,192,22715,1,0,0:0:0:0:
320,192,22715,1,2,0:0:0:0:
192,192,22878,1,0,0:0:0:0:
320,192,23041,1,2,0:0:0:0:
448,192,23041,1,0,0:0:0:25:normal-hitclap.wav
64,192,23204,1,0,0:0:0:0:
192,192,23285,1,0,0:0:0:0:
320,192,23367,1,2,0:0:0:0:
448,192,23367,1,0,0:0:0:0:
64,192,23530,1,0,0:0:0:0:
448,192,23693,1,0,0:0:0:0:
320,192,23693,1,2,0:0:0:0:
192,192,23774,1,0,0:0:0:0:
64,192,23856,1,0,0:0:0:0:
320,192,23938,1,0,0:0:0:0:
192,192,24019,1,0,0:0:0:0:
64,192,24019,1,0,0:0:0:0:
448,192,24019,128,0,24345:0:0:0:0:
64,192,24345,1,0,0:0:0:0:
320,192,24508,1,0,0:0:0:0:
448,192,24671,1,0,0:0:0:0:
192,192,24834,1,0,0:0:0:0:
64,192,24997,1,0,0:0:0:0:
320,192,25160,1,0,0:0:0:0:
192,192,25323,1,0,0:0:0:0:
448,192,25486,1,0,0:0:0:0:
64,192,25649,1,0,0:0:0:0:
320,192,25813,1,0,0:0:0:0:
192,192,25976,1,0,0:0:0:0:
448,192,26139,1,0,0:0:0:0:
64,192,26302,1,0,0:0:0:0:
64,192,26628,128,8,27932:0:0:0:0:
448,192,26628,1,0,0:0:0:0:
192,192,26791,1,0,0:0:0:0:
320,192,26954,1,0,0:0:0:0:
448,192,27117,1,0,0:0:0:0:
192,192,27280,1,0,0:0:0:0:
448,192,27443,1,0,0:0:0:0:
192,192,27606,1,0,0:0:0:0:
320,192,27769,1,0,0:0:0:0:
192,192,27932,1,0,0:0:0:0:
448,192,28095,1,0,0:0:0:0:
64,192,28258,1,0,0:0:0:0:
320,192,28421,1,0,0:0:0:0:
192,192,28584,1,0,0:0:0:0:
448,192,28747,1,0,0:0:0:0:
64,192,28910,1,0,0:0:0:0:
64,192,29236,1,0,0:0:0:0:
192,192,29236,1,8,0:0:0:0:
320,192,29399,1,0,0:0:0:0:
64,192,29563,1,0,0:0:0:0:
448,192,29726,1,0,0:0:0:0:
192,192,29889,1,0,0:0:0:0:
64,192,30052,1,0,0:0:0:0:
320,192,30215,1,0,0:0:0:0:
64,192,30378,1,0,0:0:0:0:
192,192,30541,1,0,0:0:0:0:
320,192,30704,1,0,0:0:0:0:
448,192,30867,1,0,0:0:0:0:
192,192,31030,1,0,0:0:0:0:
320,192,31193,1,0,0:0:0:0:
64,192,31356,1,0,0:0:0:0:
320,192,31519,1,0,0:0:0:0:
192,192,31845,128,8,32660:0:0:0:0:
448,192,31845,1,0,0:0:0:0:
64,192,32171,1,0,0:0:0:0:
320,192,32497,1,0,0:0:0:0:
448,192,32660,1,0,0:0:0:0:
64,192,32823,1,0,0:0:0:0:
448,192,33149,128,0,33802:0:0:0:0:
64,192,33476,1,0,0:0:0:0:
192,192,33802,1,0,0:0:0:0:
320,192,33965,1,0,0:0:0:0:
448,192,34128,1,0,0:0:0:0:
448,192,34454,1,4,0:0:0:0:
320,192,34454,1,8,0:0:0:0:
64,192,34454,1,0,0:0:0:0:
192,192,34617,1,0,0:0:0:0:
64,192,34780,1,0,0:0:0:0:
320,192,34943,1,0,0:0:0:0:
192,192,35106,1,0,0:0:0:0:
448,192,35269,1,0,0:0:0:0:
64,192,35432,1,0,0:0:0:0:
448,192,35595,1,0,0:0:0:0:
192,192,35758,1,0,0:0:0:0:
448,192,35921,1,0,0:0:0:0:
192,192,36084,1,0,0:0:0:0:
64,192,36247,1,0,0:0:0:0:
320,192,36410,1,0,0:0:0:0:
448,192,36573,1,0,0:0:0:0:
192,192,36736,1,0,0:0:0:0:
320,192,36899,1,0,0:0:0:0:
64,192,37063,1,0,0:0:0:0:
448,192,37063,1,8,0:0:0:0:
192,192,37226,1,0,0:0:0:0:
320,192,37389,1,0,0:0:0:0:
64,192,37552,5,0,0:0:0:0:
192,192,37715,1,0,0:0:0:0:
448,192,37878,1,0,0:0:0:0:
192,192,38041,1,0,0:0:0:0:
64,192,38204,1,0,0:0:0:0:
320,192,38367,1,0,0:0:0:0:
448,192,38530,1,0,0:0:0:0:
64,192,38693,1,0,0:0:0:0:
320,192,38693,1,0,0:0:0:30:normal-hitclap.wav
192,192,38856,1,0,0:0:0:0:
320,192,39019,1,0,0:0:0:0:
64,192,39182,1,0,0:0:0:0:
192,192,39345,1,0,0:0:0:0:
448,192,39345,1,0,0:0:0:30:normal-hitclap.wav
320,192,39508,1,0,0:0:0:0:
64,192,39671,1,2,0:0:0:0:
192,192,39671,1,8,0:0:0:0:
320,192,39997,1,0,0:0:0:0:
448,192,39997,1,0,0:0:0:30:normal-hitclap.wav
64,192,40323,1,2,0:0:0:0:
448,192,40486,1,2,0:0:0:0:
320,192,40813,1,0,0:0:0:0:
448,192,40813,1,0,0:0:0:30:normal-hitclap.wav
64,192,40976,1,2,0:0:0:0:
64,192,41139,1,2,0:0:0:0:
320,192,41302,1,0,0:0:0:0:
448,192,41302,1,0,0:0:0:30:normal-hitclap.wav
192,192,41465,1,0,0:0:0:0:
64,192,41628,1,2,0:0:0:0:
448,192,41791,1,2,0:0:0:0:
64,192,41954,1,0,0:0:0:0:
192,192,41954,1,0,0:0:0:30:normal-hitclap.wav
64,192,42280,1,2,0:0:0:0:
192,192,42443,1,2,0:0:0:0:
320,192,42606,1,0,0:0:0:30:normal-hitclap.wav
448,192,42606,1,0,0:0:0:0:
320,192,42932,1,2,0:0:0:0:
448,192,43095,1,2,0:0:0:0:
64,192,43258,1,0,0:0:0:0:
192,192,43421,1,0,0:0:0:0:
448,192,43421,1,0,0:0:0:30:normal-hitclap.wav
320,192,43584,1,0,0:0:0:0:
64,192,43747,1,2,0:0:0:0:
192,192,43910,1,0,0:0:0:0:
320,192,43910,1,0,0:0:0:30:normal-hitclap.wav
64,192,44155,1,0,0:0:0:0:
192,192,44155,1,2,0:0:0:0:
320,192,44236,1,2,0:0:0:0:
448,192,44236,1,0,0:0:0:0:
192,192,44399,1,2,0:0:0:0:
320,192,44563,1,0,0:0:0:0:
448,192,44563,1,0,0:0:0:30:normal-hitclap.wav
192,192,44726,1,2,0:0:0:0:
64,192,44889,1,0,0:0:0:0:
448,192,44889,1,0,0:0:0:0:
320,192,45052,1,0,0:0:0:0:
448,192,45215,1,0,0:0:0:0:
64,192,45378,1,0,0:0:0:0:
192,192,45704,1,0,0:0:0:0:
192,192,45867,1,0,0:0:0:0:
320,192,46193,1,0,0:0:0:0:
320,192,46845,1,0,0:0:0:0:
64,192,47497,1,0,0:0:0:0:
320,192,47660,1,0,0:0:0:0:
192,192,47823,1,0,0:0:0:0:
448,192,47986,1,0,0:0:0:0:
64,192,48313,1,0,0:0:0:0:
320,192,48476,1,0,0:0:0:0:
64,192,48802,1,0,0:0:0:0:
64,192,49454,1,0,0:0:0:0:
448,192,50106,1,0,0:0:0:0:
192,192,50269,1,0,0:0:0:0:
320,192,50432,1,0,0:0:0:0:
64,192,50595,1,0,0:0:0:0:
192,192,50921,1,0,0:0:0:0:
192,192,51084,1,0,0:0:0:0:
448,192,51410,1,0,0:0:0:0:
448,192,52063,1,0,0:0:0:0:
192,192,52715,1,0,0:0:0:0:
320,192,52878,1,0,0:0:0:0:
64,192,53041,1,0,0:0:0:0:
448,192,53204,1,0,0:0:0:0:
192,192,53530,1,0,0:0:0:0:
320,192,53693,1,0,0:0:0:0:
64,192,54019,1,0,0:0:0:0:
64,192,54671,1,0,0:0:0:0:
64,192,55323,5,0,0:0:0:30:normal-hitclap.wav
320,192,55323,1,4,0:0:0:0:
448,192,55323,1,0,0:0:0:0:
192,192,55486,1,0,0:0:0:0:
64,192,55649,1,0,0:0:0:30:normal-hitclap.wav
320,192,55649,1,0,0:0:0:0:
448,192,55813,1,0,0:0:0:0:
192,192,55976,1,0,0:0:0:0:
64,192,55976,1,0,0:0:0:30:normal-hitclap.wav
64,192,56302,1,0,0:0:0:30:normal-hitclap.wav
320,192,56302,1,0,0:0:0:0:
320,192,56546,1,0,0:0:0:30:normal-hitclap.wav
192,192,56628,1,0,0:0:0:0:
64,192,56628,1,0,0:0:0:30:normal-hitclap.wav
320,192,56872,1,0,0:0:0:30:normal-hitclap.wav
192,192,56954,1,0,0:0:0:0:
64,192,56954,1,0,0:0:0:30:normal-hitclap.wav
64,192,57280,1,0,0:0:0:30:normal-hitclap.wav
192,192,57280,1,0,0:0:0:0:
448,192,57606,1,0,0:0:0:0:
192,192,57606,1,0,0:0:0:30:normal-hitclap.wav
64,192,57932,1,0,0:0:0:30:normal-hitclap.wav
192,192,57932,1,0,0:0:0:0:
448,192,57932,1,0,0:0:0:0:
64,192,58177,1,0,0:0:0:30:normal-hitclap.wav
320,192,58258,1,0,0:0:0:30:normal-hitclap.wav
448,192,58258,1,0,0:0:0:0:
64,192,58421,1,0,0:0:0:0:
448,192,58584,1,0,0:0:0:0:
320,192,58584,1,0,0:0:0:30:normal-hitclap.wav
320,192,58910,1,0,0:0:0:30:normal-hitclap.wav
64,192,58910,1,0,0:0:0:0:
64,192,59155,1,0,0:0:0:30:normal-hitclap.wav
320,192,59236,1,0,0:0:0:30:normal-hitclap.wav
448,192,59236,1,0,0:0:0:0:
192,192,59236,1,0,0:0:0:0:
448,192,59563,1,0,0:0:0:30:normal-hitclap.wav
64,192,59563,1,0,0:0:0:0:
192,192,59726,1,0,0:0:0:0:
320,192,59889,1,0,0:0:0:30:normal-hitclap.wav
448,192,59889,1,0,0:0:0:0:
64,192,59970,1,0,0:0:0:30:normal-hitclap.wav
192,192,60215,1,0,0:0:0:0:
320,192,60215,1,0,0:0:0:30:normal-hitclap.wav
64,192,60541,1,0,0:0:0:0:
192,192,60541,1,0,0:0:0:30:normal-hitclap.wav
448,192,60541,1,0,0:0:0:0:
192,192,60785,1,0,0:0:0:30:normal-hitclap.wav
64,192,60867,1,0,0:0:0:30:normal-hitclap.wav
448,192,60867,1,0,0:0:0:0:
320,192,61030,1,0,0:0:0:0:
64,192,61193,1,0,0:0:0:0:
192,192,61193,1,0,0:0:0:30:normal-hitclap.wav
320,192,61274,1,0,0:0:0:30:normal-hitclap.wav
192,192,61519,1,0,0:0:0:30:normal-hitclap.wav
448,192,61519,1,0,0:0:0:0:
64,192,61682,1,0,0:0:0:0:
448,192,61736,1,0,0:0:0:0:
320,192,61791,1,0,0:0:0:0:
192,192,61845,1,0,0:0:0:30:normal-hitclap.wav
64,192,61845,1,0,0:0:0:0:
448,192,62090,1,0,0:0:0:30:normal-hitclap.wav
192,192,62171,1,0,0:0:0:30:normal-hitclap.wav
64,192,62171,1,0,0:0:0:0:
320,192,62334,1,0,0:0:0:0:
192,192,62497,1,0,0:0:0:30:normal-hitclap.wav
448,192,62497,1,0,0:0:0:0:
64,192,62823,1,0,0:0:0:0:
192,192,62823,1,0,0:0:0:30:normal-hitclap.wav
448,192,62986,1,0,0:0:0:0:
192,192,63149,1,0,0:0:0:0:
320,192,64128,128,0,65432:0:0:0:15:soft-hitnormal2.wav
192,192,65432,5,4,0:0:0:0:
64,192,65758,1,2,0:0:0:0:
448,192,65758,1,0,0:0:0:0:
192,192,65921,1,0,0:0:0:0:
448,192,66084,1,0,0:0:0:0:
320,192,66084,1,2,0:0:0:0:
64,192,66084,1,0,0:0:0:40:normal-hitclap.wav
192,192,66247,1,0,0:0:0:0:
64,192,66410,1,0,0:0:0:0:
448,192,66410,1,2,0:0:0:0:
320,192,66573,1,0,0:0:0:0:
64,192,66736,1,0,0:0:0:40:normal-hitclap.wav
192,192,66736,1,0,0:0:0:0:
448,192,66736,1,2,0:0:0:0:
320,192,66899,1,0,0:0:0:0:
192,192,67063,1,0,0:0:0:0:
320,192,67063,1,2,0:0:0:0:
64,192,67226,1,0,0:0:0:0:
192,192,67389,1,0,0:0:0:40:normal-hitclap.wav
448,192,67389,1,2,0:0:0:0:
320,192,67389,1,0,0:0:0:0:
64,192,67552,1,0,0:0:0:0:
192,192,67715,1,0,0:0:0:0:
448,192,67715,1,2,0:0:0:0:
320,192,67878,1,0,0:0:0:0:
64,192,68041,1,0,0:0:0:40:normal-hitclap.wav
192,192,68041,1,0,0:0:0:0:
448,192,68041,1,2,0:0:0:0:
448,192,68204,1,0,0:0:0:0:
64,192,68367,1,0,0:0:0:0:
320,192,68367,1,2,0:0:0:0:
448,192,68530,1,0,0:0:0:0:
192,192,68530,1,0,0:0:0:0:
320,192,68693,1,2,0:0:0:0:
192,192,68693,1,0,0:0:0:0:
64,192,68693,1,0,0:0:0:40:normal-hitclap.wav
448,192,68856,1,0,0:0:0:0:
320,192,69019,1,2,0:0:0:0:
192,192,69019,1,0,0:0:0:0:
64,192,69182,1,0,0:0:0:0:
448,192,69182,1,0,0:0:0:0:
448,192,69345,1,0,0:0:0:0:
192,192,69345,1,0,0:0:0:40:normal-hitclap.wav
320,192,69345,1,2,0:0:0:0:
64,192,69508,1,0,0:0:0:0:
448,192,69671,128,2,69997:0:0:0:0:
320,192,69671,1,0,0:0:0:0:
64,192,69834,1,0,0:0:0:0:
320,192,69997,128,2,70323:0:0:0:0:
192,192,69997,1,0,0:0:0:40:normal-hitclap.wav
448,192,70160,1,0,0:0:0:0:
192,192,70323,128,2,70649:0:0:0:0:
64,192,70323,1,0,0:0:0:0:
320,192,70486,1,0,0:0:0:0:
64,192,70649,1,2,0:0:0:0:
448,192,70649,1,0,0:0:0:40:normal-hitclap.wav
320,192,70813,1,0,0:0:0:0:
192,192,70976,1,2,0:0:0:0:
448,192,70976,1,0,0:0:0:0:
64,192,71139,1,0,0:0:0:0:
320,192,71139,1,0,0:0:0:0:
192,192,71302,1,2,0:0:0:0:
320,192,71302,1,0,0:0:0:40:normal-hitclap.wav
448,192,71302,1,0,0:0:0:0:
64,192,71465,1,0,0:0:0:0:
192,192,71628,1,2,0:0:0:0:
64,192,71628,1,0,0:0:0:0:
448,192,71791,1,0,0:0:0:0:
320,192,71791,1,0,0:0:0:0:
320,192,71954,1,0,0:0:0:40:normal-hitclap.wav
192,192,71954,1,2,0:0:0:0:
64,192,71954,1,0,0:0:0:0:
192,192,72117,1,0,0:0:0:0:
448,192,72117,1,0,0:0:0:0:
320,192,72280,1,2,0:0:0:0:
64,192,72280,1,0,0:0:0:0:
320,192,72443,1,0,0:0:0:0:
448,192,72443,1,0,0:0:0:0:
448,192,72606,1,0,0:0:0:0:
192,192,72606,1,2,0:0:0:0:
64,192,72606,1,0,0:0:0:40:normal-hitclap.wav
320,192,72769,1,0,0:0:0:0:
64,192,72769,1,0,0:0:0:0:
448,192,72932,1,0,0:0:0:0:
192,192,72932,1,2,0:0:0:0:
64,192,73095,1,0,0:0:0:0:
192,192,73258,1,2,0:0:0:0:
320,192,73258,1,0,0:0:0:40:normal-hitclap.wav
448,192,73258,1,0,0:0:0:0:
64,192,73421,1,0,0:0:0:0:
448,192,73584,1,0,0:0:0:0:
192,192,73584,1,2,0:0:0:0:
320,192,73747,1,0,0:0:0:0:
192,192,73829,1,0,0:0:0:0:
64,192,73910,1,2,0:0:0:0:
448,192,73910,1,0,0:0:0:40:normal-hitclap.wav
448,192,74073,1,0,0:0:0:0:
320,192,74155,1,0,0:0:0:0:
192,192,74236,1,0,0:0:0:0:
64,192,74236,1,2,0:0:0:0:
320,192,74399,1,0,0:0:0:0:
448,192,74481,1,0,0:0:0:0:
64,192,74563,1,2,0:0:0:0:
192,192,74563,1,0,0:0:0:40:normal-hitclap.wav
64,192,74726,1,0,0:0:0:0:
192,192,74807,1,0,0:0:0:0:
448,192,74889,1,2,0:0:0:0:
320,192,74889,1,0,0:0:0:0:
448,192,75052,1,0,0:0:0:0:
192,192,75215,1,0,0:0:0:40:normal-hitclap.wav
64,192,75215,1,2,0:0:0:0:
448,192,75378,1,0,0:0:0:0:
320,192,75541,1,2,0:0:0:0:
448,192,75541,1,0,0:0:0:0:
192,192,75622,1,2,0:0:0:0:
64,192,75704,1,2,0:0:0:0:
448,192,75785,1,2,0:0:0:0:
192,192,76030,1,0,0:0:0:0:
320,192,76111,1,0,0:0:0:0:
448,192,76193,1,2,0:0:0:0:
64,192,76193,1,0,0:0:0:0:
192,192,76356,1,0,0:0:0:0:
320,192,76356,1,0,0:0:0:0:
320,192,76519,1,2,0:0:0:0:
448,192,76519,1,0,0:0:0:40:normal-hitclap.wav
64,192,76519,1,4,0:0:0:0:
192,192,76682,1,0,0:0:0:0:
320,192,76845,1,2,0:0:0:0:
448,192,76845,1,0,0:0:0:0:
64,192,77008,1,0,0:0:0:0:
192,192,77008,1,0,0:0:0:0:
192,192,77171,1,0,0:0:0:0:
320,192,77171,1,2,0:0:0:0:
448,192,77171,1,0,0:0:0:40:normal-hitclap.wav
64,192,77334,1,0,0:0:0:0:
320,192,77334,1,0,0:0:0:0:
192,192,77497,1,0,0:0:0:0:
448,192,77497,1,2,0:0:0:0:
448,192,77660,1,0,0:0:0:0:
320,192,77660,1,0,0:0:0:0:
64,192,77823,1,0,0:0:0:0:
192,192,77823,1,2,0:0:0:0:
320,192,77823,1,0,0:0:0:40:normal-hitclap.wav
448,192,77986,1,0,0:0:0:0:
192,192,77986,1,0,0:0:0:0:
320,192,78149,1,2,0:0:0:0:
64,192,78149,1,0,0:0:0:0:
192,192,78313,1,0,0:0:0:0:
448,192,78476,1,2,0:0:0:0:
320,192,78476,1,0,0:0:0:40:normal-hitclap.wav
64,192,78476,1,0,0:0:0:0:
192,192,78639,1,0,0:0:0:0:
320,192,78802,1,2,0:0:0:0:
64,192,78802,1,0,0:0:0:0:
448,192,78965,1,0,0:0:0:0:
192,192,78965,1,0,0:0:0:0:
320,192,79128,1,0,0:0:0:40:normal-hitclap.wav
192,192,79128,1,2,0:0:0:0:
64,192,79128,1,0,0:0:0:0:
448,192,79291,1,0,0:0:0:0:
192,192,79454,1,2,0:0:0:0:
64,192,79454,1,0,0:0:0:0:
448,192,79617,1,0,0:0:0:0:
320,192,79617,1,0,0:0:0:0:
320,192,79780,1,0,0:0:0:40:normal-hitclap.wav
192,192,79780,1,2,0:0:0:0:
64,192,79780,1,0,0:0:0:0:
448,192,79943,1,0,0:0:0:0:
64,192,80106,128,2,80432:0:0:0:0:
192,192,80106,1,0,0:0:0:0:
448,192,80269,1,0,0:0:0:0:
192,192,80432,128,2,80758:0:0:0:0:
320,192,80432,1,0,0:0:0:40:normal-hitclap.wav
64,192,80595,1,0,0:0:0:0:
320,192,80758,128,2,81084:0:0:0:0:
448,192,80758,1,0,0:0:0:0:
192,192,80921,1,0,0:0:0:0:
448,192,81084,1,0,0:0:0:50:soft-hitfinish.wav
192,192,81084,1,0,0:0:0:40:normal-hitclap.wav
64,192,81084,1,2,0:0:0:0:
320,192,81410,1,0,0:0:0:0:
448,192,81410,1,2,0:0:0:0:
448,192,81573,1,0,0:0:0:0:
192,192,81573,1,0,0:0:0:0:
64,192,81736,1,0,0:0:0:0:
192,192,81736,1,2,0:0:0:0:
320,192,81736,1,0,0:0:0:40:normal-hitclap.wav
448,192,81899,1,0,0:0:0:0:
320,192,82063,1,2,0:0:0:0:
64,192,82063,1,0,0:0:0:0:
192,192,82226,1,0,0:0:0:0:
320,192,82389,1,0,0:0:0:40:normal-hitclap.wav
448,192,82389,1,2,0:0:0:0:
64,192,82389,1,0,0:0:0:0:
192,192,82552,1,0,0:0:0:0:
320,192,82552,1,0,0:0:0:0:
64,192,82715,1,0,0:0:0:0:
448,192,82715,1,2,0:0:0:0:
320,192,82878,1,0,0:0:0:0:
192,192,82878,1,0,0:0:0:0:
64,192,83041,1,0,0:0:0:0:
448,192,83041,1,2,0:0:0:0:
192,192,83041,1,0,0:0:0:40:normal-hitclap.wav
320,192,83204,1,0,0:0:0:0:
64,192,83204,1,0,0:0:0:0:
192,192,83367,1,0,0:0:0:0:
448,192,83367,1,2,0:0:0:0:
192,192,83530,1,0,0:0:0:0:
320,192,83693,1,0,0:0:0:40:normal-hitclap.wav
64,192,83693,1,0,0:0:0:0:
448,192,83693,1,2,0:0:0:0:
192,192,83856,1,0,0:0:0:0:
320,192,84019,1,2,0:0:0:0:
448,192,84019,1,8,0:0:0:0:
192,192,84182,1,0,0:0:0:0:
64,192,84345,1,0,0:0:0:0:
448,192,84671,1,0,0:0:0:0:
320,192,84834,1,0,0:0:0:0:
192,192,84997,1,0,0:0:0:0:
320,192,85323,1,0,0:0:0:0:
192,192,85486,5,0,0:0:0:0:
64,192,85649,1,0,0:0:0:0:
320,192,85976,1,0,0:0:0:0:
192,192,86139,1,0,0:0:0:0:
448,192,86302,1,0,0:0:0:0:
64,192,86628,5,0,0:0:0:0:
192,192,86628,1,0,0:0:0:30:soft-hitfinish2.wav
448,192,87280,1,0,0:0:0:0:
320,192,87443,1,0,0:0:0:0:
192,192,87606,1,0,0:0:0:0:
320,192,87932,1,0,0:0:0:0:
192,192,88095,1,0,0:0:0:0:
64,192,88258,1,0,0:0:0:0:
64,192,88584,1,0,0:0:0:0:
192,192,88747,1,0,0:0:0:0:
320,192,88910,1,0,0:0:0:0:
192,192,89236,1,0,0:0:0:0:
64,192,89236,1,0,0:0:0:0:
320,192,89399,1,0,0:0:0:0:
448,192,89563,1,0,0:0:0:0:
320,192,89889,1,0,0:0:0:0:
448,192,90052,1,0,0:0:0:0:
320,192,90215,1,0,0:0:0:0:
192,192,90541,1,0,0:0:0:0:
64,192,90704,1,0,0:0:0:0:
192,192,90867,1,0,0:0:0:0:
448,192,91193,1,0,0:0:0:0:
320,192,91356,1,0,0:0:0:0:
192,192,91519,1,0,0:0:0:0:
320,192,91845,1,0,0:0:0:0:
448,192,91845,1,0,0:0:0:0:
192,192,92008,1,0,0:0:0:0:
64,192,92171,1,0,0:0:0:0:
64,192,92497,1,0,0:0:0:0:
192,192,92660,1,0,0:0:0:0:
320,192,92823,1,0,0:0:0:0:
192,192,93149,1,0,0:0:0:0:
320,192,93313,1,0,0:0:0:0:
448,192,93476,1,0,0:0:0:0:
448,192,93802,1,0,0:0:0:0:
320,192,93965,1,0,0:0:0:0:
192,192,94128,1,0,0:0:0:0:
320,192,94454,1,0,0:0:0:0:
448,192,94454,1,0,0:0:0:0:
192,192,94617,1,0,0:0:0:0:
64,192,94780,1,0,0:0:0:0:
64,192,95106,1,0,0:0:0:0:
192,192,95269,1,0,0:0:0:0:
320,192,95432,1,0,0:0:0:0:
192,192,95758,1,0,0:0:0:0:
320,192,95921,5,0,0:0:0:0:
448,192,96084,1,0,0:0:0:0:
448,192,96410,1,0,0:0:0:0:
320,192,96573,1,0,0:0:0:0:
192,192,96736,1,0,0:0:0:0:
320,192,97063,5,0,0:0:0:0:
448,192,97063,128,0,97552:0:0:0:0:
64,192,97063,1,2,0:0:0:0:
192,192,97226,1,0,0:0:0:0:
64,192,97389,1,2,0:0:0:0:
320,192,97552,128,0,98041:0:0:0:0:
192,192,97552,1,0,0:0:0:0:
64,192,97715,1,2,0:0:0:0:
192,192,97878,1,0,0:0:0:0:
64,192,98041,128,0,98530:0:0:0:0:
448,192,98041,1,2,0:0:0:0:
320,192,98204,1,0,0:0:0:0:
448,192,98367,1,2,0:0:0:0:
192,192,98530,128,0,98856:0:0:0:0:
320,192,98530,1,0,0:0:0:0:
448,192,98693,1,2,0:0:0:0:
320,192,98856,1,0,0:0:0:0:
448,192,99019,1,0,0:0:0:0:
64,192,99019,1,2,0:0:0:0:
320,192,99182,1,0,0:0:0:0:
448,192,99182,1,0,0:0:0:0:
448,192,99345,1,0,0:0:0:0:
192,192,99345,1,2,0:0:0:0:
64,192,99508,1,0,0:0:0:0:
320,192,99508,1,0,0:0:0:0:
192,192,99671,128,0,100160:0:0:0:0:
448,192,99671,1,2,0:0:0:0:
320,192,99834,1,0,0:0:0:0:
448,192,99997,1,2,0:0:0:0:
448,192,100160,128,0,100649:0:0:0:0:
64,192,100160,1,0,0:0:0:0:
192,192,100323,1,2,0:0:0:0:
64,192,100486,1,0,0:0:0:0:
320,192,100649,128,0,101139:0:0:0:0:
192,192,100649,1,2,0:0:0:0:
64,192,100813,1,0,0:0:0:0:
192,192,100976,1,2,0:0:0:0:
64,192,101139,128,0,101628:0:0:0:0:
448,192,101139,1,0,0:0:0:0:
320,192,101302,1,2,0:0:0:0:
448,192,101465,1,0,0:0:0:0:
192,192,101628,1,0,0:0:0:0:
320,192,101628,1,2,0:0:0:0:
448,192,101791,1,0,0:0:0:0:
320,192,101791,1,0,0:0:0:0:
192,192,101954,1,0,0:0:0:0:
320,192,101954,1,2,0:0:0:0:
192,192,102117,1,0,0:0:0:0:
64,192,102117,1,0,0:0:0:0:
64,192,102280,128,0,102769:0:0:0:0:
448,192,102280,1,2,0:0:0:0:
320,192,102443,1,0,0:0:0:0:
448,192,102606,1,2,0:0:0:0:
448,192,102769,128,0,103258:0:0:0:0:
192,192,102769,1,0,0:0:0:0:
64,192,102932,1,2,0:0:0:0:
192,192,103095,1,0,0:0:0:0:
320,192,103258,128,0,103747:0:0:0:0:
64,192,103258,1,2,0:0:0:0:
192,192,103421,1,0,0:0:0:0:
64,192,103584,1,2,0:0:0:0:
192,192,103747,128,0,104236:0:0:0:0:
448,192,103747,1,0,0:0:0:0:
320,192,103910,1,2,0:0:0:0:
448,192,104073,1,0,0:0:0:0:
320,192,104236,1,0,0:0:0:0:
448,192,104236,1,2,0:0:0:0:
448,192,104399,1,0,0:0:0:0:
192,192,104399,1,0,0:0:0:0:
64,192,104563,1,0,0:0:0:30:soft-hitfinish.wav
320,192,104563,1,0,0:0:0:0:
192,192,104726,1,0,0:0:0:0:
448,192,104726,1,0,0:0:0:0:
448,192,104889,128,0,105378:0:0:0:0:
320,192,104889,1,2,0:0:0:0:
64,192,105052,1,0,0:0:0:0:
192,192,105215,1,2,0:0:0:0:
320,192,105378,128,0,105867:0:0:0:0:
64,192,105378,1,0,0:0:0:0:
448,192,105541,1,2,0:0:0:0:
192,192,105704,1,0,0:0:0:0:
192,192,105867,128,0,106845:0:0:0:0:
64,192,105867,1,2,0:0:0:0:
448,192,106030,1,0,0:0:0:0:
320,192,106193,1,2,0:0:0:0:
64,192,106356,1,0,0:0:0:0:
320,192,106519,1,2,0:0:0:0:
448,192,106682,1,0,0:0:0:0:
64,192,106845,128,0,107497:0:0:0:0:
320,192,106845,128,0,107008:0:0:0:0:
320,192,107171,1,2,0:0:0:0:
192,192,107497,1,0,0:0:0:0:
448,192,107497,1,8,0:0:0:0:
448,192,107823,1,0,0:0:0:0:
192,192,107986,1,0,0:0:0:0:
64,192,108149,1,0,0:0:0:0:
320,192,108313,1,0,0:0:0:0:
448,192,108476,1,0,0:0:0:0:
192,192,108639,1,0,0:0:0:0:
320,192,108802,1,0,0:0:0:0:
64,192,108965,1,0,0:0:0:0:
192,192,109128,1,0,0:0:0:0:
448,192,109291,1,0,0:0:0:0:
320,192,109454,1,0,0:0:0:0:
448,192,109617,1,0,0:0:0:0:
64,192,109780,1,0,0:0:0:0:
448,192,110106,128,8,111410:0:0:0:0:
64,192,110106,1,0,0:0:0:0:
320,192,110269,1,0,0:0:0:0:
192,192,110432,1,0,0:0:0:0:
64,192,110595,1,0,0:0:0:0:
320,192,110758,1,0,0:0:0:0:
64,192,110921,1,0,0:0:0:0:
320,192,111084,1,0,0:0:0:0:
192,192,111247,1,0,0:0:0:0:
64,192,111410,1,0,0:0:0:0:
320,192,111573,1,0,0:0:0:0:
448,192,111736,1,0,0:0:0:0:
192,192,111899,1,0,0:0:0:0:
448,192,112063,1,0,0:0:0:0:
64,192,112226,1,0,0:0:0:0:
320,192,112389,1,0,0:0:0:0:
448,192,112715,1,0,0:0:0:0:
320,192,112715,1,8,0:0:0:0:
192,192,112878,1,0,0:0:0:0:
448,192,113041,1,0,0:0:0:0:
64,192,113204,1,0,0:0:0:0:
320,192,113367,1,0,0:0:0:0:
448,192,113530,1,0,0:0:0:0:
192,192,113693,1,0,0:0:0:0:
448,192,113856,1,0,0:0:0:0:
320,192,114019,1,0,0:0:0:0:
192,192,114182,1,0,0:0:0:0:
64,192,114345,1,0,0:0:0:0:
320,192,114508,1,0,0:0:0:0:
192,192,114671,1,0,0:0:0:0:
448,192,114834,1,0,0:0:0:0:
64,192,114997,1,0,0:0:0:0:
320,192,115323,128,8,116139:0:0:0:0:
64,192,115323,1,0,0:0:0:0:
448,192,115649,1,0,0:0:0:0:
192,192,115976,1,0,0:0:0:0:
64,192,116139,1,0,0:0:0:0:
448,192,116302,1,0,0:0:0:0:
64,192,116628,128,0,117932:0:0:0:0:
448,192,116628,1,0,0:0:0:0:
320,192,116954,1,0,0:0:0:0:
448,192,117280,1,0,0:0:0:0:
320,192,117443,1,0,0:0:0:0:
448,192,117606,1,0,0:0:0:0:
192,192,117932,1,8,0:0:0:0:
448,192,117932,1,2,0:0:0:0:
320,192,117932,1,4,0:0:0:0:
64,192,118095,1,0,0:0:0:0:
448,192,118258,1,2,0:0:0:0:
192,192,118258,1,0,0:0:0:0:
320,192,118421,1,0,0:0:0:0:
448,192,118584,1,2,0:0:0:0:
64,192,118584,1,0,0:0:0:0:
192,192,118747,1,0,0:0:0:0:
448,192,118910,1,2,0:0:0:0:
320,192,118910,1,0,0:0:0:0:
192,192,119073,1,0,0:0:0:0:
320,192,119236,1,2,0:0:0:0:
64,192,119236,1,0,0:0:0:0:
192,192,119399,1,0,0:0:0:0:
448,192,119563,1,2,0:0:0:0:
64,192,119563,1,0,0:0:0:0:
320,192,119726,1,0,0:0:0:0:
192,192,119889,1,2,0:0:0:0:
448,192,119889,1,0,0:0:0:0:
64,192,120052,1,0,0:0:0:0:
320,192,120215,1,2,0:0:0:0:
448,192,120215,1,0,0:0:0:0:
192,192,120378,1,0,0:0:0:0:
448,192,120541,1,2,0:0:0:0:
64,192,120541,1,8,0:0:0:0:
320,192,120704,1,0,0:0:0:0:
192,192,120867,1,2,0:0:0:0:
64,192,120867,1,0,0:0:0:0:
448,192,121030,5,0,0:0:0:0:
320,192,121193,1,2,0:0:0:0:
192,192,121193,1,0,0:0:0:0:
64,192,121356,1,0,0:0:0:0:
320,192,121519,1,2,0:0:0:0:
448,192,121519,1,0,0:0:0:0:
192,192,121682,1,0,0:0:0:0:
64,192,121845,1,2,0:0:0:0:
320,192,121845,1,0,0:0:0:0:
192,192,122008,1,0,0:0:0:0:
448,192,122171,1,2,0:0:0:0:
64,192,122171,1,0,0:0:0:30:normal-hitclap.wav
320,192,122334,1,0,0:0:0:0:
192,192,122497,1,2,0:0:0:0:
64,192,122497,1,0,0:0:0:0:
448,192,122660,1,0,0:0:0:0:
320,192,122823,1,0,0:0:0:30:normal-hitclap.wav
64,192,122823,1,2,0:0:0:0:
192,192,122986,1,0,0:0:0:0:
448,192,123149,1,2,0:0:0:0:
320,192,123149,1,8,0:0:0:0:
192,192,123476,1,0,0:0:0:30:normal-hitclap.wav
64,192,123476,1,2,0:0:0:0:
448,192,123802,1,2,0:0:0:0:
64,192,123965,1,0,0:0:0:0:
448,192,124128,1,2,0:0:0:0:
192,192,124291,1,0,0:0:0:30:normal-hitclap.wav
64,192,124291,1,0,0:0:0:0:
448,192,124454,1,2,0:0:0:0:
448,192,124617,1,0,0:0:0:0:
192,192,124780,1,0,0:0:0:30:normal-hitclap.wav
64,192,124780,1,2,0:0:0:0:
320,192,124943,1,0,0:0:0:0:
448,192,125106,1,2,0:0:0:0:
320,192,125106,1,0,0:0:0:0:
64,192,125269,1,0,0:0:0:0:
448,192,125432,1,2,0:0:0:0:
320,192,125432,1,0,0:0:0:30:normal-hitclap.wav
192,192,125758,1,8,0:0:0:0:
448,192,125758,1,2,0:0:0:0:
320,192,125921,1,0,0:0:0:0:
192,192,126084,1,0,0:0:0:30:normal-hitclap.wav
64,192,126084,1,2,0:0:0:0:
320,192,126410,1,2,0:0:0:0:
320,192,126573,1,0,0:0:0:0:
448,192,126736,1,2,0:0:0:0:
192,192,126899,1,0,0:0:0:30:normal-hitclap.wav
64,192,126899,1,0,0:0:0:0:
320,192,127063,1,2,0:0:0:0:
448,192,127226,1,0,0:0:0:0:
320,192,127389,1,0,0:0:0:30:normal-hitclap.wav
192,192,127389,1,2,0:0:0:0:
64,192,127633,1,0,0:0:0:0:
192,192,127633,1,0,0:0:0:0:
320,192,127715,1,2,0:0:0:0:
448,192,127715,1,0,0:0:0:0:
320,192,127878,1,0,0:0:0:0:
448,192,127878,1,0,0:0:0:0:
192,192,128041,1,0,0:0:0:30:normal-hitclap.wav
64,192,128041,1,2,0:0:0:0:
320,192,128204,1,0,0:0:0:0:
448,192,128367,1,0,0:0:0:0:
64,192,128367,1,8,0:0:0:0:
448,192,129997,1,0,0:0:0:0:
320,192,130323,1,0,0:0:0:0:
64,192,130649,1,0,0:0:0:0:
320,192,130976,1,0,0:0:0:0:
448,192,130976,1,0,0:0:0:0:
192,192,132606,1,0,0:0:0:0:
320,192,132932,1,0,0:0:0:0:
64,192,133258,1,0,0:0:0:0:
192,192,133584,1,0,0:0:0:0:
320,192,135215,1,0,0:0:0:0:
192,192,135541,1,0,0:0:0:0:
64,192,135867,1,0,0:0:0:0:
192,192,136193,1,0,0:0:0:0:
320,192,136193,1,0,0:0:0:0:
192,192,137171,1,0,0:0:0:0:
448,192,138802,5,0,0:0:0:30:normal-hitclap.wav
192,192,138802,1,4,0:0:0:0:
64,192,138802,1,0,0:0:0:0:
320,192,138965,1,0,0:0:0:0:
448,192,139128,1,0,0:0:0:30:normal-hitclap.wav
192,192,139128,1,0,0:0:0:0:
64,192,139291,1,0,0:0:0:0:
320,192,139454,1,0,0:0:0:0:
448,192,139454,1,0,0:0:0:30:normal-hitclap.wav
448,192,139780,1,0,0:0:0:30:normal-hitclap.wav
192,192,139780,1,0,0:0:0:0:
192,192,140024,1,0,0:0:0:30:normal-hitclap.wav
320,192,140106,1,0,0:0:0:0:
448,192,140106,1,0,0:0:0:30:normal-hitclap.wav
192,192,140351,1,0,0:0:0:30:normal-hitclap.wav
320,192,140432,1,0,0:0:0:0:
448,192,140432,1,0,0:0:0:30:normal-hitclap.wav
192,192,140758,1,0,0:0:0:30:normal-hitclap.wav
64,192,140758,1,0,0:0:0:0:
64,192,141084,1,0,0:0:0:0:
320,192,141084,1,0,0:0:0:30:normal-hitclap.wav
448,192,141410,1,0,0:0:0:30:normal-hitclap.wav
320,192,141410,1,0,0:0:0:0:
64,192,141410,1,0,0:0:0:0:
448,192,141655,1,0,0:0:0:30:normal-hitclap.wav
192,192,141736,1,0,0:0:0:30:normal-hitclap.wav
64,192,141736,1,0,0:0:0:0:
448,192,141899,1,0,0:0:0:0:
64,192,142063,1,0,0:0:0:0:
192,192,142063,1,0,0:0:0:30:normal-hitclap.wav
192,192,142389,1,0,0:0:0:30:normal-hitclap.wav
448,192,142389,1,0,0:0:0:0:
448,192,142633,1,0,0:0:0:30:normal-hitclap.wav
192,192,142715,1,0,0:0:0:30:normal-hitclap.wav
64,192,142715,1,0,0:0:0:0:
320,192,142715,1,0,0:0:0:0:
64,192,143041,1,0,0:0:0:30:normal-hitclap.wav
448,192,143041,1,0,0:0:0:0:
320,192,143204,1,0,0:0:0:0:
192,192,143367,1,0,0:0:0:30:normal-hitclap.wav
64,192,143367,1,0,0:0:0:0:
448,192,143448,1,0,0:0:0:30:normal-hitclap.wav
320,192,143693,1,0,0:0:0:0:
192,192,143693,1,0,0:0:0:30:normal-hitclap.wav
448,192,144019,1,0,0:0:0:0:
320,192,144019,1,0,0:0:0:30:normal-hitclap.wav
64,192,144019,1,0,0:0:0:0:
320,192,144264,1,0,0:0:0:30:normal-hitclap.wav
448,192,144345,1,0,0:0:0:30:normal-hitclap.wav
64,192,144345,1,0,0:0:0:0:
192,192,144508,1,0,0:0:0:0:
448,192,144671,1,0,0:0:0:0:
320,192,144671,1,0,0:0:0:30:normal-hitclap.wav
192,192,144753,1,0,0:0:0:30:normal-hitclap.wav
320,192,144997,1,0,0:0:0:30:normal-hitclap.wav
64,192,144997,1,0,0:0:0:0:
448,192,145160,1,0,0:0:0:0:
64,192,145215,1,0,0:0:0:0:
192,192,145269,1,0,0:0:0:0:
320,192,145323,1,0,0:0:0:30:normal-hitclap.wav
448,192,145323,1,0,0:0:0:0:
64,192,145568,1,0,0:0:0:30:normal-hitclap.wav
320,192,145649,1,0,0:0:0:30:normal-hitclap.wav
448,192,145649,1,0,0:0:0:0:
192,192,145813,1,0,0:0:0:0:
320,192,145976,1,0,0:0:0:30:normal-hitclap.wav
64,192,145976,1,0,0:0:0:0:
448,192,146302,1,0,0:0:0:0:
320,192,146302,1,0,0:0:0:30:normal-hitclap.wav
64,192,146465,1,0,0:0:0:0:
320,192,146628,1,0,0:0:0:0:
448,192,146628,1,0,0:0:0:0:
192,192,146954,1,0,0:0:0:0:
320,192,146954,1,0,0:0:0:0:
192,192,147280,1,0,0:0:0:0:
64,192,147280,1,0,0:0:0:0:
320,192,147606,1,0,0:0:0:0:
192,192,147606,1,0,0:0:0:0:
320,192,147932,1,0,0:0:0:0:
448,192,147932,1,0,0:0:0:0:
320,192,148258,1,0,0:0:0:0:
64,192,148258,1,0,0:0:0:0:
448,192,148584,1,0,0:0:0:0:
192,192,148584,1,0,0:0:0:0:
192,192,148910,128,0,149236:0:0:0:0:
320,192,148910,128,0,149236:0:0:0:0:
64,192,149236,1,0,0:0:0:0:
448,192,149236,1,2,0:0:0:0:
320,192,149399,1,0,0:0:0:0:
448,192,149563,1,0,0:0:0:40:normal-hitclap.wav
192,192,149563,1,2,0:0:0:0:
64,192,149563,1,0,0:0:0:0:
320,192,149726,1,0,0:0:0:0:
64,192,149889,1,2,0:0:0:0:
448,192,149889,1,0,0:0:0:0:
192,192,150052,1,0,0:0:0:0:
64,192,150215,1,2,0:0:0:0:
320,192,150215,1,0,0:0:0:0:
448,192,150215,1,0,0:0:0:40:normal-hitclap.wav
192,192,150378,1,0,0:0:0:0:
192,192,150541,1,2,0:0:0:0:
320,192,150541,1,0,0:0:0:0:
448,192,150704,1,0,0:0:0:0:
192,192,150867,1,0,0:0:0:0:
64,192,150867,1,2,0:0:0:0:
320,192,150867,1,0,0:0:0:40:normal-hitclap.wav
448,192,151030,1,0,0:0:0:0:
64,192,151193,1,2,0:0:0:0:
192,192,151193,1,0,0:0:0:0:
192,192,151356,1,0,0:0:0:0:
64,192,151519,1,2,0:0:0:0:
320,192,151519,1,0,0:0:0:0:
448,192,151519,1,0,0:0:0:40:normal-hitclap.wav
192,192,151682,1,0,0:0:0:0:
192,192,151845,1,2,0:0:0:0:
448,192,151845,1,0,0:0:0:0:
320,192,152008,1,0,0:0:0:0:
64,192,152008,1,0,0:0:0:0:
448,192,152171,1,0,0:0:0:40:normal-hitclap.wav
320,192,152171,1,0,0:0:0:0:
192,192,152171,1,2,0:0:0:0:
64,192,152334,1,0,0:0:0:0:
320,192,152497,1,0,0:0:0:0:
192,192,152497,1,2,0:0:0:0:
64,192,152660,1,0,0:0:0:0:
448,192,152660,1,0,0:0:0:0:
192,192,152823,1,2,0:0:0:0:
320,192,152823,1,0,0:0:0:40:normal-hitclap.wav
64,192,152823,1,0,0:0:0:0:
448,192,152986,1,0,0:0:0:0:
320,192,152986,1,0,0:0:0:0:
192,192,153149,1,0,0:0:0:0:
64,192,153149,128,2,153476:0:0:0:0:
448,192,153313,1,0,0:0:0:0:
320,192,153476,1,0,0:0:0:40:normal-hitclap.wav
192,192,153476,128,2,153802:0:0:0:0:
64,192,153639,1,0,0:0:0:0:
448,192,153802,1,0,0:0:0:0:
320,192,153802,128,2,154128:0:0:0:0:
192,192,153965,1,0,0:0:0:0:
64,192,154128,1,0,0:0:0:40:normal-hitclap.wav
448,192,154128,1,2,0:0:0:0:
192,192,154291,1,0,0:0:0:0:
64,192,154454,1,0,0:0:0:0:
320,192,154454,1,2,0:0:0:0:
192,192,154617,1,0,0:0:0:0:
448,192,154617,1,0,0:0:0:0:
64,192,154780,1,0,0:0:0:0:
192,192,154780,1,0,0:0:0:40:normal-hitclap.wav
320,192,154780,1,2,0:0:0:0:
448,192,154943,1,0,0:0:0:0:
448,192,155106,1,0,0:0:0:0:
320,192,155106,1,2,0:0:0:0:
192,192,155269,1,0,0:0:0:0:
64,192,155269,1,0,0:0:0:0:
448,192,155432,1,0,0:0:0:0:
320,192,155432,1,2,0:0:0:0:
192,192,155432,1,0,0:0:0:40:normal-hitclap.wav
64,192,155595,1,0,0:0:0:0:
320,192,155595,1,0,0:0:0:0:
448,192,155758,1,0,0:0:0:0:
192,192,155758,1,2,0:0:0:0:
64,192,155921,1,0,0:0:0:0:
192,192,155921,1,0,0:0:0:0:
448,192,156084,1,0,0:0:0:40:normal-hitclap.wav
320,192,156084,1,2,0:0:0:0:
64,192,156084,1,0,0:0:0:0:
448,192,156247,1,0,0:0:0:0:
192,192,156247,1,0,0:0:0:0:
320,192,156410,1,2,0:0:0:0:
64,192,156410,1,0,0:0:0:0:
448,192,156573,1,0,0:0:0:0:
64,192,156736,1,0,0:0:0:0:
192,192,156736,1,0,0:0:0:40:normal-hitclap.wav
320,192,156736,1,2,0:0:0:0:
448,192,156899,1,0,0:0:0:0:
320,192,157063,1,2,0:0:0:0:
64,192,157063,1,0,0:0:0:0:
192,192,157226,1,0,0:0:0:0:
320,192,157307,1,0,0:0:0:0:
64,192,157389,1,0,0:0:0:40:normal-hitclap.wav
448,192,157389,1,2,0:0:0:0:
64,192,157552,1,0,0:0:0:0:
192,192,157633,1,0,0:0:0:0:
448,192,157715,1,2,0:0:0:0:
320,192,157715,1,0,0:0:0:0:
192,192,157878,1,0,0:0:0:0:
64,192,157959,1,0,0:0:0:0:
320,192,158041,1,0,0:0:0:40:normal-hitclap.wav
448,192,158041,1,2,0:0:0:0:
192,192,158204,1,0,0:0:0:0:
64,192,158285,1,0,0:0:0:0:
448,192,158367,1,0,0:0:0:0:
192,192,158367,1,2,0:0:0:0:
64,192,158530,1,0,0:0:0:0:
448,192,158693,1,2,0:0:0:0:
320,192,158693,1,0,0:0:0:40:normal-hitclap.wav
64,192,158856,1,0,0:0:0:0:
64,192,159019,1,0,0:0:0:0:
192,192,159019,1,2,0:0:0:0:
320,192,159101,1,2,0:0:0:0:
448,192,159182,1,2,0:0:0:0:
64,192,159264,1,2,0:0:0:0:
320,192,159508,1,0,0:0:0:0:
192,192,159590,1,0,0:0:0:0:
448,192,159671,1,0,0:0:0:0:
64,192,159671,1,2,0:0:0:0:
192,192,159834,1,0,0:0:0:0:
320,192,159834,1,0,0:0:0:0:
448,192,159997,1,4,0:0:0:0:
64,192,159997,1,0,0:0:0:40:normal-hitclap.wav
192,192,159997,1,2,0:0:0:0:
320,192,160160,1,0,0:0:0:0:
64,192,160323,1,0,0:0:0:0:
192,192,160323,1,2,0:0:0:0:
320,192,160486,1,0,0:0:0:0:
448,192,160486,1,0,0:0:0:0:
64,192,160649,1,0,0:0:0:40:normal-hitclap.wav
192,192,160649,1,2,0:0:0:0:
320,192,160649,1,0,0:0:0:0:
192,192,160813,1,0,0:0:0:0:
448,192,160813,1,0,0:0:0:0:
64,192,160976,1,2,0:0:0:0:
320,192,160976,1,0,0:0:0:0:
192,192,161139,1,0,0:0:0:0:
64,192,161139,1,0,0:0:0:0:
192,192,161302,1,0,0:0:0:40:normal-hitclap.wav
320,192,161302,1,2,0:0:0:0:
448,192,161302,1,0,0:0:0:0:
320,192,161465,1,0,0:0:0:0:
64,192,161465,1,0,0:0:0:0:
448,192,161628,1,0,0:0:0:0:
192,192,161628,1,2,0:0:0:0:
320,192,161791,1,0,0:0:0:0:
448,192,161954,1,0,0:0:0:0:
192,192,161954,1,0,0:0:0:40:normal-hitclap.wav
64,192,161954,1,2,0:0:0:0:
320,192,162117,1,0,0:0:0:0:
448,192,162280,1,0,0:0:0:0:
192,192,162280,1,2,0:0:0:0:
320,192,162443,1,0,0:0:0:0:
64,192,162443,1,0,0:0:0:0:
448,192,162606,1,0,0:0:0:0:
320,192,162606,1,2,0:0:0:0:
192,192,162606,1,0,0:0:0:40:normal-hitclap.wav
64,192,162769,1,0,0:0:0:0:
448,192,162932,1,0,0:0:0:0:
320,192,162932,1,2,0:0:0:0:
192,192,163095,1,0,0:0:0:0:
64,192,163095,1,0,0:0:0:0:
448,192,163258,1,0,0:0:0:0:
320,192,163258,1,2,0:0:0:0:
192,192,163258,1,0,0:0:0:40:normal-hitclap.wav
64,192,163421,1,0,0:0:0:0:
320,192,163584,1,0,0:0:0:0:
448,192,163584,128,2,163910:0:0:0:0:
64,192,163747,1,0,0:0:0:0:
192,192,163910,1,0,0:0:0:40:normal-hitclap.wav
320,192,163910,128,2,164236:0:0:0:0:
448,192,164073,1,0,0:0:0:0:
64,192,164236,1,0,0:0:0:0:
192,192,164236,128,2,164563:0:0:0:0:
320,192,164399,1,0,0:0:0:0:
320,192,164563,1,2,0:0:0:0:
64,192,164563,1,0,0:0:0:50:soft-hitfinish.wav
448,192,164563,1,0,0:0:0:40:normal-hitclap.wav
64,192,164889,1,2,0:0:0:0:
192,192,164889,1,0,0:0:0:0:
320,192,165052,1,0,0:0:0:0:
64,192,165052,1,0,0:0:0:0:
192,192,165215,1,0,0:0:0:40:normal-hitclap.wav
320,192,165215,1,2,0:0:0:0:
448,192,165215,1,0,0:0:0:0:
64,192,165378,1,0,0:0:0:0:
448,192,165541,1,0,0:0:0:0:
192,192,165541,1,2,0:0:0:0:
320,192,165704,1,0,0:0:0:0:
448,192,165867,1,0,0:0:0:0:
64,192,165867,1,2,0:0:0:0:
192,192,165867,1,0,0:0:0:40:normal-hitclap.wav
192,192,166030,1,0,0:0:0:0:
320,192,166030,1,0,0:0:0:0:
64,192,166193,1,2,0:0:0:0:
448,192,166193,1,0,0:0:0:0:
320,192,166356,1,0,0:0:0:0:
192,192,166356,1,0,0:0:0:0:
320,192,166519,1,0,0:0:0:40:normal-hitclap.wav
64,192,166519,1,2,0:0:0:0:
448,192,166519,1,0,0:0:0:0:
448,192,166682,1,0,0:0:0:0:
192,192,166682,1,0,0:0:0:0:
64,192,166845,1,2,0:0:0:0:
320,192,166845,1,0,0:0:0:0:
320,192,167008,1,0,0:0:0:0:
64,192,167171,1,2,0:0:0:0:
448,192,167171,1,0,0:0:0:0:
192,192,167171,1,0,0:0:0:40:normal-hitclap.wav
320,192,167334,1,0,0:0:0:0:
192,192,167497,1,2,0:0:0:0:
64,192,167497,1,8,0:0:0:0:
320,192,167660,1,0,0:0:0:0:
448,192,167823,1,0,0:0:0:0:
192,192,167986,1,0,0:0:0:0:
320,192,167986,1,0,0:0:0:0:
64,192,168149,1,0,0:0:0:0:
64,192,168313,1,0,0:0:0:0:
320,192,168476,1,0,0:0:0:0:
192,192,168476,1,0,0:0:0:0:
448,192,168639,1,0,0:0:0:0:
192,192,168802,1,0,0:0:0:0:
320,192,168965,5,0,0:0:0:0:
64,192,168965,1,0,0:0:0:0:
448,192,169128,1,0,0:0:0:0:
64,192,169372,1,0,0:0:0:0:
192,192,169454,1,0,0:0:0:0:
320,192,169617,1,0,0:0:0:0:
64,192,169780,1,0,0:0:0:0:
448,192,169780,1,0,0:0:0:0:
320,192,170106,1,0,0:0:0:0:
192,192,170106,1,8,0:0:0:0:
64,192,170269,1,0,0:0:0:0:
64,192,170432,1,0,0:0:0:0:
320,192,170758,1,0,0:0:0:0:
64,192,170921,1,0,0:0:0:0:
192,192,171084,1,0,0:0:0:0:
320,192,171247,1,0,0:0:0:0:
448,192,171410,1,0,0:0:0:0:
320,192,171573,1,0,0:0:0:0:
192,192,171736,1,0,0:0:0:0:
64,192,171899,1,0,0:0:0:0:
192,192,172389,1,0,0:0:0:0:
64,192,172715,1,0,0:0:0:0:
320,192,172715,1,0,0:0:0:0:
192,192,172878,1,0,0:0:0:0:
192,192,173041,1,0,0:0:0:0:
320,192,173367,1,0,0:0:0:0:
192,192,173530,1,0,0:0:0:0:
192,192,173693,1,0,0:0:0:0:
192,192,174019,1,0,0:0:0:0:
320,192,174345,1,0,0:0:0:0:
448,192,174671,1,0,0:0:0:0:
192,192,175323,1,0,0:0:0:0:
64,192,175323,1,0,0:0:0:0:
320,192,175486,1,0,0:0:0:0:
320,192,175649,1,0,0:0:0:0:
448,192,175976,1,0,0:0:0:0:
64,192,176139,1,0,0:0:0:0:
192,192,176302,1,0,0:0:0:0:
320,192,176465,1,0,0:0:0:0:
448,192,176628,1,0,0:0:0:0:
320,192,176791,1,0,0:0:0:0:
192,192,176954,1,0,0:0:0:0:
64,192,177117,1,0,0:0:0:0:
320,192,177606,1,0,0:0:0:0:
192,192,177932,1,0,0:0:0:0:
320,192,177932,1,0,0:0:0:0:
64,192,178095,1,0,0:0:0:0:
64,192,178258,1,0,0:0:0:0:
192,192,178584,1,0,0:0:0:0:
64,192,178747,1,0,0:0:0:0:
64,192,178910,1,0,0:0:0:0:
192,192,179236,1,0,0:0:0:0:
320,192,179563,1,0,0:0:0:0:
448,192,179889,1,0,0:0:0:0:
192,192,180215,1,4,0:0:0:0:
64,192,180215,1,0,0:0:0:0:
448,192,180541,128,0,181193:0:0:0:0:
320,192,180541,1,0,0:0:0:0:
192,192,180867,1,0,0:0:0:0:
192,192,181193,1,0,0:0:0:0:
64,192,181356,1,2,0:0:0:0:
192,192,181519,1,0,0:0:0:0:
320,192,181682,1,0,0:0:0:40:normal-hitclap.wav
448,192,181682,1,0,0:0:0:0:
64,192,181845,1,2,0:0:0:0:
320,192,182008,1,2,0:0:0:0:
192,192,182171,1,0,0:0:0:40:normal-hitclap.wav
64,192,182171,1,0,0:0:0:0:
192,192,182497,1,2,0:0:0:0:
192,192,182660,1,2,0:0:0:0:
320,192,182823,1,0,0:0:0:0:
448,192,182823,1,0,0:0:0:40:normal-hitclap.wav
64,192,183149,1,0,0:0:0:0:
192,192,183149,1,2,0:0:0:0:
320,192,183476,1,0,0:0:0:0:
448,192,183476,1,0,0:0:0:40:normal-hitclap.wav
64,192,183802,1,2,0:0:0:0:
64,192,183965,1,2,0:0:0:0:
192,192,184291,1,0,0:0:0:0:
448,192,184291,1,0,0:0:0:40:normal-hitclap.wav
64,192,184617,1,2,0:0:0:0:
192,192,184780,1,0,0:0:0:0:
320,192,184780,1,0,0:0:0:40:normal-hitclap.wav
448,192,185106,1,2,0:0:0:0:
448,192,185269,1,2,0:0:0:0:
320,192,185432,1,0,0:0:0:40:normal-hitclap.wav
192,192,185432,1,0,0:0:0:0:
64,192,185758,1,0,0:0:0:0:
192,192,185758,1,2,0:0:0:0:
320,192,186084,1,0,0:0:0:40:normal-hitclap.wav
448,192,186084,1,0,0:0:0:0:
192,192,186410,1,2,0:0:0:0:
192,192,186573,1,2,0:0:0:0:
64,192,186899,1,0,0:0:0:0:
320,192,186899,1,0,0:0:0:40:normal-hitclap.wav
448,192,187226,1,2,0:0:0:0:
192,192,187389,1,0,0:0:0:0:
320,192,187389,1,0,0:0:0:40:normal-hitclap.wav
64,192,187633,1,0,0:0:0:0:
192,192,187633,1,2,0:0:0:0:
320,192,187715,1,2,0:0:0:0:
448,192,187715,1,0,0:0:0:0:
192,192,187878,1,0,0:0:0:0:
320,192,188041,1,0,0:0:0:40:normal-hitclap.wav
448,192,188041,1,0,0:0:0:0:
64,192,188367,1,0,0:0:0:0:
192,192,188367,1,0,0:0:0:30:normal-hitclap.wav
448,192,188530,1,0,0:0:0:0:
320,192,188611,1,0,0:0:0:0:
192,192,188693,1,0,0:0:0:30:normal-hitclap.wav
64,192,188693,1,0,0:0:0:0:
448,192,188856,1,0,0:0:0:0:
64,192,188938,1,0,0:0:0:0:
192,192,189019,1,0,0:0:0:30:normal-hitclap.wav
320,192,189019,1,0,0:0:0:0:
448,192,189182,1,0,0:0:0:0:
64,192,189264,1,0,0:0:0:0:
320,192,189345,1,0,0:0:0:30:normal-hitclap.wav
448,192,189345,1,0,0:0:0:0:
64,192,189508,1,0,0:0:0:0:
192,192,189590,1,0,0:0:0:0:
320,192,189671,1,0,0:0:0:30:normal-hitclap.wav
448,192,189671,1,0,0:0:0:0:
448,192,189834,1,0,0:0:0:0:
320,192,189916,1,0,0:0:0:0:
192,192,189997,1,0,0:0:0:30:normal-hitclap.wav
64,192,189997,1,0,0:0:0:0:
448,192,190160,1,0,0:0:0:0:
320,192,190242,1,0,0:0:0:0:
192,192,190323,1,0,0:0:0:30:normal-hitclap.wav
64,192,190323,1,0,0:0:0:0:
64,192,190486,1,0,0:0:0:0:
192,192,190568,1,0,0:0:0:0:
320,192,190649,1,0,0:0:0:30:normal-hitclap.wav
448,192,190649,1,0,0:0:0:0:
64,192,190813,1,0,0:0:0:0:
448,192,190894,1,0,0:0:0:0:
192,192,190976,1,0,0:0:0:30:normal-hitclap.wav
320,192,190976,1,0,0:0:0:0:
448,192,191139,1,0,0:0:0:0:
64,192,191220,1,0,0:0:0:0:
320,192,191302,1,0,0:0:0:30:normal-hitclap.wav
192,192,191302,1,0,0:0:0:0:
64,192,191465,1,0,0:0:0:0:
320,192,191546,1,0,0:0:0:0:
192,192,191628,1,0,0:0:0:30:normal-hitclap.wav
64,192,191628,1,0,0:0:0:0:
448,192,191791,1,0,0:0:0:0:
192,192,191872,1,0,0:0:0:0:
448,192,191954,1,0,0:0:0:30:normal-hitclap.wav
320,192,191954,1,0,0:0:0:0:
64,192,192117,1,0,0:0:0:0:
320,192,192198,1,0,0:0:0:0:
192,192,192280,1,0,0:0:0:30:normal-hitclap.wav
448,192,192280,1,0,0:0:0:0:
448,192,192443,1,0,0:0:0:0:
192,192,192524,1,0,0:0:0:0:
64,192,192606,1,0,0:0:0:0:
320,192,192606,1,0,0:0:0:30:normal-hitclap.wav
64,192,192769,1,0,0:0:0:0:
192,192,192851,1,0,0:0:0:0:
320,192,192932,1,0,0:0:0:30:normal-hitclap.wav
448,192,192932,1,0,0:0:0:0:
320,192,193095,1,0,0:0:0:0:
448,192,193177,1,0,0:0:0:0:
64,192,193258,1,0,0:0:0:0:
192,192,193258,1,0,0:0:0:30:normal-hitclap.wav
192,192,193421,1,0,0:0:0:0:
64,192,193503,1,0,0:0:0:0:
320,192,193584,1,0,0:0:0:30:normal-hitclap.wav
448,192,193584,1,0,0:0:0:0:
64,192,193747,1,0,0:0:0:0:
320,192,193910,1,0,0:0:0:30:normal-hitclap.wav
448,192,193910,1,0,0:0:0:0:
64,192,194073,1,0,0:0:0:0:
192,192,194236,1,0,0:0:0:0:
320,192,194236,1,0,0:0:0:30:normal-hitclap.wav
448,192,194399,1,0,0:0:0:0:
192,192,194563,1,0,0:0:0:30:normal-hitclap.wav
64,192,194563,1,0,0:0:0:0:
448,192,194726,1,0,0:0:0:0:
320,192,194889,1,0,0:0:0:30:normal-hitclap.wav
192,192,194889,1,0,0:0:0:0:
64,192,195052,1,0,0:0:0:0:
320,192,195215,1,0,0:0:0:30:normal-hitclap.wav
448,192,195215,1,0,0:0:0:0:
64,192,195378,1,0,0:0:0:0:
192,192,195541,1,0,0:0:0:0:
320,192,195541,1,0,0:0:0:30:normal-hitclap.wav
448,192,195704,1,0,0:0:0:0:
320,192,195867,1,0,0:0:0:30:normal-hitclap.wav
64,192,195867,1,0,0:0:0:0:
192,192,196030,1,0,0:0:0:0:
320,192,196193,1,0,0:0:0:30:normal-hitclap.wav
448,192,196193,1,0,0:0:0:0:
192,192,196274,1,0,0:0:0:0:
64,192,196356,1,0,0:0:0:0:
448,192,196438,1,0,0:0:0:0:
320,192,196519,1,0,0:0:0:30:normal-hitclap.wav
64,192,196519,1,0,0:0:0:0:
192,192,196601,1,0,0:0:0:0:
320,192,196682,1,0,0:0:0:0:
448,192,196764,1,0,0:0:0:0:
192,192,196845,1,0,0:0:0:30:normal-hitclap.wav
64,192,196845,1,0,0:0:0:0:
320,192,196927,1,0,0:0:0:0:
448,192,197008,1,0,0:0:0:0:
192,192,197090,1,0,0:0:0:0:
320,192,197171,1,0,0:0:0:30:normal-hitclap.wav
64,192,197171,1,0,0:0:0:0:
448,192,197253,1,0,0:0:0:0:
192,192,197334,1,0,0:0:0:0:
320,192,197416,1,0,0:0:0:0:
64,192,197497,1,0,0:0:0:0:
192,192,197552,1,0,0:0:0:0:
448,192,197606,1,0,0:0:0:0:
320,192,197660,1,0,0:0:0:0:
192,192,197715,1,0,0:0:0:0:
64,192,197769,1,0,0:0:0:0:
448,192,197823,1,0,0:0:0:0:
320,192,197878,1,0,0:0:0:0:
64,192,197932,1,0,0:0:0:0:
192,192,197986,1,0,0:0:0:0:
320,192,198041,1,0,0:0:0:0:
448,192,198095,1,0,0:0:0:0:
64,192,198149,1,0,0:0:0:0:
192,192,198204,1,0,0:0:0:0:
448,192,198258,1,0,0:0:0:0:
320,192,198313,1,0,0:0:0:0:
192,192,198367,1,0,0:0:0:0:
64,192,198421,1,0,0:0:0:0:
320,192,198476,128,0,198802:0:0:0:0:
448,192,198476,128,0,198802:0:0:0:0:
64,192,198802,1,2,0:0:0:0:
192,192,198802,1,0,0:0:0:0:
192,192,198965,1,0,0:0:0:0:
320,192,199128,1,2,0:0:0:0:
64,192,199128,1,0,0:0:0:40:normal-hitclap.wav
448,192,199128,1,0,0:0:0:0:
192,192,199291,1,0,0:0:0:0:
64,192,199454,1,0,0:0:0:0:
448,192,199454,1,2,0:0:0:0:
320,192,199617,1,0,0:0:0:0:
64,192,199780,1,0,0:0:0:40:normal-hitclap.wav
192,192,199780,1,0,0:0:0:0:
448,192,199780,1,2,0:0:0:0:
320,192,199943,1,0,0:0:0:0:
192,192,200106,1,0,0:0:0:0:
320,192,200106,1,2,0:0:0:0:
64,192,200269,1,0,0:0:0:0:
192,192,200432,1,0,0:0:0:40:normal-hitclap.wav
448,192,200432,1,2,0:0:0:0:
320,192,200432,1,0,0:0:0:0:
64,192,200595,1,0,0:0:0:0:
320,192,200758,1,0,0:0:0:0:
448,192,200758,1,2,0:0:0:0:
192,192,200921,1,0,0:0:0:0:
64,192,201084,1,0,0:0:0:40:normal-hitclap.wav
192,192,201084,1,0,0:0:0:0:
448,192,201084,1,2,0:0:0:0:
320,192,201247,1,0,0:0:0:0:
64,192,201410,1,0,0:0:0:0:
320,192,201410,1,2,0:0:0:0:
448,192,201573,1,0,0:0:0:0:
192,192,201573,1,0,0:0:0:0:
320,192,201736,1,2,0:0:0:0:
192,192,201736,1,0,0:0:0:0:
64,192,201736,1,0,0:0:0:40:normal-hitclap.wav
448,192,201899,1,0,0:0:0:0:
320,192,202063,1,2,0:0:0:0:
192,192,202063,1,0,0:0:0:0:
64,192,202226,1,0,0:0:0:0:
448,192,202226,1,0,0:0:0:0:
448,192,202389,1,0,0:0:0:0:
192,192,202389,1,0,0:0:0:40:normal-hitclap.wav
320,192,202389,1,2,0:0:0:0:
64,192,202552,1,0,0:0:0:0:
192,192,202552,1,0,0:0:0:0:
448,192,202715,128,2,203041:0:0:0:0:
320,192,202715,1,0,0:0:0:0:
64,192,202878,1,0,0:0:0:0:
320,192,203041,128,2,203367:0:0:0:0:
192,192,203041,1,0,0:0:0:40:normal-hitclap.wav
448,192,203204,1,0,0:0:0:0:
192,192,203367,128,2,203693:0:0:0:0:
64,192,203367,1,0,0:0:0:0:
320,192,203530,1,0,0:0:0:0:
64,192,203693,1,2,0:0:0:0:
448,192,203693,1,0,0:0:0:40:normal-hitclap.wav
320,192,203856,1,0,0:0:0:0:
192,192,204019,1,2,0:0:0:0:
448,192,204019,1,0,0:0:0:0:
64,192,204182,1,0,0:0:0:0:
320,192,204182,1,0,0:0:0:0:
192,192,204345,1,2,0:0:0:0:
320,192,204345,1,0,0:0:0:40:normal-hitclap.wav
448,192,204345,1,0,0:0:0:0:
64,192,204508,1,0,0:0:0:0:
192,192,204671,1,2,0:0:0:0:
64,192,204671,1,0,0:0:0:0:
448,192,204834,1,0,0:0:0:0:
320,192,204834,1,0,0:0:0:0:
320,192,204997,1,0,0:0:0:40:normal-hitclap.wav
192,192,204997,1,2,0:0:0:0:
64,192,204997,1,0,0:0:0:0:
192,192,205160,1,0,0:0:0:0:
448,192,205160,1,0,0:0:0:0:
320,192,205323,1,2,0:0:0:0:
64,192,205323,1,0,0:0:0:0:
320,192,205486,1,0,0:0:0:0:
448,192,205486,1,0,0:0:0:0:
448,192,205649,1,0,0:0:0:0:
192,192,205649,1,2,0:0:0:0:
64,192,205649,1,0,0:0:0:40:normal-hitclap.wav
320,192,205813,1,0,0:0:0:0:
64,192,205813,1,0,0:0:0:0:
448,192,205976,1,0,0:0:0:0:
192,192,205976,1,2,0:0:0:0:
64,192,206139,1,0,0:0:0:0:
192,192,206302,1,2,0:0:0:0:
320,192,206302,1,0,0:0:0:40:normal-hitclap.wav
448,192,206302,1,0,0:0:0:0:
64,192,206465,1,0,0:0:0:0:
448,192,206628,1,0,0:0:0:0:
192,192,206628,1,2,0:0:0:0:
320,192,206791,1,0,0:0:0:0:
192,192,206872,1,0,0:0:0:0:
64,192,206954,1,2,0:0:0:0:
448,192,206954,1,0,0:0:0:40:normal-hitclap.wav
448,192,207117,1,0,0:0:0:0:
320,192,207198,1,0,0:0:0:0:
192,192,207280,1,0,0:0:0:0:
64,192,207280,1,2,0:0:0:0:
320,192,207443,1,0,0:0:0:0:
448,192,207524,1,0,0:0:0:0:
64,192,207606,1,2,0:0:0:0:
192,192,207606,1,0,0:0:0:40:normal-hitclap.wav
320,192,207769,1,0,0:0:0:0:
448,192,207851,1,0,0:0:0:0:
320,192,207932,1,2,0:0:0:0:
64,192,207932,1,0,0:0:0:0:
448,192,208095,1,0,0:0:0:0:
320,192,208258,1,0,0:0:0:40:normal-hitclap.wav
192,192,208258,1,2,0:0:0:0:
448,192,208421,1,0,0:0:0:0:
64,192,208584,1,2,0:0:0:0:
192,192,208584,1,0,0:0:0:0:
320,192,208666,1,2,0:0:0:0:
448,192,208666,1,0,0:0:0:0:
192,192,208747,1,2,0:0:0:0:
64,192,208747,1,0,0:0:0:0:
320,192,208829,1,2,0:0:0:0:
448,192,208829,1,0,0:0:0:0:
64,192,208910,128,0,209155:0:0:0:0:
192,192,209073,1,0,0:0:0:0:
320,192,209155,1,0,0:0:0:0:
448,192,209236,1,2,0:0:0:0:
64,192,209236,1,0,0:0:0:0:
192,192,209399,1,0,0:0:0:0:
320,192,209399,1,0,0:0:0:0:
320,192,209563,1,2,0:0:0:0:
448,192,209563,1,0,0:0:0:40:normal-hitclap.wav
64,192,209563,1,4,0:0:0:0:
192,192,209726,1,0,0:0:0:0:
320,192,209889,1,2,0:0:0:0:
448,192,209889,1,0,0:0:0:0:
64,192,210052,1,0,0:0:0:0:
192,192,210052,1,0,0:0:0:0:
192,192,210215,1,0,0:0:0:0:
320,192,210215,1,2,0:0:0:0:
448,192,210215,1,0,0:0:0:40:normal-hitclap.wav
64,192,210378,1,0,0:0:0:0:
320,192,210378,1,0,0:0:0:0:
192,192,210541,1,0,0:0:0:0:
448,192,210541,1,2,0:0:0:0:
448,192,210704,1,0,0:0:0:0:
320,192,210704,1,0,0:0:0:0:
64,192,210867,1,0,0:0:0:0:
192,192,210867,1,2,0:0:0:0:
320,192,210867,1,0,0:0:0:40:normal-hitclap.wav
448,192,211030,1,0,0:0:0:0:
192,192,211030,1,0,0:0:0:0:
320,192,211193,1,2,0:0:0:0:
64,192,211193,1,0,0:0:0:0:
192,192,211356,1,0,0:0:0:0:
448,192,211519,1,2,0:0:0:0:
320,192,211519,1,0,0:0:0:40:normal-hitclap.wav
64,192,211519,1,0,0:0:0:0:
192,192,211682,1,0,0:0:0:0:
320,192,211845,1,2,0:0:0:0:
64,192,211845,1,0,0:0:0:0:
448,192,212008,1,0,0:0:0:0:
192,192,212008,1,0,0:0:0:0:
320,192,212171,1,0,0:0:0:40:normal-hitclap.wav
192,192,212171,1,2,0:0:0:0:
64,192,212171,1,0,0:0:0:0:
448,192,212334,1,0,0:0:0:0:
320,192,212497,1,2,0:0:0:0:
64,192,212497,1,0,0:0:0:0:
448,192,212660,1,0,0:0:0:0:
192,192,212660,1,0,0:0:0:0:
320,192,212823,1,0,0:0:0:40:normal-hitclap.wav
192,192,212823,1,2,0:0:0:0:
64,192,212823,1,0,0:0:0:0:
448,192,212986,1,0,0:0:0:0:
320,192,212986,1,0,0:0:0:0:
64,192,213149,128,2,213476:0:0:0:0:
192,192,213149,1,0,0:0:0:0:
448,192,213313,1,0,0:0:0:0:
192,192,213476,128,2,213802:0:0:0:0:
320,192,213476,1,0,0:0:0:40:normal-hitclap.wav
64,192,213639,1,0,0:0:0:0:
320,192,213802,128,2,214128:0:0:0:0:
448,192,213802,1,0,0:0:0:0:
192,192,213965,1,0,0:0:0:0:
448,192,214128,1,0,0:0:0:50:soft-hitfinish.wav
192,192,214128,1,2,0:0:0:0:
64,192,214128,1,0,0:0:0:40:normal-hitclap.wav
320,192,214454,1,0,0:0:0:0:
448,192,214454,1,2,0:0:0:0:
448,192,214617,1,0,0:0:0:0:
192,192,214617,1,0,0:0:0:0:
64,192,214780,1,0,0:0:0:0:
192,192,214780,1,2,0:0:0:0:
320,192,214780,1,0,0:0:0:40:normal-hitclap.wav
448,192,214943,1,0,0:0:0:0:
320,192,215106,1,2,0:0:0:0:
64,192,215106,1,0,0:0:0:0:
192,192,215269,1,0,0:0:0:0:
320,192,215432,1,0,0:0:0:40:normal-hitclap.wav
448,192,215432,1,2,0:0:0:0:
64,192,215432,1,0,0:0:0:0:
192,192,215595,1,0,0:0:0:0:
320,192,215595,1,0,0:0:0:0:
64,192,215758,1,0,0:0:0:0:
448,192,215758,1,2,0:0:0:0:
320,192,215921,1,0,0:0:0:0:
192,192,215921,1,0,0:0:0:0:
64,192,216084,1,0,0:0:0:0:
448,192,216084,1,2,0:0:0:0:
192,192,216084,1,0,0:0:0:40:normal-hitclap.wav
320,192,216247,1,0,0:0:0:0:
64,192,216247,1,0,0:0:0:0:
192,192,216410,1,0,0:0:0:0:
448,192,216410,1,2,0:0:0:0:
320,192,216573,1,0,0:0:0:0:
320,192,216736,1,0,0:0:0:40:normal-hitclap.wav
64,192,216736,1,0,0:0:0:0:
448,192,216736,1,2,0:0:0:0:
192,192,216899,1,0,0:0:0:0:
320,192,217063,1,0,0:0:0:0:
448,192,217063,128,0,217552:0:0:0:0:
64,192,217552,128,0,218367:0:0:0:0:
192,192,217552,1,0,0:0:0:0:
320,192,218041,1,0,0:0:0:0:
448,192,218041,1,0,0:0:0:0:
320,192,218367,1,0,0:0:0:0:
192,192,218530,128,0,218856:0:0:0:0:
448,192,218530,1,0,0:0:0:0:
320,192,218938,1,0,0:0:0:0:
448,192,219019,1,0,0:0:0:0:
64,192,219182,1,0,0:0:0:0:
320,192,219345,1,0,0:0:0:0:
192,192,219508,1,0,0:0:0:0:
64,192,219671,1,0,0:0:0:0:
320,192,219671,1,4,0:0:0:0:
448,192,219671,1,0,0:0:0:0:
192,192,219834,1,0,0:0:0:0:
64,192,219997,1,2,0:0:0:0:
320,192,219997,1,0,0:0:0:0:
192,192,220160,1,0,0:0:0:0:
320,192,220323,1,2,0:0:0:0:
448,192,220323,1,0,0:0:0:0:
64,192,220486,1,0,0:0:0:0:
192,192,220649,1,2,0:0:0:0:
320,192,220649,1,0,0:0:0:30:normal-hitclap.wav
448,192,220813,1,0,0:0:0:0:
64,192,220976,1,2,0:0:0:0:
320,192,220976,1,0,0:0:0:0:
192,192,221139,1,0,0:0:0:0:
320,192,221302,1,2,0:0:0:0:
448,192,221302,1,0,0:0:0:30:normal-hitclap.wav
64,192,221465,128,0,221628:0:0:0:0:
320,192,221628,1,2,0:0:0:0:
448,192,221628,1,0,0:0:0:0:
192,192,221791,1,0,0:0:0:0:
64,192,221791,1,0,0:0:0:0:
192,192,221954,1,2,0:0:0:0:
448,192,221954,1,0,0:0:0:30:normal-hitclap.wav
320,192,222117,1,0,0:0:0:0:
64,192,222117,1,0,0:0:0:0:
192,192,222280,1,2,0:0:0:0:
320,192,222280,1,0,0:0:0:0:
448,192,222443,1,0,0:0:0:0:
64,192,222606,1,2,0:0:0:0:
320,192,222606,1,0,0:0:0:30:normal-hitclap.wav
192,192,222769,1,0,0:0:0:0:
320,192,222932,1,2,0:0:0:0:
448,192,222932,1,0,0:0:0:0:
64,192,223095,1,0,0:0:0:0:
192,192,223258,1,2,0:0:0:0:
320,192,223258,1,0,0:0:0:30:normal-hitclap.wav
448,192,223421,1,0,0:0:0:0:
64,192,223584,1,2,0:0:0:0:
320,192,223584,1,0,0:0:0:0:
192,192,223747,1,0,0:0:0:0:
320,192,223910,1,2,0:0:0:0:
448,192,223910,1,0,0:0:0:30:normal-hitclap.wav
64,192,224073,128,0,224236:0:0:0:0:
192,192,224236,1,2,0:0:0:0:
320,192,224236,1,0,0:0:0:0:
448,192,224399,1,0,0:0:0:0:
192,192,224399,1,0,0:0:0:0:
64,192,224563,1,2,0:0:0:0:
320,192,224563,1,0,0:0:0:30:normal-hitclap.wav
192,192,224726,1,0,0:0:0:0:
64,192,224726,1,0,0:0:0:0:
320,192,224889,1,2,0:0:0:0:
448,192,224889,1,0,0:0:0:0:
192,192,225052,1,0,0:0:0:0:
64,192,225215,1,2,0:0:0:0:
448,192,225215,1,0,0:0:0:30:normal-hitclap.wav
320,192,225378,1,0,0:0:0:0:
64,192,225541,1,2,0:0:0:0:
192,192,225541,1,0,0:0:0:0:
448,192,225704,1,0,0:0:0:0:
192,192,225867,1,2,0:0:0:0:
320,192,225867,1,0,0:0:0:30:normal-hitclap.wav
64,192,226030,1,0,0:0:0:0:
192,192,226193,1,2,0:0:0:0:
448,192,226193,1,0,0:0:0:0:
320,192,226356,1,0,0:0:0:0:
64,192,226519,1,2,0:0:0:0:
192,192,226519,1,0,0:0:0:30:normal-hitclap.wav
448,192,226682,128,0,226845:0:0:0:0:
192,192,226845,1,0,0:0:0:0:
64,192,226845,1,2,0:0:0:0:
320,192,227008,1,0,0:0:0:0:
64,192,227008,1,0,0:0:0:0:
192,192,227171,1,2,0:0:0:0:
448,192,227171,1,0,0:0:0:30:normal-hitclap.wav
64,192,227334,1,0,0:0:0:0:
192,192,227334,1,0,0:0:0:0:
320,192,227497,1,2,0:0:0:0:
448,192,227497,1,0,0:0:0:0:
64,192,227660,1,0,0:0:0:0:
192,192,227742,1,0,0:0:0:0:
320,192,227823,1,2,0:0:0:0:
448,192,227823,1,0,0:0:0:30:normal-hitclap.wav
64,192,227986,1,0,0:0:0:0:
192,192,228149,1,2,0:0:0:0:
320,192,228149,1,0,0:0:0:0:
448,192,228313,1,0,0:0:0:0:
320,192,228394,1,0,0:0:0:0:
192,192,228476,1,0,0:0:0:30:normal-hitclap.wav
64,192,228476,1,2,0:0:0:0:
320,192,228639,1,0,0:0:0:0:
448,192,228720,1,0,0:0:0:0:
192,192,228802,1,0,0:0:0:0:
64,192,228802,1,2,0:0:0:0:
320,192,228965,1,0,0:0:0:0:
192,192,229128,1,2,0:0:0:0:
448,192,229128,1,0,0:0:0:30:normal-hitclap.wav
320,192,229291,1,0,0:0:0:0:
64,192,229454,1,2,0:0:0:0:
192,192,229454,1,0,0:0:0:0:
320,192,229535,1,0,0:0:0:0:
448,192,229617,1,0,0:0:0:0:
64,192,229698,1,0,0:0:0:0:
192,192,229780,1,0,0:0:0:0:
448,192,229943,1,0,0:0:0:0:
320,192,230024,1,0,0:0:0:0:
64,192,230106,1,2,0:0:0:0:
192,192,230106,1,0,0:0:0:0:
320,192,230269,1,0,0:0:0:0:
64,192,230432,1,2,0:0:0:0:
448,192,230432,1,0,0:0:0:30:normal-hitclap.wav
192,192,230595,1,0,0:0:0:0:
320,192,230758,1,2,0:0:0:0:
448,192,230758,1,0,0:0:0:0:
64,192,230921,1,0,0:0:0:0:
192,192,231084,1,2,0:0:0:0:
320,192,231084,1,0,0:0:0:30:normal-hitclap.wav
448,192,231247,1,0,0:0:0:0:
64,192,231410,1,2,0:0:0:0:
320,192,231410,1,0,0:0:0:0:
192,192,231573,1,0,0:0:0:0:
320,192,231736,1,2,0:0:0:0:
448,192,231736,1,0,0:0:0:30:normal-hitclap.wav
64,192,231899,128,0,232063:0:0:0:0:
320,192,232063,1,2,0:0:0:0:
448,192,232063,1,0,0:0:0:0:
192,192,232226,1,0,0:0:0:0:
64,192,232226,1,0,0:0:0:0:
192,192,232389,1,2,0:0:0:0:
448,192,232389,1,0,0:0:0:30:normal-hitclap.wav
320,192,232552,1,0,0:0:0:0:
64,192,232552,1,0,0:0:0:0:
192,192,232715,1,2,0:0:0:0:
320,192,232715,1,0,0:0:0:0:
448,192,232878,1,0,0:0:0:0:
64,192,233041,1,2,0:0:0:0:
320,192,233041,1,0,0:0:0:30:normal-hitclap.wav
192,192,233204,1,0,0:0:0:0:
320,192,233367,1,2,0:0:0:0:
448,192,233367,1,0,0:0:0:0:
64,192,233530,1,0,0:0:0:0:
192,192,233693,1,2,0:0:0:0:
320,192,233693,1,0,0:0:0:30:normal-hitclap.wav
448,192,233856,1,0,0:0:0:0:
64,192,234019,1,2,0:0:0:0:
320,192,234019,1,0,0:0:0:0:
192,192,234182,1,0,0:0:0:0:
320,192,234345,1,2,0:0:0:0:
448,192,234345,1,0,0:0:0:30:normal-hitclap.wav
64,192,234508,128,0,234671:0:0:0:0:
192,192,234671,1,2,0:0:0:0:
320,192,234671,1,0,0:0:0:0:
448,192,234834,1,0,0:0:0:0:
192,192,234834,1,0,0:0:0:0:
64,192,234997,1,2,0:0:0:0:
320,192,234997,1,0,0:0:0:50:soft-hitfinish.wav
192,192,235160,1,0,0:0:0:0:
64,192,235160,1,0,0:0:0:0:
320,192,235323,1,2,0:0:0:0:
448,192,235323,1,0,0:0:0:0:
192,192,235486,1,0,0:0:0:0:
64,192,235649,1,2,0:0:0:0:
448,192,235649,1,0,0:0:0:30:normal-hitclap.wav
320,192,235813,1,0,0:0:0:0:
64,192,235976,1,2,0:0:0:0:
192,192,235976,1,0,0:0:0:0:
448,192,236139,1,0,0:0:0:0:
192,192,236302,1,2,0:0:0:0:
320,192,236302,1,0,0:0:0:30:normal-hitclap.wav
64,192,236465,128,0,236628:0:0:0:0:
192,192,236628,1,2,0:0:0:0:
448,192,236628,1,0,0:0:0:0:
320,192,236791,1,0,0:0:0:0:
64,192,236954,1,2,0:0:0:0:
192,192,236954,1,0,0:0:0:30:normal-hitclap.wav
448,192,237117,1,0,0:0:0:0:
320,192,237280,1,0,0:0:0:0:
64,192,237280,1,2,0:0:0:0:
192,192,237443,1,0,0:0:0:0:
320,192,237606,1,2,0:0:0:0:
448,192,237606,1,0,0:0:0:30:normal-hitclap.wav
64,192,237769,1,0,0:0:0:0:
448,192,237932,1,0,0:0:0:0:
192,192,237932,1,2,0:0:0:0:
320,192,238095,1,0,0:0:0:0:
192,192,238177,1,0,0:0:0:0:
64,192,238258,1,2,0:0:0:0:
448,192,238258,1,0,0:0:0:30:normal-hitclap.wav
448,192,238421,1,0,0:0:0:0:
320,192,238503,1,0,0:0:0:0:
192,192,238584,1,0,0:0:0:30:normal-hitclap.wav
64,192,238584,1,2,0:0:0:0:
64,192,238747,1,0,0:0:0:0:
192,192,238829,1,0,0:0:0:0:
320,192,238910,1,2,0:0:0:0:
448,192,238910,1,0,0:0:0:30:normal-hitclap.wav
192,192,239073,1,0,0:0:0:0:
320,192,239155,1,0,0:0:0:0:
64,192,239236,1,2,0:0:0:0:
448,192,239236,1,0,0:0:0:30:normal-hitclap.wav
320,192,239399,1,0,0:0:0:0:
192,192,239481,1,0,0:0:0:0:
64,192,239563,1,2,0:0:0:0:
320,192,239563,1,0,0:0:0:30:normal-hitclap.wav
448,192,239726,1,0,0:0:0:0:
320,192,239807,1,0,0:0:0:0:
64,192,239889,1,0,0:0:0:30:normal-hitclap.wav
192,192,239889,1,2,0:0:0:0:
64,192,240052,1,0,0:0:0:0:
192,192,240133,1,0,0:0:0:0:
320,192,240215,1,2,0:0:0:0:
448,192,240215,1,0,0:0:0:30:normal-hitclap.wav
64,192,240296,1,0,0:0:0:0:
448,192,240378,1,0,0:0:0:0:
320,192,240459,1,0,0:0:0:0:
192,192,241845,128,0,249671:0:0:0:0:
64,192,241845,128,0,249671:0:0:0:0:
