osu file format v14

[General]
AudioFilename: theglorydays.mp3
AudioLeadIn: 0
PreviewTime: 149255
Countdown: 0
SampleSet: Soft
StackLeniency: 0.7
Mode: 3
LetterboxInBreaks: 0
SpecialStyle: 0
WidescreenStoryboard: 0

[Editor]
Bookmarks: 24038,44907,65777,86646,107516,128386,149255,170125,198820,219690
DistanceSpacing: 2
BeatDivisor: 4
GridSize: 8
TimelineZoom: 2.1

[Metadata]
Title:The Glory Days
TitleUnicode:The Glory Days
Artist:Tia
ArtistUnicode:Tia
Creator:CloudHolic
Version:MX
Source:キャプテン・アース
Tags:captain earth ending ryo supercell manabu nimura takeaki wada nobuyuki morino studiomsr
BeatmapID:818976
BeatmapSetID:373357

[Difficulty]
HPDrainRate:8
CircleSize:7
OverallDifficulty:8
ApproachRate:5
SliderMultiplier:1.4
SliderTickRate:1

[Events]
//Background and Video events
0,0,"glory.jpg",0,0
//Break Periods
//Storyboard Layer 0 (Background)
//Storyboard Layer 1 (Fail)
//Storyboard Layer 2 (Pass)
//Storyboard Layer 3 (Foreground)
//Storyboard Sound Samples
Sample,9690,0,"bell.wav",70
Sample,14907,0,"bell.wav",70
Sample,20125,0,"bell.wav",70
Sample,23793,0,"kickfast.wav",20
Sample,23875,0,"kickfast.wav",20
Sample,23956,0,"kickfast.wav",20
Sample,43440,0,"snarerush.wav",70
Sample,75559,0,"kickfast.wav",40
Sample,84201,0,"gs7.wav",70
Sample,84364,0,"gs7.wav",70
Sample,84853,0,"gs7.wav",70
Sample,85668,0,"kickfast.wav",40
Sample,97244,0,"hat.wav",70
Sample,97407,0,"hat.wav",70
Sample,97407,0,"soft-hitclap.wav",35
Sample,97733,0,"hat.wav",70
Sample,97733,0,"soft-hitclap.wav",35
Sample,97896,0,"hat.wav",70
Sample,98059,0,"hat.wav",70
Sample,98223,0,"hat.wav",70
Sample,98386,0,"soft-hitclap.wav",35
Sample,98386,0,"hat.wav",70
Sample,98712,0,"soft-hitclap.wav",35
Sample,98712,0,"hat.wav",70
Sample,98875,0,"hat.wav",70
Sample,99690,0,"hat.wav",70
Sample,99853,0,"hat.wav",70
Sample,100016,0,"hat.wav",70
Sample,100016,0,"soft-hitclap.wav",35
Sample,100342,0,"hat.wav",70
Sample,100342,0,"soft-hitclap.wav",35
Sample,100505,0,"hat.wav",70
Sample,100668,0,"hat.wav",70
Sample,100831,0,"hat.wav",70
Sample,100994,0,"soft-hitclap.wav",35
Sample,100994,0,"hat.wav",70
Sample,101320,0,"soft-hitclap.wav",35
Sample,101320,0,"hat.wav",70
Sample,101483,0,"hat.wav",70
Sample,102299,0,"hat.wav",70
Sample,102462,0,"hat.wav",70
Sample,102625,0,"hat.wav",70
Sample,102625,0,"soft-hitclap.wav",35
Sample,102951,0,"hat.wav",70
Sample,102951,0,"soft-hitclap.wav",35
Sample,103114,0,"hat.wav",70
Sample,103277,0,"hat.wav",70
Sample,103440,0,"hat.wav",70
Sample,103603,0,"soft-hitclap.wav",35
Sample,103603,0,"hat.wav",70
Sample,103929,0,"soft-hitclap.wav",35
Sample,103929,0,"hat.wav",70
Sample,104092,0,"hat.wav",70
Sample,105070,0,"hat.wav",70
Sample,105233,0,"hat.wav",70
Sample,105559,0,"hat.wav",70
Sample,105723,0,"hat.wav",70
Sample,106049,0,"hat.wav",70
Sample,106212,0,"hat.wav",70
Sample,106538,0,"hat.wav",70
Sample,106701,0,"hat.wav",70
Sample,159038,0,"kickfast.wav",40
Sample,167679,0,"gs7.wav",70
Sample,167842,0,"gs7.wav",70
Sample,168331,0,"gs7.wav",70
Sample,169146,0,"kickfast.wav",40
Sample,184309,0,"hat.wav",70
Sample,194581,0,"kickfast.wav",20
Sample,195886,0,"kickfast.wav",20
Sample,196212,0,"kickfast.wav",20
Sample,196538,0,"kickfast.wav",20
Sample,197190,0,"kickfast.wav",20
Sample,197516,0,"snarerush.wav",20
Sample,197557,0,"snarerush.wav",20
Sample,197598,0,"snarerush.wav",20
Sample,197638,0,"snarerush.wav",20
Sample,197679,0,"snarerush.wav",20
Sample,197720,0,"snarerush.wav",20
Sample,197761,0,"snarerush.wav",20
Sample,197801,0,"snarerush.wav",20
Sample,197883,0,"snarerush.wav",20
Sample,197924,0,"snarerush.wav",20
Sample,197964,0,"snarerush.wav",20
Sample,198005,0,"snarerush.wav",20
Sample,198087,0,"snarerush.wav",20
Sample,198127,0,"snarerush.wav",20
Sample,198250,0,"snarerush.wav",20
Sample,198250,0,"snarerush.wav",20
Sample,198331,0,"snarerush.wav",20
Sample,198372,0,"snarerush.wav",20
Sample,198413,0,"snarerush.wav",20
Sample,198494,0,"snarerush.wav",20
Sample,198820,0,"gs7.wav",70
Sample,199146,0,"c8.wav",70
Sample,199473,0,"d8.wav",70
Sample,199799,0,"d8.wav",70
Sample,200125,0,"fs8.wav",100
Sample,200451,0,"d8.wav",70
Sample,201429,0,"c8.wav",70
Sample,201755,0,"gs7.wav",70
Sample,202081,0,"c8.wav",70
Sample,202407,0,"gs7.wav",70
Sample,202733,0,"c8.wav",70
Sample,203059,0,"d8.wav",70
Sample,204038,0,"gs7.wav",70
Sample,204364,0,"c8.wav",70
Sample,204690,0,"d8.wav",70
Sample,205016,0,"d8.wav",70
Sample,205342,0,"fs8.wav",100
Sample,205668,0,"d8.wav",70
Sample,206646,0,"c8.wav",70
Sample,206973,0,"gs7.wav",70
Sample,207299,0,"c8.wav",70
Sample,207625,0,"gs7.wav",70
Sample,207951,0,"c8.wav",70
Sample,208277,0,"d8.wav",70
Sample,208603,0,"kickfast.wav",40
Sample,208603,0,"f8.wav",100
Sample,209581,0,"c8.wav",70
Sample,209907,0,"d8.wav",70
Sample,210233,0,"d8.wav",70
Sample,210886,0,"d8.wav",70
Sample,211538,0,"gs7.wav",70
Sample,212190,0,"gs7.wav",70
Sample,212516,0,"c8.wav",70
Sample,212842,0,"gs7.wav",70
Sample,213494,0,"d8.wav",70
Sample,213820,0,"f8.wav",100
Sample,214799,0,"c8.wav",70
Sample,215125,0,"d8.wav",70
Sample,215451,0,"d8.wav",70
Sample,215777,0,"fs8.wav",100
Sample,216103,0,"d8.wav",70
Sample,216755,0,"gs7.wav",70
Sample,217244,0,"gs7.wav",70
Sample,217407,0,"gs7.wav",70
Sample,217733,0,"c8.wav",70
Sample,217896,0,"gs7.wav",70
Sample,218386,0,"kickfast.wav",40
Sample,218712,0,"kickfast.wav",40
Sample,220016,0,"kickfast.wav",20
Sample,220342,0,"kickfast.wav",20
Sample,220994,0,"kickfast.wav",20
Sample,221320,0,"kickfast.wav",20
Sample,222625,0,"kickfast.wav",20
Sample,222951,0,"kickfast.wav",20
Sample,223603,0,"kickfast.wav",20
Sample,223929,0,"kickfast.wav",20
Sample,225233,0,"kickfast.wav",20
Sample,225559,0,"kickfast.wav",20
Sample,226212,0,"kickfast.wav",20
Sample,226538,0,"kickfast.wav",20
Sample,227842,0,"kickfast.wav",20
Sample,228168,0,"kickfast.wav",20
Sample,229309,0,"kickfast.wav",20
Sample,229799,0,"kickfast.wav",20
Sample,230451,0,"kickfast.wav",20
Sample,230777,0,"kickfast.wav",20
Sample,231429,0,"kickfast.wav",20
Sample,231755,0,"kickfast.wav",20
Sample,233059,0,"kickfast.wav",20
Sample,233386,0,"kickfast.wav",20
Sample,234038,0,"kickfast.wav",20
Sample,234364,0,"kickfast.wav",20
Sample,235668,0,"kickfast.wav",20
Sample,235994,0,"kickfast.wav",20
Sample,236646,0,"kickfast.wav",20
Sample,236973,0,"kickfast.wav",20
Sample,238114,0,"soft-hitclap.wav",35
Sample,238277,0,"kickfast.wav",20
Sample,238603,0,"kickfast.wav",20
Sample,239255,0,"kickfast.wav",20
Sample,239581,0,"kickfast.wav",20

[TimingPoints]
560,326.086956521739,4,2,1,35,1,0
65777,-100,4,2,1,50,0,1
86646,-100,4,2,1,35,0,0
149255,-100,4,2,1,50,0,1
170125,-100,4,2,1,35,0,0
188386,-100,4,2,1,50,0,1
219690,-100,4,2,1,35,0,0

[HitObjects]
256,192,2842,128,0,3168:0:0:0:70:f7.wav
475,192,3168,128,8,7081:0:0:0:35:
109,192,3168,1,8,0:0:0:0:
36,192,3168,128,0,4473:0:0:0:0:
329,192,3168,1,0,0:0:0:0:
402,192,3168,1,0,0:0:0:0:
182,192,3494,1,0,0:0:0:0:
402,192,3820,1,0,0:0:0:70:bell.wav
256,192,4146,1,0,0:0:0:0:
329,192,4309,1,0,0:0:0:0:
256,192,4364,1,0,0:0:0:0:
182,192,4418,1,0,0:0:0:0:
402,192,4473,1,0,0:0:0:70:c8.wav
109,192,4473,1,0,0:0:0:70:bell.wav
329,192,4636,1,0,0:0:0:70:c8_s.wav
256,192,4799,1,0,0:0:0:70:gs7.wav
36,192,4799,1,0,0:0:0:0:
182,192,4962,1,0,0:0:0:70:d8.wav
402,192,5125,1,0,0:0:0:70:bell.wav
36,192,5288,1,0,0:0:0:0:
109,192,5451,1,0,0:0:0:0:
329,192,5451,1,0,0:0:0:0:
182,192,5614,1,0,0:0:0:70:f7.wav
36,192,5777,128,0,7081:0:0:0:70:bell.wav
256,192,5777,1,0,0:0:0:0:
402,192,5777,1,0,0:0:0:0:
329,192,6103,1,0,0:0:0:0:
182,192,6429,1,0,0:0:0:70:bell.wav
256,192,6755,1,0,0:0:0:0:
402,192,7081,1,0,0:0:0:70:bell.wav
182,192,7407,1,0,0:0:0:0:
36,192,7733,128,0,10016:0:0:0:70:bell.wav
329,192,7733,1,0,0:0:0:0:
182,192,8059,1,0,0:0:0:0:
256,192,8386,1,0,0:0:0:70:bell.wav
475,192,8386,128,0,9690:0:0:0:0:
329,192,8549,1,0,0:0:0:0:
402,192,8712,1,0,0:0:0:0:
109,192,8712,1,0,0:0:0:0:
182,192,8875,1,0,0:0:0:0:
256,192,8956,1,0,0:0:0:0:
329,192,9038,1,0,0:0:0:70:bell.wav
109,192,9038,1,0,0:0:0:0:
256,192,9201,1,0,0:0:0:0:
402,192,9364,1,0,0:0:0:0:
182,192,9364,1,0,0:0:0:0:
329,192,9527,1,0,0:0:0:0:
256,192,9581,1,0,0:0:0:0:
182,192,9636,1,0,0:0:0:0:
109,192,9690,1,0,0:0:0:70:gs7.wav
256,192,9853,1,0,0:0:0:70:c8.wav
475,192,10016,1,0,0:0:0:0:
329,192,10016,1,0,0:0:0:70:gs7.wav
402,192,10179,1,0,0:0:0:70:d8.wav
256,192,10342,128,0,12951:0:0:0:70:bell.wav
109,192,10342,1,0,0:0:0:0:
329,192,10505,1,0,0:0:0:70:f7.wav
475,192,10668,1,0,0:0:0:0:
182,192,10831,1,0,0:0:0:70:c8.wav
402,192,10994,1,0,0:0:0:70:bell.wav
36,192,10994,128,0,13603:0:0:0:0:
182,192,11157,1,0,0:0:0:0:
109,192,11320,1,0,0:0:0:0:
182,192,11646,1,0,0:0:0:70:bell.wav
402,192,11809,1,0,0:0:0:0:
475,192,11973,1,0,0:0:0:0:
109,192,12299,1,0,0:0:0:70:bell.wav
329,192,12462,1,0,0:0:0:0:
475,192,12625,1,0,0:0:0:0:
402,192,12951,1,0,0:0:0:70:bell.wav
182,192,13114,1,0,0:0:0:0:
109,192,13277,1,0,0:0:0:0:
182,192,13603,1,8,0:0:0:35:
329,192,13603,128,0,17516:0:0:0:0:
402,192,13603,1,0,0:0:0:0:
109,192,13766,1,0,0:0:0:0:
256,192,13766,1,0,0:0:0:0:
475,192,13929,1,8,0:0:0:35:
182,192,13929,1,0,0:0:0:0:
475,192,14092,1,0,0:0:0:0:
256,192,14255,1,8,0:0:0:35:
36,192,14255,1,0,0:0:0:70:bell.wav
402,192,14418,1,0,0:0:0:0:
109,192,14418,1,0,0:0:0:0:
182,192,14581,1,8,0:0:0:35:
475,192,14581,1,0,0:0:0:0:
182,192,14744,1,0,0:0:0:0:
402,192,14907,1,8,0:0:0:35:
36,192,14907,1,0,0:0:0:70:c8.wav
182,192,15070,1,0,0:0:0:70:c8_s.wav
475,192,15070,1,0,0:0:0:0:
109,192,15233,1,8,0:0:0:35:
256,192,15233,1,0,0:0:0:70:gs7.wav
109,192,15396,1,0,0:0:0:70:d8.wav
256,192,15559,1,8,0:0:0:35:
475,192,15559,1,0,0:0:0:70:bell.wav
182,192,15723,1,0,0:0:0:70:c8.wav
402,192,15723,1,0,0:0:0:0:
36,192,15886,1,8,0:0:0:35:
256,192,15886,1,0,0:0:0:0:
36,192,16049,1,0,0:0:0:70:f7.wav
475,192,16212,1,8,0:0:0:35:
182,192,16212,1,0,0:0:0:70:bell.wav
256,192,16375,1,0,0:0:0:0:
109,192,16375,1,0,0:0:0:0:
475,192,16538,1,8,0:0:0:35:
36,192,16538,1,0,0:0:0:0:
475,192,16701,1,0,0:0:0:0:
182,192,16864,1,8,0:0:0:35:
36,192,16864,1,0,0:0:0:70:bell.wav
109,192,17027,1,0,0:0:0:0:
402,192,17027,1,0,0:0:0:0:
256,192,17190,1,8,0:0:0:35:
475,192,17190,1,0,0:0:0:0:
256,192,17353,1,0,0:0:0:0:
36,192,17516,1,8,0:0:0:35:
182,192,17516,1,0,0:0:0:70:bell.wav
109,192,17679,1,0,0:0:0:0:
475,192,17679,1,0,0:0:0:0:
402,192,17842,1,8,0:0:0:35:
256,192,17842,1,0,0:0:0:0:
402,192,18005,1,0,0:0:0:0:
329,192,18168,1,8,0:0:0:35:
182,192,18168,128,0,20125:0:0:0:70:bell.wav
36,192,18168,1,0,0:0:0:0:
475,192,18331,1,0,0:0:0:0:
109,192,18331,1,0,0:0:0:0:
256,192,18494,1,8,0:0:0:35:
402,192,18494,1,0,0:0:0:0:
256,192,18657,1,0,0:0:0:0:
475,192,18820,1,8,0:0:0:35:
329,192,18820,1,0,0:0:0:70:bell.wav
402,192,18983,1,0,0:0:0:0:
256,192,18983,1,0,0:0:0:0:
36,192,19146,1,8,0:0:0:35:
329,192,19146,1,0,0:0:0:0:
36,192,19309,1,0,0:0:0:0:
256,192,19473,1,8,0:0:0:35:
475,192,19473,1,0,0:0:0:70:bell.wav
36,192,19636,1,0,0:0:0:0:
402,192,19636,1,0,0:0:0:0:
329,192,19799,1,8,0:0:0:35:
475,192,19799,1,0,0:0:0:0:
402,192,19962,1,0,0:0:0:70:c8.wav
329,192,20016,1,0,0:0:0:70:d8.wav
256,192,20070,1,0,0:0:0:70:f8.wav
109,192,20125,1,8,0:0:0:35:
475,192,20125,1,0,0:0:0:70:d8.wav
402,192,20288,1,0,0:0:0:70:c8.wav
36,192,20288,1,0,0:0:0:0:
182,192,20451,1,8,0:0:0:35:
329,192,20451,1,0,0:0:0:70:gs7.wav
182,192,20614,1,0,0:0:0:70:f7.wav
475,192,20777,1,8,0:0:0:35:
402,192,20777,128,0,22733:0:0:0:70:bell.wav
256,192,20777,1,0,0:0:0:0:
36,192,20777,1,0,0:0:0:0:
182,192,20940,1,0,0:0:0:70:f7.wav
329,192,20940,1,0,0:0:0:0:
109,192,21103,1,8,0:0:0:35:
256,192,21103,1,0,0:0:0:0:
109,192,21266,1,0,0:0:0:0:
329,192,21429,1,8,0:0:0:35:
36,192,21429,1,8,0:0:0:35:
475,192,21592,1,0,0:0:0:0:
182,192,21592,1,0,0:0:0:0:
256,192,21755,1,8,0:0:0:35:
109,192,21755,1,8,0:0:0:35:
256,192,21918,1,0,0:0:0:0:
36,192,22081,1,8,0:0:0:35:
109,192,22081,1,8,0:0:0:35:
329,192,22244,1,0,0:0:0:0:
182,192,22244,1,0,0:0:0:0:
475,192,22407,1,8,0:0:0:35:
109,192,22407,1,8,0:0:0:35:
475,192,22570,1,0,0:0:0:100:snarerush.wav
329,192,22733,1,8,0:0:0:35:
109,192,22733,1,8,0:0:0:35:
36,192,22896,1,0,0:0:0:0:
256,192,22896,1,0,0:0:0:0:
475,192,23059,1,0,0:0:0:100:snarerush.wav
182,192,23059,1,0,0:0:0:70:d8.wav
402,192,23223,1,0,0:0:0:100:snarerush.wav
36,192,23223,1,0,0:0:0:0:
109,192,23386,1,0,0:0:0:100:snarerush.wav
256,192,23386,1,0,0:0:0:70:c8.wav
329,192,23549,1,0,0:0:0:100:snarerush.wav
475,192,23549,1,0,0:0:0:0:
109,192,23712,1,0,0:0:0:20:kickfast.wav
36,192,23712,1,0,0:0:0:20:kickfast.wav
182,192,23793,1,0,0:0:0:20:kickfast.wav
256,192,23875,1,0,0:0:0:20:kickfast.wav
329,192,23956,1,0,0:0:0:20:kickfast.wav
402,192,24038,1,0,0:0:0:20:kickfast.wav
36,192,24038,1,0,0:0:0:20:kickfast.wav
475,192,24038,1,0,0:0:0:0:
109,192,24201,1,0,0:0:0:0:
256,192,24201,1,0,0:0:0:0:
182,192,24364,1,0,0:0:0:0:
402,192,24364,1,0,0:0:0:0:
402,192,24527,1,0,0:0:0:0:
36,192,24690,1,0,0:0:0:0:
256,192,24690,1,0,0:0:0:0:
475,192,24690,1,0,0:0:0:0:
109,192,24853,1,0,0:0:0:0:
329,192,24853,1,0,0:0:0:0:
182,192,25016,1,0,0:0:0:0:
402,192,25016,1,0,0:0:0:0:
109,192,25342,1,0,0:0:0:0:
475,192,25342,1,0,0:0:0:0:
256,192,25342,1,0,0:0:0:0:
402,192,25505,1,0,0:0:0:0:
36,192,25505,1,0,0:0:0:0:
182,192,25668,1,0,0:0:0:0:
329,192,25668,1,0,0:0:0:0:
182,192,25831,1,0,0:0:0:0:
36,192,25994,1,0,0:0:0:0:
256,192,25994,1,0,0:0:0:0:
475,192,25994,1,0,0:0:0:0:
109,192,26157,1,0,0:0:0:0:
329,192,26157,1,0,0:0:0:0:
475,192,26320,1,0,0:0:0:0:
182,192,26320,1,0,0:0:0:0:
475,192,26483,1,0,0:0:0:0:
402,192,26646,1,0,0:0:0:0:
109,192,26646,1,0,0:0:0:0:
256,192,26646,1,0,0:0:0:0:
36,192,26809,1,0,0:0:0:0:
475,192,26809,1,0,0:0:0:0:
182,192,26973,1,0,0:0:0:0:
329,192,26973,1,0,0:0:0:0:
329,192,27136,1,0,0:0:0:0:
475,192,27299,1,0,0:0:0:0:
182,192,27299,1,0,0:0:0:0:
36,192,27299,1,0,0:0:0:0:
402,192,27462,1,0,0:0:0:0:
256,192,27462,1,0,0:0:0:0:
109,192,27625,1,0,0:0:0:0:
329,192,27625,1,0,0:0:0:0:
109,192,27788,1,0,0:0:0:0:
475,192,27951,1,0,0:0:0:0:
329,192,27951,1,0,0:0:0:0:
36,192,27951,1,0,0:0:0:0:
109,192,28114,1,0,0:0:0:0:
256,192,28114,1,0,0:0:0:0:
402,192,28277,1,0,0:0:0:0:
182,192,28277,1,0,0:0:0:0:
402,192,28440,1,0,0:0:0:0:
36,192,28603,1,0,0:0:0:0:
182,192,28603,1,0,0:0:0:0:
475,192,28603,1,0,0:0:0:0:
109,192,28766,1,0,0:0:0:0:
329,192,28766,1,0,0:0:0:0:
256,192,28929,1,0,0:0:0:0:
475,192,28929,1,0,0:0:0:0:
256,192,29092,1,0,0:0:0:0:
402,192,29255,1,0,0:0:0:0:
182,192,29255,1,0,0:0:0:0:
36,192,29255,1,0,0:0:0:0:
329,192,29418,1,0,0:0:0:0:
109,192,29418,1,0,0:0:0:0:
475,192,29581,1,0,0:0:0:0:
182,192,29581,1,0,0:0:0:0:
182,192,29744,1,0,0:0:0:0:
36,192,29907,1,0,0:0:0:0:
475,192,29907,1,0,0:0:0:0:
329,192,29907,1,0,0:0:0:0:
109,192,30070,1,0,0:0:0:0:
256,192,30070,1,0,0:0:0:0:
36,192,30233,1,0,0:0:0:0:
402,192,30233,1,0,0:0:0:0:
36,192,30396,1,0,0:0:0:0:
329,192,30559,1,0,0:0:0:0:
475,192,30559,1,0,0:0:0:0:
109,192,30559,1,0,0:0:0:0:
256,192,30723,1,0,0:0:0:0:
36,192,30723,1,0,0:0:0:0:
402,192,30886,1,0,0:0:0:0:
182,192,30886,1,0,0:0:0:0:
402,192,31049,1,0,0:0:0:0:
182,192,31212,1,0,0:0:0:0:
36,192,31212,1,0,0:0:0:0:
329,192,31212,1,0,0:0:0:0:
256,192,31375,1,0,0:0:0:0:
109,192,31375,1,0,0:0:0:0:
329,192,31538,1,0,0:0:0:0:
475,192,31538,1,0,0:0:0:0:
329,192,31701,1,0,0:0:0:0:
475,192,31864,1,0,0:0:0:0:
36,192,31864,1,0,0:0:0:0:
256,192,31864,1,0,0:0:0:0:
36,192,32027,1,0,0:0:0:0:
329,192,32027,1,0,0:0:0:0:
402,192,32190,1,0,0:0:0:0:
182,192,32190,1,0,0:0:0:0:
182,192,32353,1,0,0:0:0:0:
475,192,32516,1,0,0:0:0:0:
109,192,32516,1,0,0:0:0:0:
256,192,32516,1,0,0:0:0:0:
402,192,32679,1,0,0:0:0:0:
182,192,32679,1,0,0:0:0:0:
256,192,32842,1,0,0:0:0:0:
36,192,32842,1,0,0:0:0:0:
36,192,33005,1,0,0:0:0:0:
182,192,33168,1,0,0:0:0:0:
475,192,33168,1,0,0:0:0:0:
329,192,33168,1,0,0:0:0:0:
109,192,33331,1,0,0:0:0:0:
329,192,33331,1,0,0:0:0:0:
256,192,33494,1,0,0:0:0:0:
36,192,33494,1,0,0:0:0:0:
256,192,33657,1,0,0:0:0:0:
475,192,33820,1,0,0:0:0:0:
36,192,33820,1,0,0:0:0:0:
182,192,33820,1,0,0:0:0:0:
329,192,33983,1,0,0:0:0:0:
109,192,33983,1,0,0:0:0:0:
402,192,34146,1,0,0:0:0:0:
256,192,34146,1,0,0:0:0:0:
256,192,34309,1,0,0:0:0:0:
36,192,34473,1,8,0:0:0:35:
402,192,34473,1,0,0:0:0:50:cymbals.wav
109,192,34473,1,0,0:0:0:0:
475,192,34473,1,0,0:0:0:0:
182,192,34636,1,0,0:0:0:0:
329,192,34636,1,0,0:0:0:0:
475,192,34799,1,8,0:0:0:35:
256,192,34799,1,0,0:0:0:0:
109,192,34799,1,0,0:0:0:0:
109,192,34962,1,0,0:0:0:0:
329,192,35125,1,8,0:0:0:35:
475,192,35125,1,0,0:0:0:0:
182,192,35125,1,0,0:0:0:0:
36,192,35288,1,0,0:0:0:0:
256,192,35288,1,0,0:0:0:0:
109,192,35451,1,8,0:0:0:35:
402,192,35451,1,0,0:0:0:0:
182,192,35451,1,0,0:0:0:0:
402,192,35614,1,0,0:0:0:0:
475,192,35777,1,8,0:0:0:35:
36,192,35777,1,0,0:0:0:0:
329,192,35777,1,0,0:0:0:0:
109,192,35940,1,0,0:0:0:0:
256,192,35940,1,0,0:0:0:0:
182,192,36103,1,8,0:0:0:35:
36,192,36103,1,0,0:0:0:0:
402,192,36103,1,0,0:0:0:0:
402,192,36266,1,0,0:0:0:0:
256,192,36429,1,8,0:0:0:35:
109,192,36429,1,0,0:0:0:0:
475,192,36429,1,0,0:0:0:0:
329,192,36592,1,0,0:0:0:0:
182,192,36592,1,0,0:0:0:0:
36,192,36755,1,8,0:0:0:35:
402,192,36755,1,0,0:0:0:0:
256,192,36755,1,0,0:0:0:0:
109,192,36918,1,0,0:0:0:0:
329,192,37081,1,8,0:0:0:35:
475,192,37081,1,8,0:0:0:0:
256,192,37081,1,0,0:0:0:0:
182,192,37244,1,0,0:0:0:0:
402,192,37244,1,0,0:0:0:0:
256,192,37407,1,8,0:0:0:35:
36,192,37407,1,0,0:0:0:0:
475,192,37407,1,0,0:0:0:0:
36,192,37570,1,0,0:0:0:0:
109,192,37733,1,8,0:0:0:35:
475,192,37733,1,0,0:0:0:0:
329,192,37733,1,0,0:0:0:0:
182,192,37896,1,0,0:0:0:0:
402,192,37896,1,0,0:0:0:0:
36,192,38059,1,8,0:0:0:35:
256,192,38059,1,0,0:0:0:0:
109,192,38059,1,0,0:0:0:0:
256,192,38223,1,0,0:0:0:0:
475,192,38386,1,8,0:0:0:35:
402,192,38386,1,8,0:0:0:0:
109,192,38386,1,0,0:0:0:0:
182,192,38549,1,0,0:0:0:0:
329,192,38549,1,0,0:0:0:0:
109,192,38712,1,8,0:0:0:35:
36,192,38712,1,0,0:0:0:0:
256,192,38712,1,0,0:0:0:0:
36,192,38875,1,0,0:0:0:0:
182,192,39038,1,8,0:0:0:35:
402,192,39038,1,0,0:0:0:0:
256,192,39038,1,0,0:0:0:0:
109,192,39201,1,0,0:0:0:0:
329,192,39201,1,0,0:0:0:0:
475,192,39364,1,8,0:0:0:35:
36,192,39364,1,0,0:0:0:0:
182,192,39364,1,0,0:0:0:0:
182,192,39527,1,0,0:0:0:0:
329,192,39690,1,8,0:0:0:35:
109,192,39690,1,8,0:0:0:0:
475,192,39690,1,0,0:0:0:0:
182,192,39853,1,0,0:0:0:0:
402,192,39853,1,0,0:0:0:0:
256,192,40016,1,8,0:0:0:35:
475,192,40016,1,0,0:0:0:0:
36,192,40016,1,0,0:0:0:0:
36,192,40179,1,0,0:0:0:0:
402,192,40342,1,8,0:0:0:35:
182,192,40342,1,0,0:0:0:0:
475,192,40342,1,0,0:0:0:0:
329,192,40505,1,0,0:0:0:0:
109,192,40505,1,0,0:0:0:0:
475,192,40668,1,8,0:0:0:35:
256,192,40668,1,0,0:0:0:0:
36,192,40668,1,0,0:0:0:0:
256,192,40831,1,0,0:0:0:0:
182,192,40994,1,8,0:0:0:35:
402,192,40994,1,0,0:0:0:0:
475,192,40994,1,0,0:0:0:0:
109,192,41157,1,8,0:0:0:35:
329,192,41157,1,0,0:0:0:0:
36,192,41320,1,2,0:0:0:35:
182,192,41320,1,0,0:0:0:70:snarerush.wav
402,192,41320,1,0,0:0:0:0:
402,192,41483,1,0,0:0:0:0:
109,192,41646,1,8,0:0:0:35:
329,192,41646,1,0,0:0:0:0:
256,192,41646,1,0,0:0:0:0:
182,192,41809,1,8,0:0:0:35:
402,192,41809,1,0,0:0:0:0:
256,192,41973,1,2,0:0:0:35:
36,192,41973,1,0,0:0:0:70:snarerush.wav
475,192,41973,1,0,0:0:0:0:
475,192,42136,1,0,0:0:0:0:
329,192,42299,1,8,0:0:0:35:
109,192,42299,1,0,0:0:0:0:
182,192,42299,1,0,0:0:0:0:
475,192,42462,1,8,0:0:0:35:
256,192,42462,1,0,0:0:0:0:
36,192,42625,1,2,0:0:0:35:
402,192,42625,1,0,0:0:0:70:snarerush.wav
182,192,42625,1,0,0:0:0:0:
182,192,42788,1,0,0:0:0:0:
329,192,42951,1,8,0:0:0:35:
475,192,42951,1,0,0:0:0:0:
36,192,42951,1,0,0:0:0:0:
109,192,43114,1,8,0:0:0:35:
402,192,43114,1,0,0:0:0:0:
475,192,43277,1,8,0:0:0:0:
182,192,43277,1,0,0:0:0:0:
256,192,43277,1,0,0:0:0:0:
256,192,43440,1,2,0:0:0:35:
36,192,43603,1,8,0:0:0:35:
109,192,43603,1,0,0:0:0:0:
402,192,43603,1,0,0:0:0:0:
182,192,43766,1,8,0:0:0:35:
329,192,43766,1,0,0:0:0:0:
256,192,43929,1,2,0:0:0:35:
475,192,43929,1,0,0:0:0:70:snarerush.wav
36,192,43929,1,0,0:0:0:0:
475,192,44092,1,0,0:0:0:0:
329,192,44255,1,8,0:0:0:35:
182,192,44255,1,0,0:0:0:0:
36,192,44255,1,0,0:0:0:0:
256,192,44418,1,8,0:0:0:35:
109,192,44418,1,0,0:0:0:0:
475,192,44581,1,0,0:0:0:70:bell.wav
182,192,44581,1,0,0:0:0:0:
402,192,44581,1,0,0:0:0:0:
36,192,44744,1,0,0:0:0:0:
475,192,44907,1,0,0:0:0:70:bell.wav
329,192,45070,1,0,0:0:0:70:bell.wav
182,192,45233,1,0,0:0:0:70:bell.wav
36,192,45396,128,0,45723:0:0:0:70:bell.wav
256,192,45723,1,0,0:0:0:70:bell.wav
256,192,45886,1,0,0:0:0:70:bell.wav
109,192,46212,1,0,0:0:0:70:bell.wav
256,192,46538,1,0,0:0:0:0:
182,192,46864,1,0,0:0:0:70:bell.wav
402,192,47190,1,0,0:0:0:0:
109,192,47516,1,0,0:0:0:70:bell.wav
182,192,47679,1,0,0:0:0:70:bell.wav
256,192,47842,1,0,0:0:0:70:bell.wav
475,192,48005,128,0,48331:0:0:0:70:bell.wav
182,192,48331,1,0,0:0:0:70:bell.wav
36,192,48494,1,0,0:0:0:70:bell.wav
256,192,48820,1,0,0:0:0:70:bell.wav
402,192,49146,1,0,0:0:0:0:
36,192,49473,1,0,0:0:0:70:bell.wav
182,192,49799,1,0,0:0:0:0:
402,192,50125,1,0,0:0:0:70:bell.wav
256,192,50288,1,0,0:0:0:70:bell.wav
109,192,50451,1,0,0:0:0:70:bell.wav
329,192,50614,128,0,50940:0:0:0:70:bell.wav
36,192,50940,1,0,0:0:0:70:bell.wav
36,192,51103,1,0,0:0:0:70:bell.wav
402,192,51429,1,0,0:0:0:70:bell.wav
109,192,51755,1,0,0:0:0:0:
329,192,52081,1,0,0:0:0:70:bell.wav
475,192,52407,1,0,0:0:0:0:
36,192,52733,1,0,0:0:0:70:bell.wav
182,192,52896,1,0,0:0:0:70:bell.wav
329,192,53059,1,0,0:0:0:70:bell.wav
402,192,53223,128,0,53549:0:0:0:70:bell.wav
182,192,53549,1,0,0:0:0:70:bell.wav
256,192,53712,1,0,0:0:0:70:bell.wav
36,192,54038,1,0,0:0:0:70:bell.wav
329,192,54364,1,0,0:0:0:0:
109,192,54690,1,0,0:0:0:70:bell.wav
475,192,54690,128,0,55342:0:0:0:0:
256,192,55016,1,0,0:0:0:0:
36,192,55342,1,0,0:0:0:70:snarerush.wav
402,192,55342,1,0,0:0:0:0:
329,192,55505,1,0,0:0:0:0:
36,192,55668,1,0,0:0:0:70:snarerush.wav
256,192,55668,1,0,0:0:0:0:
182,192,55831,128,0,56157:0:0:0:0:
475,192,55994,128,0,56320:0:0:0:70:bell.wav
36,192,55994,1,0,0:0:0:70:snarerush.wav
329,192,56157,1,0,0:0:0:0:
36,192,56320,1,0,0:0:0:70:snarerush.wav
256,192,56320,1,0,0:0:0:0:
475,192,56646,1,0,0:0:0:70:snarerush.wav
109,192,56646,1,0,0:0:0:0:
475,192,56973,1,0,0:0:0:70:snarerush.wav
256,192,56973,1,0,0:0:0:0:
182,192,57299,1,0,0:0:0:0:
475,192,57299,1,0,0:0:0:70:snarerush.wav
36,192,57299,128,0,57625:0:0:0:0:
475,192,57625,1,0,0:0:0:70:snarerush.wav
329,192,57625,1,0,0:0:0:0:
109,192,57951,1,0,0:0:0:70:snarerush.wav
475,192,57951,1,0,0:0:0:0:
402,192,58114,1,0,0:0:0:0:
109,192,58277,1,0,0:0:0:70:snarerush.wav
329,192,58277,1,0,0:0:0:0:
182,192,58440,128,0,58766:0:0:0:0:
475,192,58603,128,0,58929:0:0:0:70:bell.wav
109,192,58603,1,0,0:0:0:70:snarerush.wav
256,192,58766,1,0,0:0:0:0:
109,192,58929,1,0,0:0:0:70:snarerush.wav
329,192,58929,1,0,0:0:0:0:
329,192,59255,1,0,0:0:0:70:snarerush.wav
36,192,59255,1,0,0:0:0:0:
329,192,59581,1,0,0:0:0:70:snarerush.wav
182,192,59581,1,0,0:0:0:0:
109,192,59907,1,0,0:0:0:0:
329,192,59907,1,0,0:0:0:70:snarerush.wav
36,192,59907,128,0,60233:0:0:0:0:
329,192,60233,1,0,0:0:0:70:snarerush.wav
256,192,60233,1,0,0:0:0:0:
402,192,60559,1,0,0:0:0:70:snarerush.wav
36,192,60559,1,0,0:0:0:0:
109,192,60723,1,0,0:0:0:0:
402,192,60886,1,0,0:0:0:70:snarerush.wav
182,192,60886,1,0,0:0:0:0:
36,192,61049,128,0,61375:0:0:0:0:
475,192,61212,128,0,61538:0:0:0:70:bell.wav
402,192,61212,1,0,0:0:0:70:snarerush.wav
182,192,61375,1,0,0:0:0:0:
402,192,61538,1,0,0:0:0:70:snarerush.wav
256,192,61538,1,0,0:0:0:0:
182,192,61864,1,0,0:0:0:70:snarerush.wav
329,192,61864,1,0,0:0:0:0:
182,192,62190,1,0,0:0:0:70:snarerush.wav
475,192,62190,1,0,0:0:0:0:
36,192,62516,128,0,62842:0:0:0:70:bell.wav
182,192,62516,1,0,0:0:0:70:snarerush.wav
256,192,62516,1,0,0:0:0:0:
182,192,62842,1,0,0:0:0:70:snarerush.wav
402,192,62842,1,0,0:0:0:0:
256,192,63168,128,0,65451:0:0:0:0:
36,192,64473,128,0,65451:0:0:0:0:
475,192,65451,128,0,65777:0:0:0:70:f7.wav
36,192,65777,1,8,0:0:0:70:kickfast.wav
109,192,65777,1,0,0:0:0:70:gs7.wav
329,192,65777,1,0,0:0:0:0:
256,192,65858,1,0,0:0:0:0:
182,192,65940,1,0,0:0:0:70:c8.wav
402,192,65940,1,0,0:0:0:0:
36,192,66103,1,8,0:0:0:50:
256,192,66103,1,0,0:0:0:70:c8.wav
329,192,66184,1,0,0:0:0:0:
402,192,66266,1,0,0:0:0:0:
182,192,66266,1,0,0:0:0:0:
109,192,66429,1,8,0:0:0:50:
329,192,66429,1,0,0:0:0:70:d8.wav
256,192,66511,1,0,0:0:0:0:
182,192,66592,1,0,0:0:0:70:c8.wav
36,192,66592,1,0,0:0:0:0:
256,192,66755,1,8,0:0:0:50:
475,192,66755,1,0,0:0:0:70:d8.wav
402,192,66837,1,0,0:0:0:0:
329,192,66918,1,0,0:0:0:100:f8.wav
36,192,66918,1,0,0:0:0:0:
402,192,67081,1,8,0:0:0:50:
182,192,67081,1,0,0:0:0:100:fs8.wav
109,192,67163,1,0,0:0:0:0:
36,192,67244,1,0,0:0:0:70:f8.wav
329,192,67244,1,0,0:0:0:0:
182,192,67407,1,8,0:0:0:50:
475,192,67407,1,0,0:0:0:70:d8.wav
329,192,67489,1,0,0:0:0:0:
256,192,67570,1,0,0:0:0:70:c8.wav
109,192,67570,1,0,0:0:0:0:
36,192,67733,1,8,0:0:0:50:
402,192,67733,1,0,0:0:0:0:
182,192,67733,1,0,0:0:0:0:
256,192,67815,1,0,0:0:0:0:
475,192,67896,1,0,0:0:0:0:
109,192,67896,1,0,0:0:0:0:
329,192,67896,1,0,0:0:0:0:
256,192,68059,1,8,0:0:0:50:
182,192,68059,1,0,0:0:0:70:gs7.wav
402,192,68059,1,0,0:0:0:0:
109,192,68141,1,0,0:0:0:0:
329,192,68223,1,0,0:0:0:0:
475,192,68223,1,0,0:0:0:0:
36,192,68223,1,0,0:0:0:0:
36,192,68386,1,8,0:0:0:50:
475,192,68386,1,0,0:0:0:70:c8.wav
402,192,68467,1,0,0:0:0:0:
329,192,68549,1,0,0:0:0:70:gs7.wav
109,192,68549,1,0,0:0:0:0:
256,192,68712,1,8,0:0:0:50:
36,192,68712,1,0,0:0:0:70:gs7.wav
109,192,68793,1,0,0:0:0:0:
182,192,68875,1,0,0:0:0:0:
402,192,68875,1,0,0:0:0:0:
475,192,69038,1,8,0:0:0:50:
329,192,69038,1,0,0:0:0:70:c8.wav
256,192,69119,1,0,0:0:0:0:
182,192,69201,1,0,0:0:0:70:gs7.wav
36,192,69201,1,0,0:0:0:0:
109,192,69364,1,8,0:0:0:50:
402,192,69364,1,0,0:0:0:70:gs7.wav
329,192,69445,1,0,0:0:0:0:
256,192,69527,1,0,0:0:0:0:
182,192,69527,1,0,0:0:0:0:
36,192,69690,1,8,0:0:0:50:
475,192,69690,1,0,0:0:0:70:c8.wav
402,192,69771,1,0,0:0:0:0:
329,192,69853,1,0,0:0:0:0:
182,192,69853,1,0,0:0:0:0:
36,192,70016,1,8,0:0:0:50:
256,192,70016,1,0,0:0:0:70:d8.wav
329,192,70098,1,0,0:0:0:0:
402,192,70179,1,0,0:0:0:0:
475,192,70179,1,0,0:0:0:0:
182,192,70342,1,8,0:0:0:50:
36,192,70342,1,0,0:0:0:100:f8.wav
329,192,70342,1,0,0:0:0:0:
256,192,70424,1,0,0:0:0:0:
109,192,70505,1,0,0:0:0:0:
402,192,70505,1,0,0:0:0:0:
475,192,70505,1,0,0:0:0:0:
329,192,70668,1,8,0:0:0:50:
182,192,70668,1,0,0:0:0:0:
36,192,70668,1,0,0:0:0:0:
475,192,70750,1,0,0:0:0:0:
109,192,70831,1,0,0:0:0:0:
256,192,70831,1,0,0:0:0:0:
402,192,70831,1,0,0:0:0:0:
36,192,70994,1,8,0:0:0:50:
256,192,70994,1,0,0:0:0:70:gs7.wav
182,192,71076,1,0,0:0:0:0:
109,192,71157,1,0,0:0:0:70:c8.wav
329,192,71157,1,0,0:0:0:0:
475,192,71320,1,8,0:0:0:50:
256,192,71320,1,0,0:0:0:70:c8.wav
36,192,71402,1,0,0:0:0:0:
109,192,71483,1,0,0:0:0:0:
329,192,71483,1,0,0:0:0:0:
402,192,71646,1,8,0:0:0:50:
256,192,71646,1,0,0:0:0:70:d8.wav
182,192,71728,1,0,0:0:0:0:
109,192,71809,1,0,0:0:0:70:c8.wav
475,192,71809,1,0,0:0:0:0:
329,192,71973,1,8,0:0:0:50:
36,192,71973,1,0,0:0:0:70:d8.wav
109,192,72054,1,0,0:0:0:0:
182,192,72136,1,0,0:0:0:100:f8.wav
475,192,72136,1,0,0:0:0:0:
402,192,72299,1,8,0:0:0:50:
256,192,72299,1,0,0:0:0:100:fs8.wav
182,192,72380,1,0,0:0:0:0:
329,192,72462,1,0,0:0:0:70:f8.wav
36,192,72462,1,0,0:0:0:0:
182,192,72625,1,8,0:0:0:50:
475,192,72625,1,0,0:0:0:70:d8.wav
402,192,72706,1,0,0:0:0:0:
329,192,72788,1,0,0:0:0:70:c8.wav
109,192,72788,1,0,0:0:0:0:
36,192,72951,1,8,0:0:0:50:
329,192,72951,1,0,0:0:0:0:
475,192,72951,1,0,0:0:0:0:
182,192,73032,1,0,0:0:0:0:
402,192,73114,1,0,0:0:0:0:
109,192,73114,1,0,0:0:0:0:
256,192,73114,1,0,0:0:0:0:
36,192,73277,1,8,0:0:0:50:
475,192,73277,1,0,0:0:0:70:gs7.wav
182,192,73277,1,0,0:0:0:0:
256,192,73358,1,0,0:0:0:0:
329,192,73440,1,0,0:0:0:0:
402,192,73440,1,0,0:0:0:0:
109,192,73440,1,0,0:0:0:0:
475,192,73603,1,8,0:0:0:50:
329,192,73603,1,0,0:0:0:70:c8.wav
256,192,73684,1,0,0:0:0:0:
182,192,73766,1,0,0:0:0:70:gs7.wav
402,192,73766,1,0,0:0:0:0:
109,192,73766,1,0,0:0:0:0:
36,192,73929,1,8,0:0:0:50:
402,192,73929,1,0,0:0:0:70:gs7.wav
256,192,74011,1,0,0:0:0:0:
475,192,74011,1,0,0:0:0:0:
109,192,74092,1,0,0:0:0:0:
329,192,74092,1,0,0:0:0:0:
182,192,74092,1,0,0:0:0:0:
256,192,74255,1,8,0:0:0:50:
36,192,74255,1,0,0:0:0:70:c8.wav
109,192,74337,1,0,0:0:0:0:
475,192,74337,1,0,0:0:0:0:
182,192,74418,1,0,0:0:0:70:gs7.wav
329,192,74418,1,0,0:0:0:0:
402,192,74418,1,0,0:0:0:0:
36,192,74581,1,8,0:0:0:50:
256,192,74581,1,0,0:0:0:70:gs7.wav
329,192,74663,1,0,0:0:0:0:
109,192,74663,1,0,0:0:0:0:
402,192,74744,1,0,0:0:0:0:
182,192,74744,1,0,0:0:0:0:
475,192,74744,1,0,0:0:0:0:
402,192,74907,1,8,0:0:0:50:
256,192,74907,1,0,0:0:0:70:c8.wav
182,192,74989,1,0,0:0:0:0:
475,192,74989,1,0,0:0:0:0:
109,192,75070,1,0,0:0:0:0:
36,192,75070,1,0,0:0:0:0:
329,192,75070,1,0,0:0:0:0:
36,192,75233,1,8,0:0:0:50:
475,192,75233,1,0,0:0:0:70:d8.wav
329,192,75315,1,0,0:0:0:0:
256,192,75396,1,0,0:0:0:0:
402,192,75396,1,0,0:0:0:0:
109,192,75396,1,0,0:0:0:0:
475,192,75559,1,8,0:0:0:50:
109,192,75559,1,0,0:0:0:100:f8.wav
182,192,75614,1,0,0:0:0:40:kickfast.wav
256,192,75668,1,0,0:0:0:40:kickfast.wav
329,192,75723,1,0,0:0:0:40:kickfast.wav
36,192,75723,1,0,0:0:0:0:
402,192,75777,1,0,0:0:0:40:kickfast.wav
475,192,75886,1,0,0:0:0:20:snarerush.wav
182,192,75886,1,0,0:0:0:0:
109,192,75967,1,0,0:0:0:20:snarerush.wav
329,192,76049,1,0,0:0:0:40:kickfast.wav
36,192,76049,1,0,0:0:0:20:snarerush.wav
256,192,76103,1,0,0:0:0:40:kickfast.wav
182,192,76157,1,0,0:0:0:40:kickfast.wav
475,192,76212,128,8,77516:0:0:0:50:
109,192,76212,1,0,0:0:0:70:gs7.wav
402,192,76212,1,0,0:0:0:0:
329,192,76293,1,0,0:0:0:0:
256,192,76375,1,0,0:0:0:70:c8.wav
36,192,76375,1,0,0:0:0:0:
329,192,76538,1,8,0:0:0:50:
109,192,76538,1,0,0:0:0:70:c8.wav
182,192,76619,1,0,0:0:0:0:
256,192,76701,1,0,0:0:0:0:
402,192,76701,1,0,0:0:0:0:
329,192,76864,1,8,0:0:0:50:
36,192,76864,1,0,0:0:0:70:d8.wav
109,192,76945,1,0,0:0:0:0:
182,192,77027,1,0,0:0:0:70:c8.wav
256,192,77027,1,0,0:0:0:0:
402,192,77190,1,8,0:0:0:50:
329,192,77190,1,0,0:0:0:70:d8.wav
182,192,77271,1,0,0:0:0:0:
109,192,77353,1,0,0:0:0:100:f8.wav
36,192,77353,1,0,0:0:0:0:
329,192,77516,128,8,78494:0:0:0:50:
256,192,77516,1,0,0:0:0:100:fs8.wav
402,192,77516,1,0,0:0:0:0:
36,192,77598,1,0,0:0:0:0:
109,192,77679,1,0,0:0:0:70:f8.wav
182,192,77679,1,0,0:0:0:0:
36,192,77842,1,8,0:0:0:50:
256,192,77842,1,0,0:0:0:70:d8.wav
402,192,77924,1,0,0:0:0:0:
109,192,78005,1,0,0:0:0:70:c8.wav
475,192,78005,1,0,0:0:0:0:
182,192,78168,1,8,0:0:0:50:
36,192,78168,1,0,0:0:0:0:
475,192,78250,1,0,0:0:0:0:
402,192,78331,1,0,0:0:0:0:
109,192,78331,1,0,0:0:0:0:
475,192,78494,1,8,0:0:0:50:
36,192,78494,1,0,0:0:0:70:gs7.wav
109,192,78576,1,0,0:0:0:0:
402,192,78657,1,0,0:0:0:0:
182,192,78657,1,0,0:0:0:0:
36,192,78820,128,8,80125:0:0:0:50:
256,192,78820,1,0,0:0:0:70:c8.wav
475,192,78820,1,0,0:0:0:0:
109,192,78902,1,0,0:0:0:0:
182,192,78983,1,0,0:0:0:70:gs7.wav
402,192,78983,1,0,0:0:0:0:
109,192,79146,1,8,0:0:0:50:
329,192,79146,1,0,0:0:0:70:gs7.wav
402,192,79228,1,0,0:0:0:0:
475,192,79309,1,0,0:0:0:0:
256,192,79309,1,0,0:0:0:0:
182,192,79473,1,8,0:0:0:50:
402,192,79473,1,0,0:0:0:70:c8.wav
329,192,79554,1,0,0:0:0:0:
256,192,79636,1,0,0:0:0:70:gs7.wav
475,192,79636,1,0,0:0:0:0:
182,192,79799,1,8,0:0:0:50:
402,192,79799,1,0,0:0:0:70:gs7.wav
329,192,79880,1,0,0:0:0:0:
475,192,79962,1,0,0:0:0:0:
109,192,79962,1,0,0:0:0:0:
182,192,80125,128,8,81103:0:0:0:50:
256,192,80125,1,0,0:0:0:70:c8.wav
329,192,80125,1,0,0:0:0:0:
402,192,80206,1,0,0:0:0:0:
36,192,80288,1,0,0:0:0:0:
475,192,80288,1,0,0:0:0:0:
109,192,80451,1,8,0:0:0:50:
475,192,80451,1,0,0:0:0:70:d8.wav
402,192,80532,1,0,0:0:0:0:
329,192,80614,1,0,0:0:0:0:
36,192,80614,1,0,0:0:0:0:
256,192,80777,1,8,0:0:0:50:
475,192,80777,1,0,0:0:0:100:f8.wav
36,192,80858,1,0,0:0:0:0:
329,192,80940,1,0,0:0:0:0:
109,192,80940,1,0,0:0:0:0:
475,192,81103,1,8,0:0:0:50:
256,192,81103,1,0,0:0:0:0:
36,192,81103,1,0,0:0:0:0:
329,192,81184,1,0,0:0:0:0:
402,192,81266,1,0,0:0:0:0:
109,192,81266,1,0,0:0:0:0:
256,192,81429,128,8,84038:0:0:0:50:
36,192,81429,1,0,0:0:0:70:gs7.wav
329,192,81429,1,0,0:0:0:0:
475,192,81511,1,0,0:0:0:0:
402,192,81592,1,0,0:0:0:70:c8.wav
109,192,81592,1,0,0:0:0:0:
36,192,81755,1,8,0:0:0:50:
329,192,81755,1,0,0:0:0:70:c8.wav
182,192,81837,1,0,0:0:0:0:
109,192,81918,1,0,0:0:0:0:
475,192,81918,1,0,0:0:0:0:
402,192,82081,1,8,0:0:0:50:
36,192,82081,1,0,0:0:0:70:d8.wav
182,192,82163,1,0,0:0:0:0:
109,192,82244,1,0,0:0:0:70:c8.wav
475,192,82244,1,0,0:0:0:0:
182,192,82407,1,8,0:0:0:50:
329,192,82407,1,0,0:0:0:70:d8.wav
475,192,82489,1,0,0:0:0:0:
109,192,82570,1,0,0:0:0:100:f8.wav
36,192,82570,1,0,0:0:0:0:
475,192,82733,1,8,0:0:0:50:
402,192,82733,1,0,0:0:0:100:fs8.wav
182,192,82815,1,0,0:0:0:0:
329,192,82896,1,0,0:0:0:70:f8.wav
109,192,82896,1,0,0:0:0:0:
36,192,83059,1,8,0:0:0:50:
402,192,83059,1,0,0:0:0:70:d8.wav
475,192,83141,1,0,0:0:0:0:
182,192,83223,1,0,0:0:0:70:c8.wav
329,192,83223,1,0,0:0:0:0:
402,192,83386,1,8,0:0:0:50:
36,192,83386,1,0,0:0:0:0:
109,192,83467,1,0,0:0:0:0:
475,192,83549,1,0,0:0:0:0:
182,192,83549,1,0,0:0:0:0:
109,192,83712,1,8,0:0:0:50:
329,192,83712,1,0,0:0:0:70:gs7.wav
402,192,83793,1,0,0:0:0:0:
182,192,83875,1,0,0:0:0:0:
475,192,83875,1,0,0:0:0:0:
402,192,84038,128,0,85342:0:0:0:70:c8.wav
329,192,84038,1,0,0:0:0:0:
36,192,84038,1,0,0:0:0:0:
36,192,84527,1,0,0:0:0:0:
329,192,84527,1,0,0:0:0:0:
256,192,84608,1,0,0:0:0:0:
182,192,84690,1,0,0:0:0:70:c8.wav
256,192,85016,1,0,0:0:0:70:gs7.wav
182,192,85179,1,0,0:0:0:0:
109,192,85342,128,0,86646:0:0:0:40:kickfast.wav
36,192,85342,1,0,0:0:0:0:
329,192,85342,1,0,0:0:0:0:
475,192,85505,1,0,0:0:0:0:
182,192,85994,1,0,0:0:0:40:kickfast.wav
402,192,85994,1,0,0:0:0:0:
329,192,86157,1,0,0:0:0:0:
475,192,86320,1,0,0:0:0:0:
36,192,86646,1,0,0:0:0:70:bell.wav
329,192,86646,1,0,0:0:0:0:
402,192,86809,1,0,0:0:0:0:
475,192,86973,1,0,0:0:0:0:
256,192,87299,1,0,0:0:0:70:bell.wav
329,192,87462,1,0,0:0:0:70:bell.wav
402,192,87625,1,0,0:0:0:70:bell.wav
182,192,87951,1,0,0:0:0:70:bell.wav
256,192,88114,1,0,0:0:0:70:bell.wav
329,192,88277,1,0,0:0:0:70:bell.wav
109,192,88603,1,0,0:0:0:70:bell.wav
182,192,88766,1,0,0:0:0:70:bell.wav
256,192,88929,1,0,0:0:0:70:bell.wav
475,192,89255,1,0,0:0:0:70:bell.wav
36,192,89255,1,0,0:0:0:0:
402,192,89418,1,0,0:0:0:70:bell.wav
329,192,89581,1,0,0:0:0:70:bell.wav
402,192,89907,1,0,0:0:0:70:bell.wav
329,192,90070,1,0,0:0:0:70:bell.wav
256,192,90233,1,0,0:0:0:70:bell.wav
329,192,90559,1,0,0:0:0:70:bell.wav
256,192,90723,1,0,0:0:0:70:bell.wav
182,192,90886,1,0,0:0:0:70:bell.wav
256,192,91212,1,0,0:0:0:70:bell.wav
182,192,91375,1,0,0:0:0:70:bell.wav
109,192,91538,1,0,0:0:0:70:bell.wav
36,192,91864,1,0,0:0:0:70:bell.wav
402,192,91864,1,0,0:0:0:0:
182,192,92027,1,0,0:0:0:70:bell.wav
329,192,92190,1,0,0:0:0:70:bell.wav
109,192,92516,1,0,0:0:0:70:bell.wav
256,192,92679,1,0,0:0:0:70:bell.wav
402,192,92842,1,0,0:0:0:70:bell.wav
109,192,93168,1,0,0:0:0:70:bell.wav
182,192,93331,1,0,0:0:0:70:bell.wav
256,192,93494,1,0,0:0:0:70:bell.wav
402,192,93820,1,0,0:0:0:70:bell.wav
256,192,93983,1,0,0:0:0:70:bell.wav
109,192,94146,1,0,0:0:0:70:bell.wav
36,192,94473,128,0,95777:0:0:0:70:bell.wav
182,192,94473,1,0,0:0:0:0:
329,192,94636,1,0,0:0:0:70:bell.wav
475,192,94799,1,0,0:0:0:70:bell.wav
402,192,95125,1,0,0:0:0:70:bell.wav
329,192,95288,1,0,0:0:0:70:bell.wav
256,192,95451,1,0,0:0:0:70:bell.wav
182,192,95777,128,0,96429:0:0:0:70:bell.wav
475,192,95777,1,0,0:0:0:0:
402,192,95940,1,0,0:0:0:70:bell.wav
329,192,96103,1,0,0:0:0:70:bell.wav
256,192,96429,1,0,0:0:0:70:bell.wav
329,192,96592,1,0,0:0:0:70:bell.wav
402,192,96755,1,0,0:0:0:70:bell.wav
256,192,97081,128,8,99690:0:0:0:35:
36,192,97081,128,0,97570:0:0:0:70:hat.wav
402,192,97570,128,0,98059:0:0:0:70:hat.wav
109,192,98059,128,8,98549:0:0:0:35:
329,192,98549,128,0,99038:0:0:0:70:hat.wav
109,192,99038,128,8,99201:0:0:0:35:
402,192,99038,1,0,0:0:0:70:hat.wav
36,192,99201,128,0,99364:0:0:0:70:hat.wav
475,192,99201,1,0,0:0:0:0:
109,192,99364,128,8,99527:0:0:0:35:
402,192,99364,1,0,0:0:0:70:hat.wav
182,192,99527,128,0,99690:0:0:0:70:hat.wav
329,192,99527,1,0,0:0:0:0:
402,192,99690,128,8,100179:0:0:0:35:
109,192,100179,128,0,100668:0:0:0:70:hat.wav
475,192,100668,128,8,101157:0:0:0:35:
36,192,101157,128,0,101646:0:0:0:70:hat.wav
402,192,101646,128,8,101809:0:0:0:35:
109,192,101646,1,0,0:0:0:70:hat.wav
475,192,101809,128,0,101973:0:0:0:70:hat.wav
182,192,101809,1,0,0:0:0:0:
402,192,101973,128,8,102136:0:0:0:35:
109,192,101973,1,0,0:0:0:70:hat.wav
329,192,102136,128,0,102299:0:0:0:70:hat.wav
36,192,102136,1,0,0:0:0:0:
256,192,102299,128,8,102788:0:0:0:35:
109,192,102788,128,0,103277:0:0:0:70:hat.wav
402,192,103277,128,8,103766:0:0:0:35:
36,192,103766,128,0,104255:0:0:0:70:hat.wav
182,192,104255,128,8,104418:0:0:0:35:
109,192,104255,1,0,0:0:0:70:hat.wav
329,192,104418,128,0,104581:0:0:0:70:hat.wav
402,192,104418,1,0,0:0:0:0:
182,192,104581,128,8,104744:0:0:0:35:
109,192,104581,1,0,0:0:0:70:hat.wav
329,192,104744,128,0,104907:0:0:0:70:hat.wav
402,192,104744,1,0,0:0:0:0:
256,192,104907,128,0,105886:0:0:0:70:hat.wav
475,192,105396,128,0,106375:0:0:0:70:hat.wav
182,192,105886,128,0,106864:0:0:0:70:hat.wav
36,192,106375,128,0,107353:0:0:0:70:hat.wav
256,192,106864,128,0,107027:0:0:0:70:hat.wav
329,192,107027,128,0,107190:0:0:0:70:hat.wav
402,192,107190,128,0,107353:0:0:0:70:hat.wav
475,192,107353,128,0,107516:0:0:0:70:hat.wav
109,192,107516,1,0,0:0:0:70:cymbals.wav
256,192,107516,1,0,0:0:0:0:
36,192,107516,1,0,0:0:0:0:
329,192,107679,1,0,0:0:0:0:
182,192,107679,1,0,0:0:0:0:
402,192,107842,1,0,0:0:0:0:
256,192,107842,1,0,0:0:0:0:
402,192,108005,1,0,0:0:0:70:bell.wav
182,192,108005,1,0,0:0:0:0:
109,192,108168,1,0,0:0:0:70:bell.wav
475,192,108168,1,0,0:0:0:0:
329,192,108168,1,0,0:0:0:0:
182,192,108331,1,0,0:0:0:70:bell.wav
36,192,108331,1,0,0:0:0:0:
402,192,108494,1,0,0:0:0:0:
109,192,108494,1,0,0:0:0:0:
402,192,108657,1,0,0:0:0:70:bell.wav
182,192,108657,1,0,0:0:0:0:
109,192,108820,1,0,0:0:0:70:bell.wav
256,192,108820,1,0,0:0:0:0:
475,192,108820,1,0,0:0:0:0:
329,192,108983,1,0,0:0:0:70:bell.wav
36,192,108983,1,0,0:0:0:0:
182,192,109146,1,0,0:0:0:0:
475,192,109146,1,0,0:0:0:0:
182,192,109309,1,0,0:0:0:70:bell.wav
256,192,109309,1,0,0:0:0:0:
36,192,109473,1,0,0:0:0:70:bell.wav
402,192,109473,1,0,0:0:0:0:
329,192,109473,1,0,0:0:0:0:
256,192,109636,1,0,0:0:0:70:bell.wav
109,192,109636,1,0,0:0:0:0:
182,192,109799,1,0,0:0:0:0:
36,192,109799,1,0,0:0:0:0:
329,192,109962,1,0,0:0:0:0:
36,192,109962,1,0,0:0:0:0:
475,192,110125,1,0,0:0:0:0:
256,192,110125,1,0,0:0:0:0:
402,192,110125,1,0,0:0:0:0:
182,192,110288,1,0,0:0:0:0:
329,192,110288,1,0,0:0:0:0:
109,192,110451,1,0,0:0:0:0:
256,192,110451,1,0,0:0:0:0:
402,192,110614,1,0,0:0:0:70:bell.wav
109,192,110614,1,0,0:0:0:0:
475,192,110777,1,0,0:0:0:70:bell.wav
256,192,110777,1,0,0:0:0:0:
36,192,110777,1,0,0:0:0:0:
109,192,110940,1,0,0:0:0:70:bell.wav
329,192,110940,1,0,0:0:0:0:
182,192,111103,1,0,0:0:0:0:
402,192,111103,1,0,0:0:0:0:
402,192,111266,1,0,0:0:0:70:bell.wav
109,192,111266,1,0,0:0:0:0:
36,192,111429,128,0,112733:0:0:0:70:bell.wav
182,192,111429,1,0,0:0:0:0:
475,192,111429,1,0,0:0:0:0:
329,192,111429,1,0,0:0:0:0:
256,192,111592,1,0,0:0:0:70:bell.wav
109,192,111592,1,0,0:0:0:0:
402,192,111755,1,0,0:0:0:0:
182,192,111755,1,0,0:0:0:0:
109,192,111918,1,0,0:0:0:70:bell.wav
402,192,111918,1,0,0:0:0:0:
329,192,112081,1,0,0:0:0:70:bell.wav
182,192,112081,1,0,0:0:0:0:
475,192,112081,1,0,0:0:0:0:
402,192,112244,1,0,0:0:0:70:bell.wav
256,192,112244,1,0,0:0:0:0:
329,192,112407,1,0,0:0:0:0:
109,192,112407,1,0,0:0:0:0:
475,192,112570,1,0,0:0:0:0:
109,192,112570,1,0,0:0:0:0:
182,192,112733,128,0,114038:0:0:0:70:bell.wav
256,192,112733,1,0,0:0:0:0:
329,192,112733,1,0,0:0:0:0:
402,192,112733,1,0,0:0:0:0:
109,192,112896,1,0,0:0:0:0:
475,192,112896,1,0,0:0:0:0:
256,192,113059,1,0,0:0:0:0:
36,192,113059,1,0,0:0:0:0:
402,192,113223,1,0,0:0:0:70:bell.wav
36,192,113223,1,0,0:0:0:0:
329,192,113386,1,0,0:0:0:70:bell.wav
109,192,113386,1,0,0:0:0:0:
475,192,113386,1,0,0:0:0:0:
256,192,113549,1,0,0:0:0:70:bell.wav
36,192,113549,1,0,0:0:0:0:
109,192,113712,1,0,0:0:0:0:
402,192,113712,1,0,0:0:0:0:
329,192,113875,1,0,0:0:0:70:bell.wav
109,192,113875,1,0,0:0:0:0:
329,192,114038,128,0,115342:0:0:0:70:bell.wav
256,192,114038,1,0,0:0:0:0:
36,192,114038,1,0,0:0:0:0:
475,192,114038,1,0,0:0:0:0:
109,192,114201,1,0,0:0:0:70:bell.wav
402,192,114201,1,0,0:0:0:0:
182,192,114364,1,0,0:0:0:0:
36,192,114364,1,0,0:0:0:0:
402,192,114527,1,0,0:0:0:70:bell.wav
182,192,114527,1,0,0:0:0:0:
36,192,114690,1,0,0:0:0:70:bell.wav
109,192,114690,1,0,0:0:0:0:
475,192,114690,1,0,0:0:0:0:
402,192,114853,1,0,0:0:0:70:bell.wav
182,192,114853,1,0,0:0:0:0:
475,192,115016,1,0,0:0:0:0:
36,192,115016,1,0,0:0:0:0:
109,192,115179,1,0,0:0:0:0:
36,192,115179,1,0,0:0:0:0:
475,192,115342,128,2,116646:0:0:0:35:
256,192,115342,1,0,0:0:0:0:
182,192,115342,1,0,0:0:0:0:
402,192,115342,1,0,0:0:0:0:
109,192,115505,1,0,0:0:0:0:
329,192,115505,1,0,0:0:0:0:
256,192,115668,1,0,0:0:0:0:
36,192,115668,1,0,0:0:0:0:
329,192,115831,1,0,0:0:0:70:bell.wav
36,192,115831,1,0,0:0:0:0:
109,192,115994,1,0,0:0:0:70:bell.wav
182,192,115994,1,0,0:0:0:0:
402,192,115994,1,0,0:0:0:0:
329,192,116157,1,0,0:0:0:70:bell.wav
36,192,116157,1,0,0:0:0:0:
256,192,116320,1,0,0:0:0:0:
109,192,116320,1,0,0:0:0:0:
329,192,116483,1,0,0:0:0:0:
109,192,116483,1,0,0:0:0:0:
256,192,116646,128,2,117951:0:0:0:0:
402,192,116646,1,0,0:0:0:0:
182,192,116646,1,0,0:0:0:0:
36,192,116646,1,0,0:0:0:0:
109,192,116809,1,0,0:0:0:0:
329,192,116809,1,0,0:0:0:0:
182,192,116973,1,0,0:0:0:0:
402,192,116973,1,0,0:0:0:0:
402,192,117136,1,0,0:0:0:0:
475,192,117136,1,0,0:0:0:0:
36,192,117299,1,0,0:0:0:0:
109,192,117299,1,0,0:0:0:0:
182,192,117299,1,0,0:0:0:0:
475,192,117462,1,0,0:0:0:0:
329,192,117462,1,0,0:0:0:0:
402,192,117625,1,0,0:0:0:0:
109,192,117625,1,0,0:0:0:0:
402,192,117788,1,0,0:0:0:0:
36,192,117788,1,0,0:0:0:0:
475,192,117951,1,8,0:0:0:35:
329,192,117951,1,0,0:0:0:50:before.wav
182,192,117951,1,0,0:0:0:0:
109,192,117951,1,0,0:0:0:0:
36,192,118114,1,0,0:0:0:0:
402,192,118114,1,0,0:0:0:0:
329,192,118277,1,8,0:0:0:35:
475,192,118277,1,8,0:0:0:35:
182,192,118277,1,0,0:0:0:0:
36,192,118440,1,0,0:0:0:0:
182,192,118440,1,0,0:0:0:0:
109,192,118603,1,8,0:0:0:35:
256,192,118603,1,8,0:0:0:35:
475,192,118603,1,0,0:0:0:0:
402,192,118766,1,0,0:0:0:0:
182,192,118766,1,0,0:0:0:0:
329,192,118929,1,8,0:0:0:35:
36,192,118929,1,8,0:0:0:35:
256,192,118929,1,0,0:0:0:0:
256,192,119092,1,0,0:0:0:0:
109,192,119092,1,0,0:0:0:0:
475,192,119255,1,8,0:0:0:35:
182,192,119255,1,8,0:0:0:35:
402,192,119255,1,0,0:0:0:0:
329,192,119418,1,0,0:0:0:0:
109,192,119418,1,0,0:0:0:0:
36,192,119581,1,8,0:0:0:35:
256,192,119581,1,8,0:0:0:35:
475,192,119581,1,0,0:0:0:0:
475,192,119744,1,0,0:0:0:0:
109,192,119744,1,0,0:0:0:0:
256,192,119907,1,8,0:0:0:35:
182,192,119907,1,8,0:0:0:35:
402,192,119907,1,0,0:0:0:0:
109,192,120070,1,0,0:0:0:0:
329,192,120070,1,0,0:0:0:0:
36,192,120233,1,8,0:0:0:35:
475,192,120233,1,8,0:0:0:35:
256,192,120233,1,0,0:0:0:0:
256,192,120396,1,0,0:0:0:0:
182,192,120396,1,0,0:0:0:0:
109,192,120559,1,8,0:0:0:35:
36,192,120559,1,8,0:0:0:35:
402,192,120559,1,0,0:0:0:0:
329,192,120723,1,0,0:0:0:0:
182,192,120723,1,0,0:0:0:0:
475,192,120886,1,8,0:0:0:35:
402,192,120886,1,8,0:0:0:35:
256,192,120886,1,0,0:0:0:0:
36,192,121049,1,0,0:0:0:0:
256,192,121049,1,0,0:0:0:0:
182,192,121212,1,8,0:0:0:35:
109,192,121212,1,8,0:0:0:35:
402,192,121212,1,0,0:0:0:0:
329,192,121375,1,0,0:0:0:0:
475,192,121375,1,0,0:0:0:0:
256,192,121538,1,8,0:0:0:35:
109,192,121538,1,8,0:0:0:35:
36,192,121538,1,0,0:0:0:0:
402,192,121701,1,0,0:0:0:0:
36,192,121701,1,0,0:0:0:0:
329,192,121864,1,8,0:0:0:35:
475,192,121864,1,8,0:0:0:35:
182,192,121864,1,0,0:0:0:0:
36,192,122027,1,0,0:0:0:0:
256,192,122027,1,0,0:0:0:0:
109,192,122190,1,8,0:0:0:35:
402,192,122190,1,8,0:0:0:35:
475,192,122190,1,0,0:0:0:0:
475,192,122353,1,0,0:0:0:0:
182,192,122353,1,0,0:0:0:0:
329,192,122516,1,8,0:0:0:35:
256,192,122516,1,8,0:0:0:35:
36,192,122516,1,0,0:0:0:0:
402,192,122679,1,0,0:0:0:0:
109,192,122679,1,0,0:0:0:0:
329,192,122842,1,8,0:0:0:35:
182,192,122842,1,8,0:0:0:35:
475,192,122842,1,0,0:0:0:0:
475,192,123005,1,0,0:0:0:0:
36,192,123005,1,0,0:0:0:0:
109,192,123168,1,8,0:0:0:35:
182,192,123168,1,8,0:0:0:35:
402,192,123168,1,0,0:0:0:0:
256,192,123331,1,0,0:0:0:0:
475,192,123331,1,0,0:0:0:0:
329,192,123494,1,8,0:0:0:35:
182,192,123494,1,8,0:0:0:35:
36,192,123494,1,0,0:0:0:0:
402,192,123657,1,0,0:0:0:0:
36,192,123657,1,0,0:0:0:0:
475,192,123820,1,8,0:0:0:35:
109,192,123820,1,8,0:0:0:35:
256,192,123820,1,0,0:0:0:0:
36,192,123983,1,0,0:0:0:0:
256,192,123983,1,0,0:0:0:0:
329,192,124146,1,8,0:0:0:35:
182,192,124146,1,8,0:0:0:35:
402,192,124146,1,0,0:0:0:0:
109,192,124309,1,0,0:0:0:0:
402,192,124309,1,0,0:0:0:0:
182,192,124473,1,8,0:0:0:35:
36,192,124473,1,8,0:0:0:35:
475,192,124473,1,0,0:0:0:0:
256,192,124636,1,0,0:0:0:0:
402,192,124636,1,0,0:0:0:0:
36,192,124799,1,8,0:0:0:35:
109,192,124799,1,8,0:0:0:35:
329,192,124799,1,0,0:0:0:0:
329,192,124962,1,0,0:0:0:0:
182,192,124962,1,0,0:0:0:0:
256,192,125125,1,8,0:0:0:35:
109,192,125125,1,8,0:0:0:35:
475,192,125125,1,0,0:0:0:0:
36,192,125288,1,0,0:0:0:0:
329,192,125288,1,0,0:0:0:0:
182,192,125451,1,8,0:0:0:35:
475,192,125451,1,0,0:0:0:70:snarerush.wav
402,192,125451,1,0,0:0:0:0:
109,192,125614,1,0,0:0:0:0:
402,192,125614,1,0,0:0:0:0:
256,192,125777,1,8,0:0:0:35:
36,192,125777,1,8,0:0:0:35:
475,192,125777,1,0,0:0:0:0:
329,192,125940,1,0,0:0:0:0:
109,192,125940,1,0,0:0:0:0:
256,192,126103,1,8,0:0:0:35:
182,192,126103,1,0,0:0:0:70:snarerush.wav
402,192,126103,1,0,0:0:0:0:
402,192,126266,1,0,0:0:0:0:
109,192,126266,1,0,0:0:0:0:
329,192,126429,1,8,0:0:0:35:
182,192,126429,1,8,0:0:0:35:
36,192,126429,1,0,0:0:0:0:
109,192,126592,1,8,0:0:0:35:
475,192,126592,1,0,0:0:0:0:
402,192,126755,1,8,0:0:0:35:
36,192,126755,1,8,0:0:0:0:
256,192,126755,1,0,0:0:0:0:
256,192,126918,1,8,0:0:0:35:
475,192,126918,1,0,0:0:0:70:snarerush.wav
109,192,127081,1,8,0:0:0:0:
36,192,127081,1,8,0:0:0:0:
402,192,127081,1,0,0:0:0:0:
329,192,127244,1,8,0:0:0:35:
182,192,127244,1,0,0:0:0:0:
256,192,127407,1,8,0:0:0:35:
109,192,127407,1,0,0:0:0:70:snarerush.wav
475,192,127407,1,0,0:0:0:0:
36,192,127570,1,0,0:0:0:0:
475,192,127570,1,0,0:0:0:0:
109,192,127733,1,8,0:0:0:35:
182,192,127733,1,8,0:0:0:0:
402,192,127733,1,0,0:0:0:0:
329,192,127896,1,8,0:0:0:35:
36,192,127896,1,0,0:0:0:0:
256,192,128059,1,8,0:0:0:35:
475,192,128059,1,0,0:0:0:70:snarerush.wav
109,192,128059,1,0,0:0:0:0:
109,192,128223,1,0,0:0:0:0:
329,192,128223,1,0,0:0:0:0:
402,192,128386,1,0,0:0:0:70:bell.wav
256,192,128549,1,0,0:0:0:70:bell.wav
109,192,128712,1,0,0:0:0:70:bell.wav
475,192,128875,128,0,129201:0:0:0:70:bell.wav
182,192,129201,1,0,0:0:0:70:bell.wav
36,192,129364,1,0,0:0:0:70:bell.wav
256,192,129690,1,0,0:0:0:0:
36,192,130016,1,0,0:0:0:70:bell.wav
109,192,130342,1,0,0:0:0:70:bell.wav
182,192,130668,1,0,0:0:0:70:bell.wav
475,192,130994,1,0,0:0:0:70:bell.wav
402,192,131157,1,0,0:0:0:70:bell.wav
329,192,131320,1,0,0:0:0:70:bell.wav
109,192,131483,128,0,131809:0:0:0:70:bell.wav
256,192,131809,1,0,0:0:0:70:bell.wav
182,192,131973,1,0,0:0:0:70:bell.wav
402,192,132299,1,0,0:0:0:0:
36,192,132625,1,0,0:0:0:70:bell.wav
182,192,132951,1,0,0:0:0:70:bell.wav
329,192,133277,1,0,0:0:0:70:bell.wav
182,192,133603,1,0,0:0:0:70:bell.wav
109,192,133766,1,0,0:0:0:70:bell.wav
36,192,133929,1,0,0:0:0:70:bell.wav
329,192,134092,128,0,134418:0:0:0:70:bell.wav
109,192,134418,1,0,0:0:0:70:bell.wav
182,192,134581,1,0,0:0:0:70:bell.wav
475,192,134907,1,0,0:0:0:0:
329,192,135233,1,0,0:0:0:70:bell.wav
256,192,135559,1,0,0:0:0:70:bell.wav
182,192,135886,1,0,0:0:0:70:bell.wav
402,192,136212,1,0,0:0:0:70:bell.wav
329,192,136375,1,0,0:0:0:70:bell.wav
256,192,136538,1,0,0:0:0:70:bell.wav
36,192,136701,128,0,137027:0:0:0:70:bell.wav
329,192,137027,1,0,0:0:0:70:bell.wav
402,192,137190,1,0,0:0:0:70:bell.wav
475,192,137516,1,0,0:0:0:0:
256,192,137842,1,0,0:0:0:70:bell.wav
475,192,138168,128,0,138820:0:0:0:70:bell.wav
182,192,138168,1,0,0:0:0:0:
109,192,138494,1,0,0:0:0:70:bell.wav
402,192,138820,1,8,0:0:0:35:
256,192,138820,1,0,0:0:0:70:bell.wav
182,192,138983,1,0,0:0:0:70:bell.wav
402,192,139146,1,8,0:0:0:35:
109,192,139146,1,0,0:0:0:70:bell.wav
36,192,139309,128,0,139636:0:0:0:70:bell.wav
402,192,139473,1,8,0:0:0:35:
475,192,139473,128,0,139799:0:0:0:0:
109,192,139636,1,0,0:0:0:70:bell.wav
402,192,139799,1,8,0:0:0:35:
182,192,139799,1,0,0:0:0:70:bell.wav
36,192,140125,1,8,0:0:0:35:
256,192,140125,1,0,0:0:0:0:
36,192,140451,1,8,0:0:0:35:
475,192,140451,1,0,0:0:0:70:bell.wav
329,192,140777,1,0,0:0:0:70:bell.wav
36,192,140777,1,8,0:0:0:35:
182,192,140777,128,0,141103:0:0:0:0:
36,192,141103,1,8,0:0:0:35:
402,192,141103,1,0,0:0:0:70:bell.wav
475,192,141429,1,8,0:0:0:35:
256,192,141429,1,0,0:0:0:70:bell.wav
182,192,141592,1,0,0:0:0:70:bell.wav
475,192,141755,1,8,0:0:0:35:
109,192,141755,1,0,0:0:0:70:bell.wav
36,192,141918,128,0,142244:0:0:0:70:bell.wav
329,192,142081,128,0,142407:0:0:0:35:
475,192,142081,1,8,0:0:0:0:
109,192,142244,1,0,0:0:0:70:bell.wav
475,192,142407,1,8,0:0:0:35:
182,192,142407,1,0,0:0:0:70:bell.wav
109,192,142733,1,8,0:0:0:35:
402,192,142733,1,0,0:0:0:0:
109,192,143059,1,8,0:0:0:35:
256,192,143059,1,0,0:0:0:70:bell.wav
36,192,143386,128,0,143712:0:0:0:35:
475,192,143386,1,0,0:0:0:70:bell.wav
109,192,143386,1,8,0:0:0:0:
109,192,143712,1,8,0:0:0:35:
329,192,143712,1,0,0:0:0:70:bell.wav
402,192,144038,1,8,0:0:0:35:
182,192,144038,1,0,0:0:0:70:bell.wav
109,192,144201,1,0,0:0:0:70:bell.wav
402,192,144364,1,8,0:0:0:35:
36,192,144364,1,0,0:0:0:70:bell.wav
182,192,144527,128,0,144853:0:0:0:70:bell.wav
329,192,144690,128,0,145016:0:0:0:35:
402,192,144690,1,8,0:0:0:0:
109,192,144853,1,0,0:0:0:70:bell.wav
402,192,145016,1,8,0:0:0:35:
36,192,145016,1,0,0:0:0:70:bell.wav
182,192,145342,1,8,0:0:0:35:
256,192,145342,1,0,0:0:0:0:
182,192,145668,1,8,0:0:0:35:
402,192,145668,1,0,0:0:0:70:bell.wav
36,192,145994,128,0,146320:0:0:0:35:
329,192,145994,1,0,0:0:0:70:bell.wav
182,192,145994,1,8,0:0:0:0:
182,192,146320,1,8,0:0:0:35:
475,192,146320,1,0,0:0:0:70:bell.wav
36,192,146646,128,0,148521:0:0:0:70:bell.wav
109,192,146973,128,0,148929:0:0:0:70:bell.wav
182,192,147299,128,0,148929:0:0:0:70:bell.wav
256,192,147625,128,0,148929:0:0:0:70:bell.wav
329,192,147951,128,0,148929:0:0:0:70:bell.wav
402,192,148277,128,0,148929:0:0:0:70:bell.wav
36,192,148603,128,0,148929:0:0:0:70:bell.wav
475,192,148929,128,0,149092:0:0:0:70:f7.wav
256,192,149255,1,0,0:0:0:70:gs7.wav
36,192,149255,1,8,0:0:0:70:kickfast.wav
402,192,149255,1,0,0:0:0:0:
109,192,149337,1,0,0:0:0:0:
182,192,149418,1,0,0:0:0:70:c8.wav
329,192,149418,1,0,0:0:0:0:
256,192,149581,1,8,0:0:0:50:
475,192,149581,1,0,0:0:0:70:c8.wav
402,192,149663,1,0,0:0:0:0:
329,192,149744,1,0,0:0:0:0:
36,192,149744,1,0,0:0:0:0:
475,192,149907,1,8,0:0:0:50:
182,192,149907,1,0,0:0:0:70:d8.wav
256,192,149989,1,0,0:0:0:0:
329,192,150070,1,0,0:0:0:70:c8.wav
109,192,150070,1,0,0:0:0:0:
182,192,150233,1,8,0:0:0:50:
475,192,150233,1,0,0:0:0:70:d8.wav
402,192,150315,1,0,0:0:0:0:
329,192,150396,1,0,0:0:0:100:f8.wav
36,192,150396,1,0,0:0:0:0:
256,192,150559,1,8,0:0:0:50:
109,192,150559,1,0,0:0:0:100:fs8.wav
36,192,150641,1,0,0:0:0:0:
402,192,150723,1,0,0:0:0:70:f8.wav
182,192,150723,1,0,0:0:0:0:
329,192,150804,1,0,0:0:0:0:
475,192,150886,1,8,0:0:0:50:
109,192,150886,1,0,0:0:0:70:d8.wav
182,192,150967,1,0,0:0:0:0:
256,192,151049,1,0,0:0:0:70:c8.wav
475,192,151049,1,0,0:0:0:0:
402,192,151130,1,0,0:0:0:0:
36,192,151212,1,8,0:0:0:50:
329,192,151212,1,0,0:0:0:0:
182,192,151212,1,0,0:0:0:0:
475,192,151293,1,0,0:0:0:0:
402,192,151375,1,0,0:0:0:0:
109,192,151375,1,0,0:0:0:0:
256,192,151375,1,0,0:0:0:0:
475,192,151538,1,8,0:0:0:50:
36,192,151538,1,0,0:0:0:70:gs7.wav
329,192,151538,1,0,0:0:0:0:
182,192,151619,1,0,0:0:0:0:
329,192,151701,1,0,0:0:0:0:
109,192,151701,1,0,0:0:0:0:
402,192,151701,1,0,0:0:0:0:
256,192,151864,1,8,0:0:0:50:
475,192,151864,1,0,0:0:0:70:c8.wav
402,192,151945,1,0,0:0:0:0:
36,192,152027,1,0,0:0:0:70:gs7.wav
182,192,152027,1,0,0:0:0:0:
329,192,152190,1,8,0:0:0:50:
109,192,152190,1,0,0:0:0:70:gs7.wav
182,192,152271,1,0,0:0:0:0:
256,192,152353,1,0,0:0:0:0:
475,192,152353,1,0,0:0:0:0:
36,192,152516,1,8,0:0:0:50:
402,192,152516,1,0,0:0:0:70:c8.wav
329,192,152598,1,0,0:0:0:0:
109,192,152679,1,0,0:0:0:70:gs7.wav
256,192,152679,1,0,0:0:0:0:
182,192,152842,1,8,0:0:0:50:
475,192,152842,1,0,0:0:0:70:gs7.wav
402,192,152924,1,0,0:0:0:0:
329,192,153005,1,0,0:0:0:0:
36,192,153005,1,0,0:0:0:0:
475,192,153168,1,8,0:0:0:50:
109,192,153168,1,0,0:0:0:70:c8.wav
182,192,153250,1,0,0:0:0:0:
256,192,153331,1,0,0:0:0:0:
402,192,153331,1,0,0:0:0:0:
475,192,153413,1,0,0:0:0:0:
109,192,153494,1,8,0:0:0:50:
329,192,153494,1,0,0:0:0:70:d8.wav
402,192,153576,1,0,0:0:0:0:
182,192,153657,1,0,0:0:0:0:
36,192,153657,1,0,0:0:0:0:
329,192,153739,1,0,0:0:0:0:
256,192,153820,1,8,0:0:0:50:
475,192,153820,1,0,0:0:0:100:f8.wav
36,192,153820,1,0,0:0:0:0:
109,192,153902,1,0,0:0:0:0:
182,192,153983,1,0,0:0:0:0:
402,192,153983,1,0,0:0:0:0:
329,192,153983,1,0,0:0:0:0:
256,192,154146,1,8,0:0:0:50:
475,192,154146,1,0,0:0:0:0:
36,192,154146,1,0,0:0:0:0:
109,192,154228,1,0,0:0:0:0:
402,192,154309,1,0,0:0:0:0:
182,192,154309,1,0,0:0:0:0:
329,192,154309,1,0,0:0:0:0:
109,192,154473,1,8,0:0:0:50:
256,192,154473,1,0,0:0:0:70:gs7.wav
402,192,154554,1,0,0:0:0:0:
36,192,154636,1,0,0:0:0:70:c8.wav
329,192,154636,1,0,0:0:0:0:
182,192,154799,1,8,0:0:0:50:
475,192,154799,1,0,0:0:0:70:c8.wav
329,192,154880,1,0,0:0:0:0:
109,192,154962,1,0,0:0:0:0:
36,192,154962,1,0,0:0:0:0:
402,192,155125,1,8,0:0:0:50:
256,192,155125,1,0,0:0:0:70:d8.wav
182,192,155206,1,0,0:0:0:0:
329,192,155288,1,0,0:0:0:70:c8.wav
475,192,155288,1,0,0:0:0:0:
36,192,155451,1,8,0:0:0:50:
256,192,155451,1,0,0:0:0:70:d8.wav
329,192,155532,1,0,0:0:0:0:
402,192,155614,1,0,0:0:0:100:f8.wav
109,192,155614,1,0,0:0:0:0:
182,192,155777,1,8,0:0:0:50:
475,192,155777,1,0,0:0:0:100:fs8.wav
329,192,155858,1,0,0:0:0:0:
109,192,155940,1,0,0:0:0:70:f8.wav
256,192,155940,1,0,0:0:0:0:
329,192,156021,1,0,0:0:0:0:
402,192,156103,1,8,0:0:0:50:
182,192,156103,1,0,0:0:0:70:d8.wav
36,192,156184,1,0,0:0:0:0:
256,192,156266,1,0,0:0:0:70:c8.wav
109,192,156266,1,0,0:0:0:0:
475,192,156348,1,0,0:0:0:0:
402,192,156429,1,8,0:0:0:50:
329,192,156429,1,0,0:0:0:0:
36,192,156429,1,0,0:0:0:0:
182,192,156511,1,0,0:0:0:0:
109,192,156592,1,0,0:0:0:0:
475,192,156592,1,0,0:0:0:0:
256,192,156592,1,0,0:0:0:0:
402,192,156755,1,8,0:0:0:50:
182,192,156755,1,0,0:0:0:70:gs7.wav
329,192,156755,1,0,0:0:0:0:
36,192,156837,1,0,0:0:0:0:
475,192,156918,1,0,0:0:0:0:
256,192,156918,1,0,0:0:0:0:
109,192,156918,1,0,0:0:0:0:
329,192,157081,1,8,0:0:0:50:
182,192,157081,1,0,0:0:0:70:c8.wav
36,192,157163,1,0,0:0:0:0:
109,192,157244,1,0,0:0:0:70:gs7.wav
475,192,157244,1,0,0:0:0:0:
256,192,157244,1,0,0:0:0:0:
36,192,157407,1,8,0:0:0:50:
329,192,157407,1,0,0:0:0:70:gs7.wav
402,192,157489,1,0,0:0:0:0:
475,192,157570,1,0,0:0:0:0:
256,192,157570,1,0,0:0:0:0:
182,192,157570,1,0,0:0:0:0:
109,192,157733,1,8,0:0:0:50:
329,192,157733,1,0,0:0:0:70:c8.wav
256,192,157815,1,0,0:0:0:0:
36,192,157896,1,0,0:0:0:70:gs7.wav
402,192,157896,1,0,0:0:0:0:
475,192,157896,1,0,0:0:0:0:
182,192,158059,1,8,0:0:0:50:
475,192,158059,1,0,0:0:0:70:gs7.wav
402,192,158141,1,0,0:0:0:0:
329,192,158223,1,0,0:0:0:0:
109,192,158223,1,0,0:0:0:0:
256,192,158223,1,0,0:0:0:0:
402,192,158386,1,8,0:0:0:50:
36,192,158386,1,0,0:0:0:70:c8.wav
109,192,158467,1,0,0:0:0:0:
256,192,158549,1,0,0:0:0:0:
475,192,158549,1,0,0:0:0:0:
329,192,158549,1,0,0:0:0:0:
182,192,158630,1,0,0:0:0:0:
402,192,158712,1,8,0:0:0:50:
36,192,158712,1,0,0:0:0:70:d8.wav
109,192,158793,1,0,0:0:0:0:
182,192,158875,1,0,0:0:0:0:
329,192,158875,1,0,0:0:0:0:
475,192,158875,1,0,0:0:0:0:
36,192,158956,1,0,0:0:0:0:
402,192,159038,1,8,0:0:0:50:
475,192,159038,1,0,0:0:0:100:f8.wav
329,192,159092,1,0,0:0:0:40:kickfast.wav
256,192,159146,1,0,0:0:0:40:kickfast.wav
182,192,159201,1,0,0:0:0:40:kickfast.wav
475,192,159201,1,0,0:0:0:0:
109,192,159255,1,0,0:0:0:40:kickfast.wav
36,192,159364,1,0,0:0:0:20:snarerush.wav
329,192,159364,1,0,0:0:0:0:
402,192,159445,1,0,0:0:0:20:snarerush.wav
475,192,159527,1,0,0:0:0:20:snarerush.wav
182,192,159527,1,0,0:0:0:40:kickfast.wav
256,192,159581,1,0,0:0:0:40:kickfast.wav
329,192,159636,1,0,0:0:0:40:kickfast.wav
402,192,159690,1,8,0:0:0:50:
109,192,159690,1,0,0:0:0:70:gs7.wav
36,192,159690,128,0,160994:0:0:0:0:
182,192,159771,1,0,0:0:0:0:
256,192,159853,1,0,0:0:0:70:c8.wav
475,192,159853,1,0,0:0:0:0:
402,192,160016,1,8,0:0:0:50:
329,192,160016,1,0,0:0:0:70:c8.wav
256,192,160098,1,0,0:0:0:0:
182,192,160179,1,0,0:0:0:0:
109,192,160179,1,0,0:0:0:0:
475,192,160342,1,8,0:0:0:50:
329,192,160342,1,0,0:0:0:70:d8.wav
256,192,160424,1,0,0:0:0:0:
182,192,160505,1,0,0:0:0:70:c8.wav
402,192,160505,1,0,0:0:0:0:
109,192,160668,1,8,0:0:0:50:
256,192,160668,1,0,0:0:0:70:d8.wav
329,192,160750,1,0,0:0:0:0:
402,192,160831,1,0,0:0:0:100:f8.wav
182,192,160831,1,0,0:0:0:0:
256,192,160994,1,8,0:0:0:50:
329,192,160994,128,0,161973:0:0:0:100:fs8.wav
475,192,160994,1,0,0:0:0:0:
109,192,161076,1,0,0:0:0:0:
182,192,161157,1,0,0:0:0:70:f8.wav
402,192,161157,1,0,0:0:0:0:
256,192,161239,1,0,0:0:0:0:
36,192,161320,1,8,0:0:0:50:
109,192,161320,1,0,0:0:0:70:d8.wav
256,192,161402,1,0,0:0:0:0:
182,192,161483,1,0,0:0:0:70:c8.wav
475,192,161483,1,0,0:0:0:0:
402,192,161565,1,0,0:0:0:0:
256,192,161646,1,8,0:0:0:50:
109,192,161646,1,0,0:0:0:0:
36,192,161728,1,0,0:0:0:0:
182,192,161809,1,0,0:0:0:0:
402,192,161809,1,0,0:0:0:0:
109,192,161891,1,0,0:0:0:0:
475,192,161973,1,8,0:0:0:50:
36,192,161973,1,0,0:0:0:70:gs7.wav
182,192,162054,1,0,0:0:0:0:
256,192,162136,1,0,0:0:0:0:
402,192,162136,1,0,0:0:0:0:
109,192,162217,1,0,0:0:0:0:
329,192,162299,1,8,0:0:0:50:
182,192,162299,128,0,163603:0:0:0:70:c8.wav
36,192,162299,1,0,0:0:0:0:
475,192,162380,1,0,0:0:0:0:
256,192,162462,1,0,0:0:0:70:gs7.wav
109,192,162462,1,0,0:0:0:0:
36,192,162625,1,8,0:0:0:50:
402,192,162625,1,0,0:0:0:70:gs7.wav
475,192,162706,1,0,0:0:0:0:
329,192,162788,1,0,0:0:0:0:
256,192,162788,1,0,0:0:0:0:
109,192,162951,1,8,0:0:0:50:
475,192,162951,1,0,0:0:0:70:c8.wav
402,192,163032,1,0,0:0:0:0:
256,192,163114,1,0,0:0:0:70:gs7.wav
329,192,163114,1,0,0:0:0:0:
36,192,163277,1,8,0:0:0:50:
109,192,163277,1,0,0:0:0:70:gs7.wav
475,192,163358,1,0,0:0:0:0:
329,192,163440,1,0,0:0:0:0:
256,192,163440,1,0,0:0:0:0:
402,192,163603,1,8,0:0:0:50:
475,192,163603,128,0,164581:0:0:0:70:c8.wav
36,192,163603,1,0,0:0:0:0:
109,192,163684,1,0,0:0:0:0:
256,192,163766,1,0,0:0:0:0:
329,192,163766,1,0,0:0:0:0:
182,192,163848,1,0,0:0:0:0:
402,192,163929,1,8,0:0:0:50:
36,192,163929,1,0,0:0:0:70:d8.wav
109,192,164011,1,0,0:0:0:0:
329,192,164092,1,0,0:0:0:0:
182,192,164092,1,0,0:0:0:0:
256,192,164174,1,0,0:0:0:0:
402,192,164255,1,8,0:0:0:50:
182,192,164255,1,0,0:0:0:100:f8.wav
36,192,164337,1,0,0:0:0:0:
109,192,164418,1,0,0:0:0:0:
329,192,164418,1,0,0:0:0:0:
256,192,164500,1,0,0:0:0:0:
182,192,164581,1,8,0:0:0:50:
402,192,164581,1,0,0:0:0:0:
329,192,164663,1,0,0:0:0:0:
36,192,164744,1,0,0:0:0:0:
402,192,164744,1,0,0:0:0:0:
109,192,164826,1,0,0:0:0:0:
475,192,164907,1,8,0:0:0:50:
256,192,164907,128,0,167516:0:0:0:70:gs7.wav
182,192,164907,1,0,0:0:0:0:
36,192,164989,1,0,0:0:0:0:
109,192,165070,1,0,0:0:0:70:c8.wav
402,192,165070,1,0,0:0:0:0:
182,192,165233,1,8,0:0:0:50:
329,192,165233,1,0,0:0:0:70:c8.wav
475,192,165315,1,0,0:0:0:0:
402,192,165396,1,0,0:0:0:0:
36,192,165396,1,0,0:0:0:0:
475,192,165559,1,8,0:0:0:50:
329,192,165559,1,0,0:0:0:70:d8.wav
182,192,165641,1,0,0:0:0:0:
402,192,165723,1,0,0:0:0:70:c8.wav
109,192,165723,1,0,0:0:0:0:
182,192,165886,1,8,0:0:0:50:
36,192,165886,1,0,0:0:0:70:d8.wav
475,192,165967,1,0,0:0:0:0:
402,192,166049,1,0,0:0:0:100:f8.wav
329,192,166049,1,0,0:0:0:0:
475,192,166212,1,8,0:0:0:50:
36,192,166212,1,0,0:0:0:100:fs8.wav
109,192,166293,1,0,0:0:0:0:
475,192,166375,1,0,0:0:0:70:f8.wav
329,192,166375,1,0,0:0:0:0:
402,192,166456,1,0,0:0:0:0:
182,192,166538,1,8,0:0:0:50:
36,192,166538,1,0,0:0:0:70:d8.wav
109,192,166619,1,0,0:0:0:0:
182,192,166701,1,0,0:0:0:70:c8.wav
475,192,166701,1,0,0:0:0:0:
402,192,166782,1,0,0:0:0:0:
329,192,166864,1,8,0:0:0:50:
36,192,166864,1,0,0:0:0:0:
109,192,166945,1,0,0:0:0:0:
475,192,167027,1,0,0:0:0:0:
182,192,167027,1,0,0:0:0:0:
402,192,167108,1,0,0:0:0:0:
36,192,167190,1,8,0:0:0:50:
475,192,167190,1,0,0:0:0:70:gs7.wav
182,192,167271,1,0,0:0:0:0:
36,192,167353,1,0,0:0:0:0:
329,192,167353,1,0,0:0:0:0:
109,192,167434,1,0,0:0:0:0:
402,192,167516,128,0,168820:0:0:0:70:c8.wav
182,192,167516,1,0,0:0:0:0:
475,192,167516,128,0,168005:0:0:0:0:
256,192,168005,1,0,0:0:0:0:
329,192,168168,128,0,168494:0:0:0:70:c8.wav
182,192,168494,1,0,0:0:0:70:gs7.wav
475,192,168820,128,0,170125:0:0:0:40:kickfast.wav
109,192,168820,1,0,0:0:0:0:
256,192,168983,128,0,169473:0:0:0:0:
402,192,169473,1,0,0:0:0:40:kickfast.wav
329,192,169636,1,0,0:0:0:0:
182,192,169799,128,0,170125:0:0:0:0:
36,192,170125,1,0,0:0:0:70:gs7.wav
256,192,170125,1,0,0:0:0:70:bell.wav
109,192,170288,1,0,0:0:0:70:c8.wav
329,192,170288,1,0,0:0:0:70:bell.wav
182,192,170451,1,0,0:0:0:70:c8.wav
402,192,170451,1,0,0:0:0:70:bell.wav
402,192,170777,1,0,0:0:0:70:d8.wav
182,192,170777,1,0,0:0:0:70:bell.wav
329,192,170940,1,0,0:0:0:70:c8.wav
109,192,170940,1,0,0:0:0:70:bell.wav
256,192,171103,1,0,0:0:0:70:d8.wav
36,192,171103,1,0,0:0:0:70:bell.wav
182,192,171266,1,0,0:0:0:100:f8.wav
36,192,171429,1,0,0:0:0:100:fs8.wav
329,192,171429,1,0,0:0:0:70:bell.wav
109,192,171592,1,0,0:0:0:70:f8.wav
402,192,171592,1,0,0:0:0:70:bell.wav
182,192,171755,1,0,0:0:0:70:d8.wav
475,192,171755,1,0,0:0:0:70:bell.wav
256,192,171918,1,0,0:0:0:70:c8.wav
402,192,172081,1,0,0:0:0:70:bell.wav
329,192,172244,1,0,0:0:0:70:bell.wav
109,192,172407,1,0,0:0:0:70:f7.wav
256,192,172407,1,0,0:0:0:70:bell.wav
109,192,172733,1,0,0:0:0:70:bell.wav
329,192,172733,1,0,0:0:0:70:c8.wav
36,192,172733,128,0,174690:0:0:0:0:
402,192,172896,1,0,0:0:0:70:gs7.wav
182,192,172896,1,0,0:0:0:70:bell.wav
475,192,173059,1,0,0:0:0:70:gs7.wav
256,192,173059,1,0,0:0:0:70:bell.wav
256,192,173386,1,0,0:0:0:70:c8.wav
475,192,173386,1,0,0:0:0:70:bell.wav
182,192,173549,1,0,0:0:0:70:gs7.wav
402,192,173549,1,0,0:0:0:70:bell.wav
109,192,173712,1,0,0:0:0:70:gs7.wav
329,192,173712,1,0,0:0:0:70:bell.wav
475,192,174038,1,0,0:0:0:70:c8.wav
329,192,174038,1,0,0:0:0:70:bell.wav
256,192,174201,1,0,0:0:0:70:bell.wav
402,192,174364,1,0,0:0:0:70:d8.wav
182,192,174364,1,0,0:0:0:70:bell.wav
329,192,174690,1,0,0:0:0:100:f8.wav
109,192,174690,1,0,0:0:0:70:bell.wav
182,192,174853,1,0,0:0:0:70:bell.wav
256,192,175016,1,0,0:0:0:70:bell.wav
182,192,175342,1,0,0:0:0:70:gs7.wav
329,192,175342,1,0,0:0:0:70:bell.wav
475,192,175342,128,0,177299:0:0:0:0:
109,192,175505,1,0,0:0:0:70:c8.wav
256,192,175505,1,0,0:0:0:70:bell.wav
36,192,175668,1,0,0:0:0:70:c8.wav
182,192,175668,1,0,0:0:0:70:bell.wav
256,192,175994,1,0,0:0:0:70:d8.wav
402,192,175994,1,0,0:0:0:70:bell.wav
182,192,176157,1,0,0:0:0:70:c8.wav
329,192,176157,1,0,0:0:0:70:bell.wav
109,192,176320,1,0,0:0:0:70:d8.wav
256,192,176320,1,0,0:0:0:70:bell.wav
36,192,176483,1,0,0:0:0:100:f8.wav
109,192,176646,1,0,0:0:0:100:fs8.wav
256,192,176646,1,0,0:0:0:70:bell.wav
182,192,176809,1,0,0:0:0:70:f8.wav
329,192,176809,1,0,0:0:0:70:bell.wav
256,192,176973,1,0,0:0:0:70:d8.wav
402,192,176973,1,0,0:0:0:70:bell.wav
329,192,177136,1,0,0:0:0:70:c8.wav
36,192,177299,1,0,0:0:0:70:bell.wav
256,192,177299,128,0,180233:0:0:0:0:
109,192,177462,1,0,0:0:0:70:bell.wav
402,192,177625,1,0,0:0:0:70:f7.wav
182,192,177625,1,0,0:0:0:70:bell.wav
36,192,177951,1,0,0:0:0:70:c8.wav
329,192,177951,1,0,0:0:0:70:bell.wav
109,192,178114,1,0,0:0:0:70:gs7.wav
402,192,178114,1,0,0:0:0:70:bell.wav
182,192,178277,1,0,0:0:0:70:gs7.wav
475,192,178277,1,0,0:0:0:70:bell.wav
329,192,178603,1,0,0:0:0:70:c8.wav
182,192,178603,1,0,0:0:0:70:bell.wav
402,192,178766,1,0,0:0:0:70:gs7.wav
109,192,178766,1,0,0:0:0:70:bell.wav
475,192,178929,1,0,0:0:0:70:gs7.wav
36,192,178929,1,0,0:0:0:70:bell.wav
402,192,179255,128,0,179907:0:0:0:0:
36,192,179255,1,0,0:0:0:70:c8.wav
109,192,179581,1,0,0:0:0:70:d8.wav
475,192,179907,128,0,180233:0:0:0:0:
182,192,179907,1,0,0:0:0:100:f8.wav
329,192,180233,1,0,0:0:0:70:cymbals.wav
36,192,180233,1,0,0:0:0:0:
109,192,180233,1,0,0:0:0:0:
402,192,180233,128,0,180559:0:0:0:0:
109,192,180559,1,0,0:0:0:0:
256,192,180559,1,0,0:0:0:70:gs7.wav
475,192,180559,128,0,182516:0:0:0:0:
329,192,180723,1,0,0:0:0:70:c8.wav
182,192,180723,1,0,0:0:0:0:
402,192,180886,1,0,0:0:0:70:c8.wav
256,192,180886,1,0,0:0:0:0:
182,192,181212,1,0,0:0:0:70:d8.wav
36,192,181212,1,0,0:0:0:0:
256,192,181375,1,0,0:0:0:70:c8.wav
109,192,181375,1,0,0:0:0:0:
329,192,181538,1,0,0:0:0:70:d8.wav
182,192,181538,1,0,0:0:0:0:
402,192,181701,1,0,0:0:0:100:f8.wav
256,192,181701,1,0,0:0:0:0:
182,192,181864,1,0,0:0:0:100:fs8.wav
329,192,181864,1,0,0:0:0:0:
109,192,182027,1,0,0:0:0:70:f8.wav
256,192,182027,1,0,0:0:0:0:
36,192,182190,1,0,0:0:0:70:d8.wav
182,192,182190,1,0,0:0:0:0:
109,192,182353,1,0,0:0:0:70:c8.wav
256,192,182353,1,0,0:0:0:0:
329,192,182842,128,0,183168:0:0:0:70:f7.wav
402,192,182842,1,0,0:0:0:70:cymbals.wav
475,192,182842,1,0,0:0:0:0:
256,192,183168,1,0,0:0:0:70:c8.wav
475,192,183168,1,0,0:0:0:0:
36,192,183168,128,0,184473:0:0:0:0:
182,192,183331,1,0,0:0:0:70:gs7.wav
402,192,183331,1,0,0:0:0:0:
109,192,183494,1,0,0:0:0:70:gs7.wav
329,192,183494,1,0,0:0:0:0:
475,192,183820,1,0,0:0:0:70:c8.wav
256,192,183820,1,0,0:0:0:0:
402,192,183983,1,0,0:0:0:70:gs7.wav
182,192,183983,1,0,0:0:0:0:
329,192,184146,1,0,0:0:0:70:gs7.wav
109,192,184146,1,0,0:0:0:0:
109,192,184473,1,0,0:0:0:70:c8.wav
182,192,184473,1,0,0:0:0:0:
182,192,184799,1,0,0:0:0:70:d8.wav
256,192,184799,1,0,0:0:0:70:hat.wav
256,192,185125,1,0,0:0:0:100:f8.wav
329,192,185125,1,0,0:0:0:0:
109,192,185451,128,0,185777:0:0:0:70:cymbals.wav
402,192,185777,1,0,0:0:0:0:
182,192,185777,1,0,0:0:0:70:gs7.wav
475,192,185777,128,0,187733:0:0:0:0:
109,192,185940,1,0,0:0:0:70:c8.wav
329,192,185940,1,0,0:0:0:0:
36,192,186103,1,0,0:0:0:70:c8.wav
256,192,186103,1,0,0:0:0:0:
402,192,186429,1,0,0:0:0:70:d8.wav
256,192,186429,1,0,0:0:0:0:
329,192,186592,1,0,0:0:0:70:c8.wav
182,192,186592,1,0,0:0:0:0:
256,192,186755,1,0,0:0:0:70:d8.wav
109,192,186755,1,0,0:0:0:0:
182,192,186918,1,0,0:0:0:100:f8.wav
36,192,186918,1,0,0:0:0:0:
109,192,187081,1,0,0:0:0:100:fs8.wav
256,192,187081,1,0,0:0:0:0:
182,192,187244,1,0,0:0:0:70:f8.wav
329,192,187244,1,0,0:0:0:0:
256,192,187407,1,0,0:0:0:70:d8.wav
402,192,187407,1,0,0:0:0:0:
329,192,187570,1,0,0:0:0:70:c8.wav
182,192,187570,1,0,0:0:0:0:
256,192,188059,128,0,188386:0:0:0:70:f7.wav
109,192,188059,1,0,0:0:0:0:
402,192,188059,1,0,0:0:0:0:
182,192,188386,1,0,0:0:0:0:
402,192,188386,1,0,0:0:0:0:
36,192,188386,1,0,0:0:0:100:LR_Tom Hit.wav
329,192,188386,128,0,190342:0:0:0:0:
36,192,188712,1,0,0:0:0:100:LR_Tom Hit.wav
182,192,188712,1,0,0:0:0:0:
475,192,188712,1,0,0:0:0:0:
402,192,188875,1,0,0:0:0:0:
36,192,189038,1,0,0:0:0:100:LR_Tom Hit.wav
182,192,189038,1,0,0:0:0:0:
256,192,189038,1,0,0:0:0:0:
475,192,189038,128,0,189364:0:0:0:0:
402,192,189201,1,0,0:0:0:0:
36,192,189364,1,0,0:0:0:100:LR_Tom Hit.wav
182,192,189364,1,0,0:0:0:0:
256,192,189364,1,0,0:0:0:0:
402,192,189690,1,0,0:0:0:100:kickfast.wav
109,192,189690,1,0,0:0:0:100:LR_Tom Hit.wav
36,192,189690,1,0,0:0:0:0:
475,192,189853,1,0,0:0:0:0:
109,192,190016,1,0,0:0:0:100:LR_Tom Hit.wav
36,192,190016,1,0,0:0:0:0:
256,192,190016,1,0,0:0:0:0:
475,192,190179,1,0,0:0:0:0:
36,192,190342,1,0,0:0:0:0:
256,192,190342,1,0,0:0:0:0:
109,192,190342,1,0,0:0:0:100:LR_Tom Hit.wav
402,192,190342,128,0,190668:0:0:0:0:
109,192,190668,1,0,0:0:0:100:LR_Tom Hit.wav
36,192,190668,1,0,0:0:0:0:
329,192,190668,1,0,0:0:0:0:
256,192,190831,1,0,0:0:0:0:
402,192,190994,1,0,0:0:0:100:kickfast.wav
475,192,190994,1,0,0:0:0:100:LR_Tom Hit.wav
182,192,190994,1,0,0:0:0:0:
109,192,191157,1,0,0:0:0:0:
36,192,191320,1,0,0:0:0:0:
475,192,191320,1,0,0:0:0:100:LR_Tom Hit.wav
402,192,191320,1,0,0:0:0:0:
109,192,191483,1,0,0:0:0:0:
256,192,191646,1,0,0:0:0:0:
475,192,191646,1,0,0:0:0:100:LR_Tom Hit.wav
402,192,191646,1,0,0:0:0:0:
182,192,191646,128,0,191973:0:0:0:0:
109,192,191809,1,0,0:0:0:0:
36,192,191973,1,0,0:0:0:0:
402,192,191973,1,0,0:0:0:0:
475,192,191973,1,0,0:0:0:100:LR_Tom Hit.wav
109,192,192136,1,0,0:0:0:0:
329,192,192299,1,0,0:0:0:100:kickfast.wav
402,192,192299,1,0,0:0:0:100:LR_Tom Hit.wav
182,192,192299,1,0,0:0:0:0:
109,192,192462,1,0,0:0:0:70:hat.wav
402,192,192625,1,0,0:0:0:100:LR_Tom Hit.wav
36,192,192625,1,0,0:0:0:0:
329,192,192625,1,0,0:0:0:0:
109,192,192788,1,0,0:0:0:70:hat.wav
182,192,192951,1,0,0:0:0:0:
402,192,192951,1,0,0:0:0:100:LR_Tom Hit.wav
329,192,192951,1,0,0:0:0:0:
36,192,192951,128,0,193277:0:0:0:0:
109,192,193114,1,0,0:0:0:70:hat.wav
182,192,193277,1,0,0:0:0:0:
329,192,193277,1,0,0:0:0:0:
402,192,193277,1,0,0:0:0:100:LR_Tom Hit.wav
256,192,193440,1,0,0:0:0:70:hat.wav
256,192,193603,1,0,0:0:0:20:kickfast.wav
36,192,193603,1,0,0:0:0:20:kickfast.wav
329,192,193684,1,0,0:0:0:0:
109,192,193684,1,0,0:0:0:0:
402,192,193766,1,8,0:0:0:50:
182,192,193766,1,0,0:0:0:0:
475,192,193929,1,0,0:0:0:20:kickfast.wav
256,192,193929,1,0,0:0:0:20:kickfast.wav
402,192,194011,1,0,0:0:0:0:
182,192,194011,1,0,0:0:0:0:
329,192,194092,1,8,0:0:0:50:
109,192,194092,1,0,0:0:0:0:
36,192,194255,128,0,194581:0:0:0:20:kickfast.wav
256,192,194255,1,0,0:0:0:20:kickfast.wav
329,192,194337,1,0,0:0:0:0:
402,192,194418,1,8,0:0:0:50:
182,192,194581,1,0,0:0:0:20:kickfast.wav
256,192,194663,1,0,0:0:0:0:
329,192,194744,1,8,0:0:0:50:
36,192,194907,1,0,0:0:0:20:kickfast.wav
256,192,194907,1,0,0:0:0:20:kickfast.wav
109,192,194989,1,0,0:0:0:0:
329,192,194989,1,0,0:0:0:0:
182,192,195070,1,8,0:0:0:50:
402,192,195070,1,0,0:0:0:0:
109,192,195233,1,0,0:0:0:20:kickfast.wav
329,192,195233,1,0,0:0:0:20:kickfast.wav
182,192,195315,1,0,0:0:0:0:
402,192,195315,1,0,0:0:0:0:
256,192,195396,1,8,0:0:0:50:
475,192,195396,1,0,0:0:0:0:
402,192,195559,128,0,195886:0:0:0:20:kickfast.wav
36,192,195559,1,0,0:0:0:20:kickfast.wav
109,192,195641,1,0,0:0:0:0:
182,192,195723,1,8,0:0:0:50:
329,192,195886,1,0,0:0:0:20:kickfast.wav
256,192,195967,1,0,0:0:0:0:
182,192,196049,1,8,0:0:0:50:
109,192,196212,1,0,0:0:0:20:kickfast.wav
402,192,196293,1,0,0:0:0:0:
36,192,196375,1,8,0:0:0:50:
475,192,196456,1,0,0:0:0:0:
109,192,196538,1,0,0:0:0:20:kickfast.wav
402,192,196619,1,0,0:0:0:0:
182,192,196701,1,8,0:0:0:50:
329,192,196782,1,0,0:0:0:0:
256,192,196864,128,0,197190:0:0:0:20:kickfast.wav
109,192,196864,1,0,0:0:0:20:kickfast.wav
402,192,196945,1,0,0:0:0:0:
36,192,197027,1,8,0:0:0:50:
475,192,197108,1,0,0:0:0:0:
109,192,197190,1,0,0:0:0:20:kickfast.wav
402,192,197271,1,0,0:0:0:0:
182,192,197353,1,8,0:0:0:50:
329,192,197434,1,0,0:0:0:0:
36,192,197516,1,0,0:0:0:20:snarerush.wav
182,192,197557,1,0,0:0:0:20:snarerush.wav
329,192,197598,1,0,0:0:0:20:snarerush.wav
475,192,197638,1,0,0:0:0:20:snarerush.wav
402,192,197679,1,0,0:0:0:20:snarerush.wav
329,192,197720,1,0,0:0:0:20:snarerush.wav
182,192,197761,1,0,0:0:0:20:snarerush.wav
109,192,197801,1,0,0:0:0:20:snarerush.wav
36,192,197842,1,0,0:0:0:20:snarerush.wav
475,192,197842,1,0,0:0:0:20:snarerush.wav
402,192,197883,1,0,0:0:0:20:snarerush.wav
329,192,197924,1,0,0:0:0:20:snarerush.wav
256,192,197964,1,0,0:0:0:20:snarerush.wav
182,192,198005,1,0,0:0:0:20:snarerush.wav
109,192,198046,1,0,0:0:0:20:snarerush.wav
36,192,198087,1,0,0:0:0:20:snarerush.wav
402,192,198127,1,0,0:0:0:20:snarerush.wav
475,192,198168,128,0,198494:0:0:0:0:
256,192,198168,1,0,0:0:0:20:snarerush.wav
36,192,198209,1,0,0:0:0:20:snarerush.wav
109,192,198250,1,0,0:0:0:20:snarerush.wav
182,192,198290,1,0,0:0:0:20:snarerush.wav
329,192,198331,1,0,0:0:0:20:snarerush.wav
256,192,198372,1,0,0:0:0:20:snarerush.wav
182,192,198413,1,0,0:0:0:20:snarerush.wav
109,192,198454,1,0,0:0:0:20:snarerush.wav
36,192,198494,1,0,0:0:0:20:snarerush.wav
36,192,198820,1,8,0:0:0:50:
402,192,198820,1,8,0:0:0:70:kickfast.wav
329,192,198902,1,0,0:0:0:0:
256,192,198983,1,0,0:0:0:70:c8.wav
109,192,198983,1,0,0:0:0:0:
36,192,199065,1,0,0:0:0:0:
182,192,199146,1,8,0:0:0:50:
475,192,199146,1,8,0:0:0:50:
402,192,199228,1,0,0:0:0:0:
36,192,199309,1,0,0:0:0:0:
256,192,199309,1,0,0:0:0:0:
329,192,199391,1,0,0:0:0:0:
182,192,199473,1,8,0:0:0:50:
475,192,199473,1,8,0:0:0:50:
402,192,199554,1,0,0:0:0:0:
329,192,199636,1,0,0:0:0:70:c8.wav
109,192,199636,1,0,0:0:0:0:
182,192,199717,1,0,0:0:0:0:
475,192,199799,1,8,0:0:0:50:
36,192,199799,1,8,0:0:0:50:
256,192,199880,1,0,0:0:0:0:
329,192,199962,1,0,0:0:0:100:f8.wav
109,192,199962,1,0,0:0:0:0:
402,192,200043,1,0,0:0:0:0:
182,192,200125,1,8,0:0:0:50:
36,192,200125,1,8,0:0:0:50:
475,192,200206,1,0,0:0:0:0:
256,192,200288,1,0,0:0:0:70:f8.wav
109,192,200288,1,0,0:0:0:0:
402,192,200369,1,0,0:0:0:0:
182,192,200451,1,8,0:0:0:50:
329,192,200451,1,8,0:0:0:50:
36,192,200532,1,0,0:0:0:0:
109,192,200614,1,0,0:0:0:70:c8.wav
475,192,200614,1,0,0:0:0:0:
402,192,200695,1,0,0:0:0:0:
182,192,200777,1,8,0:0:0:50:
36,192,200777,1,8,0:0:0:50:
329,192,200777,1,0,0:0:0:0:
402,192,200858,1,0,0:0:0:0:
475,192,200940,1,0,0:0:0:0:
182,192,200940,1,0,0:0:0:0:
256,192,200940,1,0,0:0:0:0:
329,192,201021,1,0,0:0:0:0:
402,192,201103,1,8,0:0:0:50:
109,192,201103,1,8,0:0:0:50:
36,192,201103,1,0,0:0:0:70:gs7.wav
329,192,201184,1,0,0:0:0:0:
256,192,201266,1,0,0:0:0:0:
36,192,201266,1,0,0:0:0:0:
182,192,201266,1,0,0:0:0:0:
402,192,201348,1,0,0:0:0:0:
475,192,201429,1,8,0:0:0:50:
109,192,201429,1,8,0:0:0:50:
256,192,201511,1,0,0:0:0:0:
329,192,201592,1,0,0:0:0:70:gs7.wav
109,192,201592,1,0,0:0:0:0:
182,192,201674,1,0,0:0:0:0:
402,192,201755,1,8,0:0:0:50:
475,192,201755,1,8,0:0:0:50:
36,192,201837,1,0,0:0:0:0:
256,192,201918,1,0,0:0:0:0:
109,192,201918,1,0,0:0:0:0:
329,192,202000,1,0,0:0:0:0:
475,192,202081,1,8,0:0:0:50:
182,192,202081,1,8,0:0:0:50:
256,192,202163,1,0,0:0:0:0:
402,192,202244,1,0,0:0:0:70:gs7.wav
109,192,202244,1,0,0:0:0:0:
182,192,202326,1,0,0:0:0:0:
329,192,202407,1,8,0:0:0:50:
36,192,202407,1,8,0:0:0:50:
109,192,202489,1,0,0:0:0:0:
182,192,202570,1,0,0:0:0:0:
475,192,202570,1,0,0:0:0:0:
402,192,202652,1,0,0:0:0:0:
256,192,202733,1,8,0:0:0:50:
329,192,202733,1,8,0:0:0:50:
36,192,202815,1,0,0:0:0:0:
109,192,202896,1,0,0:0:0:0:
402,192,202896,1,0,0:0:0:0:
182,192,202978,1,0,0:0:0:0:
36,192,203059,1,8,0:0:0:50:
475,192,203059,1,8,0:0:0:50:
256,192,203141,1,0,0:0:0:0:
182,192,203223,1,0,0:0:0:0:
402,192,203223,1,0,0:0:0:0:
109,192,203304,1,0,0:0:0:0:
36,192,203386,1,8,0:0:0:50:
256,192,203386,1,8,0:0:0:50:
475,192,203386,1,0,0:0:0:100:f8.wav
182,192,203467,1,0,0:0:0:0:
402,192,203549,1,0,0:0:0:0:
109,192,203549,1,0,0:0:0:0:
36,192,203549,1,0,0:0:0:0:
256,192,203630,1,0,0:0:0:0:
475,192,203712,1,8,0:0:0:50:
329,192,203712,1,8,0:0:0:50:
109,192,203712,1,0,0:0:0:0:
182,192,203793,1,0,0:0:0:0:
256,192,203875,1,0,0:0:0:0:
475,192,203875,1,0,0:0:0:0:
36,192,203875,1,0,0:0:0:0:
109,192,203956,1,0,0:0:0:0:
402,192,204038,1,8,0:0:0:50:
329,192,204038,1,8,0:0:0:50:
182,192,204119,1,0,0:0:0:0:
256,192,204201,1,0,0:0:0:70:c8.wav
109,192,204201,1,0,0:0:0:0:
402,192,204282,1,0,0:0:0:0:
36,192,204364,1,8,0:0:0:50:
182,192,204364,1,8,0:0:0:50:
256,192,204445,1,0,0:0:0:0:
109,192,204527,1,0,0:0:0:0:
329,192,204527,1,0,0:0:0:0:
475,192,204608,1,0,0:0:0:0:
256,192,204690,1,8,0:0:0:50:
36,192,204690,1,8,0:0:0:50:
402,192,204771,1,0,0:0:0:0:
329,192,204853,1,0,0:0:0:70:c8.wav
182,192,204853,1,0,0:0:0:0:
36,192,204934,1,0,0:0:0:0:
109,192,205016,1,8,0:0:0:50:
256,192,205016,1,8,0:0:0:50:
329,192,205098,1,0,0:0:0:0:
402,192,205179,1,0,0:0:0:100:f8.wav
182,192,205179,1,0,0:0:0:0:
36,192,205261,1,0,0:0:0:0:
475,192,205342,1,8,0:0:0:50:
109,192,205342,1,8,0:0:0:50:
329,192,205424,1,0,0:0:0:0:
182,192,205505,1,0,0:0:0:70:f8.wav
402,192,205505,1,0,0:0:0:0:
109,192,205587,1,0,0:0:0:0:
402,192,205668,1,8,0:0:0:50:
36,192,205668,1,8,0:0:0:50:
182,192,205750,1,0,0:0:0:0:
475,192,205831,1,0,0:0:0:70:c8.wav
329,192,205831,1,0,0:0:0:0:
256,192,205913,1,0,0:0:0:0:
36,192,205994,1,8,0:0:0:50:
402,192,205994,1,8,0:0:0:50:
109,192,205994,1,0,0:0:0:0:
256,192,206076,1,0,0:0:0:0:
182,192,206157,1,0,0:0:0:0:
329,192,206157,1,0,0:0:0:0:
475,192,206157,1,0,0:0:0:0:
109,192,206239,1,0,0:0:0:0:
256,192,206320,1,8,0:0:0:50:
402,192,206320,1,8,0:0:0:50:
36,192,206320,1,0,0:0:0:70:gs7.wav
329,192,206402,1,0,0:0:0:0:
475,192,206483,1,0,0:0:0:0:
109,192,206483,1,0,0:0:0:0:
256,192,206483,1,0,0:0:0:0:
182,192,206565,1,0,0:0:0:0:
402,192,206646,1,8,0:0:0:50:
256,192,206646,1,8,0:0:0:50:
109,192,206728,1,0,0:0:0:0:
36,192,206809,1,0,0:0:0:70:gs7.wav
475,192,206809,1,0,0:0:0:0:
329,192,206809,1,0,0:0:0:0:
182,192,206891,1,0,0:0:0:0:
109,192,206973,1,8,0:0:0:50:
329,192,206973,1,8,0:0:0:50:
402,192,207054,1,0,0:0:0:0:
475,192,207136,1,0,0:0:0:0:
256,192,207136,1,0,0:0:0:0:
182,192,207136,1,0,0:0:0:0:
109,192,207217,1,0,0:0:0:0:
329,192,207299,1,8,0:0:0:50:
36,192,207299,1,8,0:0:0:50:
109,192,207380,1,0,0:0:0:0:
256,192,207462,1,0,0:0:0:70:gs7.wav
402,192,207462,1,0,0:0:0:0:
475,192,207462,1,0,0:0:0:0:
182,192,207543,1,0,0:0:0:0:
36,192,207625,1,8,0:0:0:50:
475,192,207625,1,8,0:0:0:50:
402,192,207706,1,0,0:0:0:0:
329,192,207788,1,0,0:0:0:0:
36,192,207788,1,0,0:0:0:0:
256,192,207788,1,0,0:0:0:0:
109,192,207869,1,0,0:0:0:0:
402,192,207951,1,8,0:0:0:50:
182,192,207951,1,8,0:0:0:50:
36,192,208032,1,0,0:0:0:0:
256,192,208114,1,0,0:0:0:0:
329,192,208114,1,0,0:0:0:0:
475,192,208114,1,0,0:0:0:0:
109,192,208195,1,0,0:0:0:0:
256,192,208277,1,8,0:0:0:50:
182,192,208277,1,8,0:0:0:50:
475,192,208358,1,0,0:0:0:0:
402,192,208440,1,0,0:0:0:0:
109,192,208440,1,0,0:0:0:0:
36,192,208440,1,0,0:0:0:0:
329,192,208521,1,0,0:0:0:0:
36,192,208603,1,8,0:0:0:50:
182,192,208603,1,8,0:0:0:50:
256,192,208657,1,0,0:0:0:40:kickfast.wav
329,192,208712,1,0,0:0:0:40:kickfast.wav
402,192,208766,1,0,0:0:0:40:kickfast.wav
109,192,208766,1,0,0:0:0:0:
475,192,208820,1,0,0:0:0:40:kickfast.wav
36,192,208848,1,0,0:0:0:0:
182,192,208929,1,0,0:0:0:20:snarerush.wav
329,192,208929,1,0,0:0:0:0:
402,192,209011,1,0,0:0:0:20:snarerush.wav
256,192,209092,1,0,0:0:0:40:kickfast.wav
475,192,209092,1,0,0:0:0:20:snarerush.wav
182,192,209146,1,0,0:0:0:40:kickfast.wav
329,192,209174,1,0,0:0:0:0:
109,192,209201,1,0,0:0:0:40:kickfast.wav
402,192,209255,1,8,0:0:0:50:
475,192,209255,128,8,210559:0:0:0:50:
36,192,209255,1,0,0:0:0:70:gs7.wav
256,192,209337,1,0,0:0:0:0:
182,192,209418,1,0,0:0:0:70:c8.wav
109,192,209418,1,0,0:0:0:0:
329,192,209500,1,0,0:0:0:0:
36,192,209581,1,8,0:0:0:50:
402,192,209581,1,8,0:0:0:50:
182,192,209663,1,0,0:0:0:0:
329,192,209744,1,0,0:0:0:0:
109,192,209744,1,0,0:0:0:0:
256,192,209826,1,0,0:0:0:0:
182,192,209907,1,8,0:0:0:50:
36,192,209907,1,8,0:0:0:50:
329,192,209989,1,0,0:0:0:0:
402,192,210070,1,0,0:0:0:70:c8.wav
109,192,210070,1,0,0:0:0:0:
256,192,210152,1,0,0:0:0:0:
36,192,210233,1,8,0:0:0:50:
182,192,210233,1,8,0:0:0:50:
329,192,210315,1,0,0:0:0:0:
109,192,210396,1,0,0:0:0:100:f8.wav
256,192,210396,1,0,0:0:0:0:
402,192,210478,1,0,0:0:0:0:
182,192,210559,1,8,0:0:0:50:
36,192,210559,128,8,211538:0:0:0:50:
329,192,210559,1,0,0:0:0:100:fs8.wav
256,192,210641,1,0,0:0:0:0:
109,192,210723,1,0,0:0:0:70:f8.wav
402,192,210723,1,0,0:0:0:0:
475,192,210804,1,0,0:0:0:0:
329,192,210886,1,8,0:0:0:50:
182,192,210886,1,8,0:0:0:50:
475,192,210967,1,0,0:0:0:0:
256,192,211049,1,0,0:0:0:70:c8.wav
402,192,211049,1,0,0:0:0:0:
182,192,211130,1,0,0:0:0:0:
329,192,211212,1,8,0:0:0:50:
109,192,211212,1,8,0:0:0:50:
475,192,211293,1,0,0:0:0:0:
256,192,211375,1,0,0:0:0:0:
182,192,211375,1,0,0:0:0:0:
329,192,211456,1,0,0:0:0:0:
109,192,211538,1,8,0:0:0:50:
402,192,211538,1,8,0:0:0:50:
475,192,211619,1,0,0:0:0:0:
182,192,211701,1,0,0:0:0:0:
256,192,211701,1,0,0:0:0:0:
36,192,211782,1,0,0:0:0:0:
475,192,211864,1,8,0:0:0:50:
329,192,211864,128,8,213168:0:0:0:50:
109,192,211864,1,0,0:0:0:70:c8.wav
182,192,211945,1,0,0:0:0:0:
256,192,212027,1,0,0:0:0:70:gs7.wav
36,192,212027,1,0,0:0:0:0:
402,192,212108,1,0,0:0:0:0:
182,192,212190,1,8,0:0:0:50:
475,192,212190,1,8,0:0:0:50:
109,192,212271,1,0,0:0:0:0:
402,192,212353,1,0,0:0:0:0:
256,192,212353,1,0,0:0:0:0:
36,192,212434,1,0,0:0:0:0:
182,192,212516,1,8,0:0:0:50:
109,192,212516,1,8,0:0:0:50:
475,192,212598,1,0,0:0:0:0:
402,192,212679,1,0,0:0:0:70:gs7.wav
36,192,212679,1,0,0:0:0:0:
109,192,212761,1,0,0:0:0:0:
256,192,212842,1,8,0:0:0:50:
475,192,212842,1,8,0:0:0:50:
36,192,212924,1,0,0:0:0:0:
402,192,213005,1,0,0:0:0:0:
109,192,213005,1,0,0:0:0:0:
475,192,213087,1,0,0:0:0:0:
256,192,213168,1,8,0:0:0:50:
182,192,213168,128,8,214146:0:0:0:50:
36,192,213168,1,0,0:0:0:70:c8.wav
109,192,213250,1,0,0:0:0:0:
256,192,213331,1,0,0:0:0:0:
402,192,213331,1,0,0:0:0:0:
329,192,213413,1,0,0:0:0:0:
475,192,213494,1,8,0:0:0:50:
36,192,213494,1,8,0:0:0:50:
256,192,213576,1,0,0:0:0:0:
329,192,213657,1,0,0:0:0:0:
109,192,213657,1,0,0:0:0:0:
475,192,213739,1,0,0:0:0:0:
402,192,213820,1,8,0:0:0:50:
36,192,213820,1,8,0:0:0:50:
109,192,213902,1,0,0:0:0:0:
329,192,213983,1,0,0:0:0:0:
475,192,213983,1,0,0:0:0:0:
256,192,214065,1,0,0:0:0:0:
36,192,214146,1,8,0:0:0:50:
402,192,214146,1,8,0:0:0:50:
475,192,214228,1,0,0:0:0:0:
329,192,214309,1,0,0:0:0:0:
109,192,214309,1,0,0:0:0:0:
182,192,214391,1,0,0:0:0:0:
475,192,214473,1,8,0:0:0:50:
256,192,214473,128,8,217081:0:0:0:50:
36,192,214473,1,0,0:0:0:70:gs7.wav
109,192,214554,1,0,0:0:0:0:
329,192,214636,1,0,0:0:0:70:c8.wav
182,192,214636,1,0,0:0:0:0:
402,192,214717,1,0,0:0:0:0:
109,192,214799,1,8,0:0:0:50:
36,192,214799,1,8,0:0:0:50:
475,192,214880,1,0,0:0:0:0:
329,192,214962,1,0,0:0:0:0:
182,192,214962,1,0,0:0:0:0:
36,192,215043,1,0,0:0:0:0:
402,192,215125,1,8,0:0:0:50:
109,192,215125,1,8,0:0:0:50:
182,192,215206,1,0,0:0:0:0:
475,192,215288,1,0,0:0:0:70:c8.wav
329,192,215288,1,0,0:0:0:0:
109,192,215369,1,0,0:0:0:0:
36,192,215451,1,8,0:0:0:50:
182,192,215451,1,8,0:0:0:50:
475,192,215532,1,0,0:0:0:0:
402,192,215614,1,0,0:0:0:100:f8.wav
182,192,215614,1,0,0:0:0:0:
329,192,215695,1,0,0:0:0:0:
475,192,215777,1,8,0:0:0:50:
36,192,215777,1,8,0:0:0:50:
109,192,215858,1,0,0:0:0:0:
182,192,215940,1,0,0:0:0:70:f8.wav
402,192,215940,1,0,0:0:0:0:
329,192,216021,1,0,0:0:0:0:
109,192,216103,1,8,0:0:0:50:
36,192,216103,1,8,0:0:0:50:
402,192,216184,1,0,0:0:0:0:
182,192,216266,1,0,0:0:0:70:c8.wav
36,192,216266,1,0,0:0:0:0:
329,192,216348,1,0,0:0:0:0:
475,192,216429,1,8,0:0:0:50:
109,192,216429,1,8,0:0:0:50:
329,192,216511,1,0,0:0:0:0:
182,192,216592,1,0,0:0:0:0:
402,192,216592,1,0,0:0:0:0:
109,192,216674,1,0,0:0:0:0:
36,192,216755,1,8,0:0:0:50:
329,192,216755,1,8,0:0:0:50:
402,192,216837,1,0,0:0:0:0:
182,192,216918,1,0,0:0:0:0:
475,192,216918,1,0,0:0:0:0:
109,192,217000,1,0,0:0:0:0:
36,192,217081,1,0,0:0:0:70:c8.wav
329,192,217081,128,0,217570:0:0:0:0:
36,192,217570,128,0,218059:0:0:0:0:
256,192,218059,128,0,218875:0:0:0:70:gs7.wav
36,192,219038,128,0,219201:0:0:0:40:kickfast.wav
182,192,219201,128,0,219364:0:0:0:0:
329,192,219364,128,0,219527:0:0:0:0:
475,192,219527,128,0,219690:0:0:0:0:
109,192,219690,1,0,0:0:0:20:before.wav
402,192,219690,1,0,0:0:0:20:before.wav
256,192,219690,128,0,220179:0:0:0:0:
36,192,219853,1,8,0:0:0:35:
182,192,220016,1,0,0:0:0:20:kickfast.wav
475,192,220179,1,8,0:0:0:35:
109,192,220179,128,0,220668:0:0:0:0:
329,192,220342,1,0,0:0:0:20:kickfast.wav
182,192,220505,1,8,0:0:0:35:
256,192,220668,1,0,0:0:0:20:kickfast.wav
402,192,220668,128,0,221483:0:0:0:20:kickfast.wav
36,192,220831,1,8,0:0:0:35:
182,192,220994,1,0,0:0:0:40:kickfast.wav
109,192,221157,1,8,0:0:0:35:
329,192,221320,1,0,0:0:0:20:kickfast.wav
475,192,221483,1,8,0:0:0:35:
256,192,221646,1,0,0:0:0:20:kickfast.wav
36,192,221646,128,0,221809:0:0:0:20:kickfast.wav
329,192,221809,1,8,0:0:0:35:
109,192,221809,128,0,221973:0:0:0:0:
402,192,221973,1,0,0:0:0:20:kickfast.wav
182,192,221973,128,0,222136:0:0:0:20:kickfast.wav
475,192,222136,1,8,0:0:0:35:
256,192,222136,128,0,222299:0:0:0:0:
36,192,222299,1,0,0:0:0:20:kickfast.wav
402,192,222299,128,0,222788:0:0:0:20:kickfast.wav
182,192,222462,1,8,0:0:0:35:
329,192,222625,1,0,0:0:0:20:kickfast.wav
109,192,222788,1,8,0:0:0:35:
475,192,222788,128,0,223277:0:0:0:0:
256,192,222951,1,0,0:0:0:20:kickfast.wav
329,192,223114,1,8,0:0:0:35:
182,192,223277,1,0,0:0:0:20:kickfast.wav
36,192,223277,128,0,224092:0:0:0:20:kickfast.wav
402,192,223440,1,8,0:0:0:35:
256,192,223603,1,0,0:0:0:20:kickfast.wav
329,192,223766,1,8,0:0:0:35:
475,192,223929,1,0,0:0:0:20:kickfast.wav
109,192,224092,1,8,0:0:0:35:
256,192,224255,1,0,0:0:0:20:kickfast.wav
475,192,224255,128,0,224418:0:0:0:20:kickfast.wav
182,192,224418,1,8,0:0:0:35:
402,192,224418,128,0,224581:0:0:0:0:
109,192,224581,1,0,0:0:0:20:kickfast.wav
329,192,224581,128,0,224744:0:0:0:20:kickfast.wav
36,192,224744,1,8,0:0:0:35:
256,192,224744,128,0,224907:0:0:0:0:
182,192,224907,1,0,0:0:0:20:kickfast.wav
475,192,224907,128,0,225396:0:0:0:20:kickfast.wav
402,192,225070,1,8,0:0:0:35:
329,192,225233,1,0,0:0:0:20:kickfast.wav
36,192,225396,1,8,0:0:0:35:
109,192,225396,128,0,225886:0:0:0:0:
402,192,225559,1,0,0:0:0:20:kickfast.wav
182,192,225723,1,8,0:0:0:35:
329,192,225886,1,0,0:0:0:20:kickfast.wav
256,192,225886,128,0,226701:0:0:0:20:kickfast.wav
475,192,226049,1,8,0:0:0:35:
402,192,226212,1,0,0:0:0:20:kickfast.wav
36,192,226375,1,8,0:0:0:35:
182,192,226538,1,0,0:0:0:20:kickfast.wav
402,192,226701,1,8,0:0:0:35:
182,192,226864,1,0,0:0:0:20:kickfast.wav
109,192,226864,128,0,227027:0:0:0:20:kickfast.wav
256,192,227027,1,8,0:0:0:35:
36,192,227027,128,0,227190:0:0:0:0:
329,192,227190,1,0,0:0:0:20:kickfast.wav
109,192,227190,128,0,227353:0:0:0:20:kickfast.wav
402,192,227353,1,8,0:0:0:35:
182,192,227353,128,0,227516:0:0:0:0:
256,192,227516,1,0,0:0:0:20:kickfast.wav
475,192,227516,128,0,228005:0:0:0:20:kickfast.wav
36,192,227679,1,8,0:0:0:35:
182,192,227842,1,0,0:0:0:20:kickfast.wav
402,192,228005,1,8,0:0:0:35:
256,192,228005,128,0,228494:0:0:0:0:
109,192,228168,1,0,0:0:0:20:kickfast.wav
475,192,228331,1,8,0:0:0:35:
182,192,228494,1,0,0:0:0:20:kickfast.wav
329,192,228494,128,0,229309:0:0:0:20:kickfast.wav
36,192,228657,1,8,0:0:0:35:
475,192,228820,1,0,0:0:0:20:kickfast.wav
182,192,228820,128,0,229146:0:0:0:20:kickfast.wav
402,192,228983,1,8,0:0:0:35:
475,192,229146,1,0,0:0:0:20:kickfast.wav
109,192,229146,128,0,229473:0:0:0:20:kickfast.wav
402,192,229309,1,0,0:0:0:20:kickfast.wav
475,192,229473,1,0,0:0:0:20:kickfast.wav
182,192,229473,1,0,0:0:0:20:kickfast.wav
36,192,229473,128,0,229799:0:0:0:0:
256,192,229527,1,0,0:0:0:0:
329,192,229581,1,0,0:0:0:0:
182,192,229636,1,0,0:0:0:20:kickfast.wav
402,192,229636,1,0,0:0:0:20:kickfast.wav
475,192,229690,1,0,0:0:0:0:
256,192,229799,1,0,0:0:0:20:kickfast.wav
109,192,229962,1,8,0:0:0:0:
182,192,229962,1,0,0:0:0:0:
256,192,230016,1,0,0:0:0:0:
329,192,230070,1,0,0:0:0:0:
402,192,230125,1,0,0:0:0:20:kickfast.wav
475,192,230125,128,0,230614:0:0:0:20:kickfast.wav
36,192,230288,1,8,0:0:0:35:
329,192,230451,1,0,0:0:0:20:kickfast.wav
109,192,230614,1,8,0:0:0:35:
182,192,230614,128,0,231103:0:0:0:0:
402,192,230777,1,0,0:0:0:20:kickfast.wav
36,192,230940,1,8,0:0:0:35:
256,192,231103,1,0,0:0:0:20:kickfast.wav
329,192,231103,128,0,231918:0:0:0:20:kickfast.wav
109,192,231266,1,8,0:0:0:35:
475,192,231429,1,0,0:0:0:20:kickfast.wav
182,192,231592,1,8,0:0:0:35:
402,192,231755,1,0,0:0:0:20:kickfast.wav
36,192,231918,1,8,0:0:0:35:
256,192,232081,1,0,0:0:0:20:kickfast.wav
109,192,232081,128,0,232244:0:0:0:20:kickfast.wav
402,192,232244,1,8,0:0:0:35:
182,192,232244,128,0,232407:0:0:0:0:
36,192,232407,1,0,0:0:0:20:kickfast.wav
329,192,232407,128,0,232570:0:0:0:20:kickfast.wav
109,192,232570,1,8,0:0:0:35:
256,192,232570,128,0,234853:0:0:0:0:
402,192,232570,128,0,232733:0:0:0:0:
475,192,232733,1,0,0:0:0:20:kickfast.wav
36,192,232733,128,0,233223:0:0:0:20:kickfast.wav
182,192,232896,1,8,0:0:0:35:
402,192,233059,1,0,0:0:0:20:kickfast.wav
329,192,233223,1,8,0:0:0:35:
475,192,233223,128,0,233712:0:0:0:0:
109,192,233386,1,0,0:0:0:20:kickfast.wav
182,192,233549,1,8,0:0:0:35:
329,192,233712,1,0,0:0:0:20:kickfast.wav
402,192,233712,128,0,234527:0:0:0:20:kickfast.wav
109,192,233875,1,8,0:0:0:35:
36,192,234038,1,0,0:0:0:20:kickfast.wav
329,192,234201,1,8,0:0:0:35:
182,192,234364,1,0,0:0:0:20:kickfast.wav
36,192,234527,1,8,0:0:0:35:
475,192,234690,1,0,0:0:0:20:kickfast.wav
109,192,234690,128,0,234853:0:0:0:20:kickfast.wav
329,192,234853,1,8,0:0:0:35:
182,192,234853,128,0,235016:0:0:0:0:
402,192,235016,1,0,0:0:0:20:kickfast.wav
256,192,235016,128,0,235179:0:0:0:20:kickfast.wav
475,192,235179,1,8,0:0:0:35:
329,192,235179,128,0,235342:0:0:0:0:
109,192,235342,1,0,0:0:0:20:kickfast.wav
36,192,235342,128,0,235831:0:0:0:20:kickfast.wav
402,192,235505,1,8,0:0:0:35:
256,192,235668,1,0,0:0:0:20:kickfast.wav
475,192,235831,1,8,0:0:0:35:
182,192,235831,128,0,236320:0:0:0:0:
329,192,235994,1,0,0:0:0:20:kickfast.wav
402,192,236157,1,8,0:0:0:35:
256,192,236320,1,0,0:0:0:20:kickfast.wav
109,192,236320,128,0,237136:0:0:0:20:kickfast.wav
475,192,236483,1,8,0:0:0:35:
402,192,236646,1,0,0:0:0:20:kickfast.wav
182,192,236809,1,8,0:0:0:35:
329,192,236973,1,0,0:0:0:20:kickfast.wav
256,192,237136,1,8,0:0:0:35:
36,192,237299,1,0,0:0:0:20:kickfast.wav
475,192,237299,128,0,237462:0:0:0:20:kickfast.wav
182,192,237462,1,8,0:0:0:35:
329,192,237462,128,0,237625:0:0:0:0:
36,192,237625,1,0,0:0:0:20:kickfast.wav
475,192,237625,128,0,237788:0:0:0:20:kickfast.wav
182,192,237788,1,8,0:0:0:35:
329,192,237788,128,0,237951:0:0:0:0:
402,192,237951,1,0,0:0:0:20:kickfast.wav
256,192,237951,128,0,238440:0:0:0:20:kickfast.wav
109,192,238195,1,0,0:0:0:0:
36,192,238277,1,0,0:0:0:20:kickfast.wav
475,192,238440,1,8,0:0:0:35:
109,192,238440,128,0,238929:0:0:0:0:
329,192,238603,1,0,0:0:0:20:kickfast.wav
182,192,238766,1,8,0:0:0:35:
36,192,238929,1,0,0:0:0:20:kickfast.wav
402,192,238929,128,0,239744:0:0:0:20:kickfast.wav
329,192,239092,1,8,0:0:0:35:
475,192,239255,1,0,0:0:0:20:kickfast.wav
36,192,239418,1,8,0:0:0:35:
256,192,239581,1,0,0:0:0:20:kickfast.wav
109,192,239744,1,8,0:0:0:35:
329,192,239907,1,0,0:0:0:20:kickfast.wav
36,192,239907,128,0,240070:0:0:0:20:kickfast.wav
475,192,240070,1,8,0:0:0:35:
182,192,240070,128,0,240233:0:0:0:0:
329,192,240233,1,0,0:0:0:20:kickfast.wav
36,192,240233,128,0,240396:0:0:0:20:kickfast.wav
475,192,240396,1,8,0:0:0:35:
182,192,240396,128,0,240559:0:0:0:0:
36,192,241864,128,0,252299:0:0:0:70:cymbals.wav
182,192,241864,128,0,252299:0:0:0:0:
329,192,241864,128,0,252299:0:0:0:0:
475,192,241864,128,0,252299:0:0:0:0:
