osu file format v14

[General]
AudioFilename: audio.mp3
AudioLeadIn: 0
PreviewTime: 65475
Countdown: 0
SampleSet: Soft
StackLeniency: 0.4
Mode: 0
LetterboxInBreaks: 0
WidescreenStoryboard: 1

[Editor]
Bookmarks: 3192,13627,24062,34497,44931,55366,65801
DistanceSpacing: 0.8
BeatDivisor: 4
GridSize: 4
TimelineZoom: 0.9999996

[Metadata]
Title:The Glory Days
TitleUnicode:The Glory Days
Artist:Tia
ArtistUnicode:Tia
Creator:Beomsan
Version:Sonnyc's Expert
Source:キャプテン・アース
Tags:Captain Earth Ending ryo supercell Beom Dailycare Down Sonnyc Cut
BeatmapID:1083458
BeatmapSetID:503486

[Difficulty]
HPDrainRate:6
CircleSize:4.5
OverallDifficulty:8.3
ApproachRate:9
SliderMultiplier:2
SliderTickRate:2

[Events]
//Background and Video events
0,0,"bg.png",0,0
//Break Periods
//Storyboard Layer 0 (Background)
//Storyboard Layer 1 (Fail)
//Storyboard Layer 2 (Pass)
//Storyboard Layer 3 (Foreground)
//Storyboard Sound Samples

[TimingPoints]
584,326.086956521739,4,2,2,40,1,0
2866,-100,4,2,2,50,0,0
3192,-100,4,2,1,70,0,0
4333,-100,4,2,2,70,0,0
12975,-149.253731343284,4,2,2,70,0,0
13627,-100,4,2,1,70,0,0
14931,-100,4,2,2,70,0,0
15420,-100,4,2,1,70,0,0
16073,-100,4,2,2,70,0,0
16236,-100,4,2,1,70,0,0
20312,-100,4,2,2,70,0,0
20475,-100,4,2,1,70,0,0
20964,-100,4,2,2,70,0,0
21127,-100,4,2,1,70,0,0
24062,-100,4,2,1,60,0,0
24388,-100,4,2,2,60,0,0
34497,-100,4,2,1,65,0,0
35312,-100,4,2,2,65,0,0
39714,-100,4,2,1,65,0,0
44931,-100,4,2,2,50,0,0
49007,-100,4,2,2,20,0,0
49170,-100,4,2,2,50,0,0
54225,-100,4,2,2,20,0,0
54388,-100,4,2,2,50,0,0
55366,-100,4,2,1,65,0,0
59279,-100,4,2,2,65,0,0
59442,-100,4,2,1,65,0,0
59931,-100,4,2,2,65,0,0
60013,-100,4,2,1,65,0,0
63192,-142.857142857143,4,2,2,40,0,0
65475,-125,4,2,2,50,0,0
65801,-100,4,2,1,80,0,1
75094,-100,4,2,2,80,0,1
75176,-100,4,2,1,80,0,1
75420,-100,4,2,2,80,0,1
75502,-100,4,2,1,80,0,1
75583,-100,4,2,1,70,0,1
75747,-100,4,2,2,70,0,1
76236,-100,4,2,1,80,0,1
79497,-83.3333333333333,4,2,1,80,0,1
80149,-69.4444444444444,4,2,1,80,0,1
80475,-58.1395348837209,4,2,1,80,0,1
80801,-50,4,2,1,80,0,1
81453,-100,4,2,1,80,0,1
84062,-100,4,2,1,60,0,0
84714,-100,4,2,2,60,0,0
86670,-100,4,2,1,60,0,0
89279,-100,4,2,2,40,0,0

[Colours]
Combo1 : 162,81,81
Combo2 : 255,147,147
Combo3 : 255,162,117

[HitObjects]
256,192,1236,12,2,2866,0:0:0:0:
416,256,3192,6,0,P|96:256|192:32,1,600,4|0,0:0|0:0,0:0:0:0:
184,24,4333,5,0,0:0:0:0:
260,48,4497,2,0,L|360:44,2,100,2|0|2,0:0|0:0|0:0,0:0:0:0:
200,96,4986,1,0,0:0:0:0:
272,124,5149,2,0,P|251:220|290:310,1,200,2|0,0:0|0:0,0:0:0:0:
352,360,5638,1,2,0:0:0:0:
368,284,5801,6,0,B|353:237|293:209|245:241|245:241|197:273|137:245|122:198,1,300
198,173,6453,2,0,P|46:173|96:275,1,300,2|0,0:0|0:0,0:0:0:0:
56,340,7105,2,0,P|170:250|310:287,1,300,2|0,0:0|0:0,0:0:0:0:
371,340,7757,6,0,P|390:294|380:246,1,100,2|0,0:0|0:0,0:0:0:0:
320,194,8083,2,0,P|300:239|311:288,1,100
392,172,8410,6,0,P|340:120|248:216,1,200,2|0,0:0|0:0,0:0:0:0:
240,252,8899,1,0,0:0:0:0:
320,194,9062,1,2,0:0:0:0:
289,99,9225,1,0,0:0:0:0:
190,98,9388,1,0,0:0:0:0:
159,193,9551,6,0,L|124:204,3,33.3333333333333,0|0|0|2,0:0|0:0|0:0|0:0,0:0:0:0:
289,99,9877,1,0,0:0:0:0:
240,252,10040,1,2,0:0:0:0:
190,98,10203,1,0,0:0:0:0:
320,194,10366,1,0,0:0:0:0:
272,348,10529,2,0,P|362:308|458:329,1,200,2|0,0:0|0:0,0:0:0:0:
475,253,11018,6,0,P|390:291|404:384,1,200,2|0,0:0|0:0,0:0:0:0:
291,123,11670,2,0,P|366:177|439:119,1,200,2|0,0:0|0:0,0:0:0:0:
272,347,12323,2,0,P|281:255|194:220,1,200,2|0,0:0|0:0,0:0:0:0:
475,253,12975,6,0,P|390:291|404:384,1,200.999990492249,2|0,0:0|0:0,0:0:0:0:
457,328,13627,5,2,0:0:0:0:
475,253,13790,1,0,0:0:0:0:
447,179,13953,1,2,0:0:0:0:
384,132,14116,1,0,0:0:0:0:
224,200,14279,5,2,0:0:0:0:
300,192,14442,1,0,0:0:0:0:
308,268,14605,1,2,0:0:0:0:
232,276,14768,1,0,0:0:0:0:
232,276,14850,1,0,0:0:0:0:
232,276,14931,5,2,0:0:0:0:
300,192,15094,1,0,0:0:0:0:
241,101,15257,1,2,0:0:0:0:
137,130,15420,1,0,0:0:0:0:
131,237,15583,5,2,0:0:0:0:
300,192,15747,1,0,0:0:0:0:
137,130,15910,1,2,0:0:0:0:
232,276,16073,1,2,0:0:0:0:
241,101,16236,6,0,P|359:101|404:168,1,200,2|2,0:0|0:0,0:0:0:0:
416,236,16725,1,0,0:0:0:0:
300,360,16888,5,2,0:0:0:0:
224,352,17051,1,0,0:0:0:0:
232,276,17214,1,2,0:0:0:0:
308,284,17377,1,0,0:0:0:0:
140,292,17540,5,2,0:0:0:0:
122,217,17703,1,0,0:0:0:0:
150,143,17866,1,2,0:0:0:0:
213,96,18029,1,0,0:0:0:0:
291,90,18192,5,2,0:0:0:0:
150,143,18355,1,0,0:0:0:0:
72,43,18518,5,2,0:0:0:0:
213,96,18681,1,0,0:0:0:0:
122,217,18844,5,2,0:0:0:0:
150,143,19007,1,0,0:0:0:0:
213,96,19170,1,2,0:0:0:0:
291,90,19333,1,0,0:0:0:0:
424,168,19497,5,2,0:0:0:0:
348,160,19660,1,0,0:0:0:0:
340,236,19823,1,2,0:0:0:0:
416,244,19986,1,0,0:0:0:0:
416,244,20068,1,0,0:0:0:0:
416,244,20149,5,2,0:0:0:0:
348,160,20312,1,2,0:0:0:0:
247,198,20475,1,2,0:0:0:0:
252,305,20638,1,0,0:0:0:0:
356,334,20801,5,2,0:0:0:0:
348,160,20964,1,2,0:0:0:0:
252,305,21127,1,2,0:0:0:0:
416,244,21290,1,0,0:0:0:0:
247,198,21453,6,0,L|48:208,2,200,2|2|2,0:0|0:0|0:0,0:0:0:0:
365,262,22268,1,2,0:0:0:0:
319,62,22431,1,2,0:0:0:0:
170,200,22594,1,0,0:0:0:0:
324,196,22757,5,2,0:0:0:0:
208,128,22921,1,2,0:0:0:0:
211,266,23083,1,2,0:0:0:0:
361,126,23247,5,2,0:0:0:0:
252,332,23410,1,2,0:0:0:0:
46,223,23573,1,2,0:0:0:0:
155,17,23736,1,2,0:0:0:0:
361,126,23899,1,0,0:0:0:0:
284,128,24062,6,0,P|320:60|432:96,1,200,2|0,0:0|0:0,0:0:0:0:
460,152,24551,1,0,0:0:0:0:
362,216,24714,1,0,0:0:0:0:
362,216,24877,2,0,L|366:316,2,100,2|0|0,0:0|0:0|0:0,0:0:0:0:
428,364,25367,6,0,P|332:343|242:382,1,200
180,344,25855,1,0,0:0:0:0:
180,344,26018,2,0,P|131:353|86:334,1,100,0|2,0:0|0:0,0:0:0:0:
36,272,26344,2,0,P|26:223|45:178,1,100
96,116,26670,5,0,0:0:0:0:
172,140,26833,2,0,L|272:136,2,100,0|2|0,0:0|0:0|0:0,0:0:0:0:
328,84,27323,2,0,P|346:129|337:177,1,100,0|2,0:0|0:0,0:0:0:0:
280,232,27649,2,0,P|231:241|186:222,1,100
132,280,27975,5,0,0:0:0:0:
132,280,28138,2,0,P|222:318|319:299,1,200,2|0,0:0|0:0,0:0:0:0:
388,340,28627,1,0,0:0:0:0:
388,340,28790,2,0,B|415:286|391:246|367:246|343:206|370:152,1,200,2|0,0:0|0:0,0:0:0:0:
440,192,29279,6,0,P|432:100|316:92,1,200,2|0,0:0|0:0,0:0:0:0:
268,112,29768,1,0,0:0:0:0:
324,220,29931,1,0,0:0:0:0:
270,279,30094,2,0,P|315:298|363:288,2,100,2|0|0,0:0|0:0|0:0,0:0:0:0:
215,336,30583,6,0,P|306:374|403:356,1,200
460,300,31073,1,0,0:0:0:0:
460,300,31236,2,0,P|469:251|450:206,1,100,0|2,0:0|0:0,0:0:0:0:
388,156,31562,2,0,P|339:146|294:165,1,100
239,107,31888,6,0,P|330:69|427:87,2,200,0|2|0,0:0|0:0|0:0,0:0:0:0:
182,162,32703,1,2,0:0:0:0:
217,234,32866,1,0,0:0:0:0:
296,224,33029,1,0,0:0:0:0:
310,147,33192,6,0,P|354:289|469:155,1,400
433,85,34007,1,2,0:0:0:0:
353,81,34170,1,0,0:0:0:0:
470,156,34333,1,0,0:0:0:0:
476,17,34497,1,4,0:0:0:0:
79,85,34823,5,0,0:0:0:0:
159,96,34986,1,0,0:0:0:0:
110,160,35149,1,0,0:0:0:0:
227,266,35312,5,2,0:0:0:0:
160,229,35475,1,0,0:0:0:0:
81,237,35638,1,0,0:0:0:0:
19,285,35801,2,0,P|95:312|160:229,1,200
81,237,36290,1,0,0:0:0:0:
228,184,36453,5,2,0:0:0:0:
295,221,36616,1,0,0:0:0:0:
374,213,36779,1,0,0:0:0:0:
436,165,36942,1,0,0:0:0:0:
343,286,37105,6,0,L|318:88,1,200,2|0,0:0|0:0,0:0:0:0:
344,12,37594,1,0,0:0:0:0:
160,72,37757,5,0,0:0:0:0:
240,80,37920,1,2,0:0:0:0:
232,160,38083,1,0,0:0:0:0:
152,152,38247,1,0,0:0:0:0:
392,160,38410,5,0,0:0:0:0:
312,168,38573,1,2,0:0:0:0:
320,248,38736,1,0,0:0:0:0:
400,240,38900,1,0,0:0:0:0:
160,248,39062,5,0,0:0:0:0:
240,256,39225,1,2,0:0:0:0:
193,321,39388,1,0,0:0:0:0:
80,240,39551,5,0,0:0:0:0:
126,175,39714,2,0,P|34:175|34:305,1,200,2|0,0:0|1:0,0:0:0:0:
36,340,40203,1,0,0:0:0:0:
160,248,40366,5,2,0:0:0:0:
240,256,40529,1,2,0:0:0:0:
320,264,40692,1,0,0:0:0:0:
160,248,40855,1,0,1:0:0:0:
287,191,41018,6,0,P|353:191|353:337,1,200,2|0,0:0|1:0,0:0:0:0:
360,376,41507,1,0,0:0:0:0:
240,256,41670,5,2,0:0:0:0:
208,184,41833,1,2,0:0:0:0:
220,106,41997,1,0,1:0:0:0:
272,47,42160,1,0,0:0:0:0:
82,125,42323,6,0,L|280:155,2,200,2|0|2,0:0|1:0|0:0,0:0:0:0:
332,96,43138,2,0,P|356:140|240:223,1,200,2|0,0:0|1:0,0:0:0:0:
192,208,43627,5,2,0:0:0:0:
279,154,43790,1,2,0:0:0:0:
357,220,43953,1,0,1:0:0:0:
318,314,44116,1,2,0:0:0:0:
318,314,44198,1,0,0:0:0:0:
318,314,44279,1,2,0:0:0:0:
216,307,44442,5,2,0:0:0:0:
357,220,44605,1,0,1:0:0:0:
484,328,44768,1,2,0:0:0:0:
423,275,44931,6,0,P|404:320|414:368,2,100,2|0|0,0:0|0:0|0:0,0:0:0:0:
484,328,45420,2,0,L|276:308,1,200,2|0,0:0|0:0,0:0:0:0:
216,348,45910,1,2,0:0:0:0:
136,336,46562,6,0,L|130:236,1,100,2|0,0:0|0:0,0:0:0:0:
184,176,46888,2,0,L|178:76,1,100,2|0,0:0|0:0,0:0:0:0:
232,16,47214,1,2,0:0:0:0:
38,64,47539,5,2,0:0:0:0:
44,144,47703,1,0,0:0:0:0:
50,224,47866,1,0,0:0:0:0:
0,284,48029,2,0,P|96:263|186:302,1,200,2|0,0:0|0:0,0:0:0:0:
172,380,48518,2,0,P|286:290|426:327,1,300,2|0,0:0|0:0,0:0:0:0:
487,380,49170,6,0,P|506:334|496:286,1,100,2|0,0:0|0:0,0:0:0:0:
448,224,49497,2,0,P|429:178|439:130,1,100,2|0,0:0|0:0,0:0:0:0:
476,60,49823,1,2,0:0:0:0:
276,44,50149,6,0,P|231:25|183:35,2,100,2|0|0,0:0|0:0|0:0,0:0:0:0:
223,105,50638,2,0,L|203:313,1,200,2|0,0:0|0:0,0:0:0:0:
243,373,51127,1,2,0:0:0:0:
312,340,51779,6,0,L|412:346,1,100,2|0,0:0|0:0,0:0:0:0:
328,264,52105,2,0,L|428:270,1,100,2|0,0:0|0:0,0:0:0:0:
508,275,52431,1,2,0:0:0:0:
472,76,52757,5,2,0:0:0:0:
404,116,52920,1,0,0:0:0:0:
325,112,53083,1,0,0:0:0:0:
260,66,53247,2,0,P|322:35|404:116,1,200,2|0,0:0|0:0,0:0:0:0:
396,196,53736,2,0,P|244:196|294:298,1,300,2|0,0:0|0:0,0:0:0:0:
324,348,54388,6,0,P|279:367|231:357,1,100,2|0,0:0|0:0,0:0:0:0:
164,316,54714,2,0,P|145:271|155:223,1,100,2|0,0:0|0:0,0:0:0:0:
200,156,55040,1,0,0:0:0:0:
424,72,55366,5,6,0:0:0:0:
344,80,55529,1,0,0:0:0:0:
264,88,55692,2,0,B|276:120|276:120|272:188,1,100,8|0,0:3|0:0,0:0:0:0:
296,260,56018,2,0,P|223:201|147:255,1,200,2|8,0:0|0:3,0:0:0:0:
222,280,56507,1,0,0:0:0:0:
72,228,56670,5,2,0:0:0:0:
116,160,56833,1,0,0:0:0:0:
108,120,56915,1,0,0:0:0:0:
100,80,56997,1,8,0:3:0:0:
144,12,57160,1,0,0:0:0:0:
220,36,57323,5,2,0:0:0:0:
260,28,57404,2,0,L|360:40,1,100,8|0,0:3|0:0,0:0:0:0:
399,31,57649,1,8,0:3:0:0:
475,55,57812,1,0,0:0:0:0:
432,200,57975,5,2,0:0:0:0:
356,176,58138,1,0,0:0:0:0:
316,180,58219,1,2,0:0:0:0:
276,185,58301,1,8,0:3:0:0:
200,161,58464,1,0,0:0:0:0:
83,255,58627,5,2,0:0:0:0:
123,263,58708,2,0,L|223:251,1,100,8|0,0:3|0:0,0:0:0:0:
262,261,58953,2,0,B|239:215|239:215|259:95,1,150,8|2,0:3|0:0,0:0:0:0:
263,79,59279,5,2,0:0:0:0:
336,48,59442,1,0,0:0:0:0:
414,61,59605,1,8,0:3:0:0:
472,115,59768,1,0,0:0:0:0:
429,260,59931,5,2,0:0:0:0:
389,268,60012,2,0,L|289:256,1,100,8|0,0:3|0:0,0:0:0:0:
250,265,60257,1,8,0:3:0:0:
174,241,60420,1,0,0:0:0:0:
15,268,60583,5,2,0:0:0:0:
127,153,60747,1,0,0:0:0:0:
127,153,60828,1,2,0:0:0:0:
127,153,60910,1,8,0:3:0:0:
106,313,61073,1,0,0:0:0:0:
30,170,61236,5,2,0:0:0:0:
30,170,61317,1,2,0:0:0:0:
30,170,61399,1,0,0:0:0:0:
174,241,61562,1,8,0:3:0:0:
245,97,61725,1,0,0:0:0:0:
245,97,61806,1,2,0:0:0:0:
245,97,61888,1,0,0:0:0:0:
101,26,62051,1,0,0:0:0:0:
106,313,62214,5,8,0:3:0:0:
312,232,62377,1,0,0:0:0:0:
127,153,62540,5,2,0:0:0:0:
340,240,62703,1,0,0:0:0:0:
96,348,62866,5,8,0:3:0:0:
368,248,63029,1,0,0:0:0:0:
360,160,63192,6,0,P|360:336|376:160,1,419.999987182618,2|0,0:0|0:0,0:0:0:0:
368,248,64497,6,2,P|212:328|36:192,1,419.999987182618,0|2,0:0|0:0,0:0:0:0:
248,50,65801,5,6,0:0:0:0:
122,74,65964,1,2,0:3:0:0:
193,109,66127,2,0,L|189:309,1,200,8|2,0:0|0:0,0:0:0:0:
187,384,66616,1,2,0:3:0:0:
118,235,66779,1,8,0:0:0:0:
263,168,66942,1,2,0:3:0:0:
330,313,67105,5,2,0:0:0:0:
224,275,67268,1,2,0:3:0:0:
263,168,67431,1,8,0:0:0:0:
369,206,67594,1,2,0:3:0:0:
297,241,67757,5,2,0:0:0:0:
263,168,67920,1,2,0:3:0:0:
336,134,68083,2,0,P|385:129|436:164,1,100,8|0,0:0|0:0,0:0:0:0:
263,168,68410,5,2,0:0:0:0:
183,176,68573,1,2,0:3:0:0:
103,184,68736,2,0,B|115:216|115:216|111:284,1,100,8|0,0:0|0:0,0:0:0:0:
231,92,69062,5,2,0:0:0:0:
311,100,69225,1,2,0:3:0:0:
391,108,69388,2,0,B|379:140|379:140|383:208,1,100,8|0,0:0|0:0,0:0:0:0:
263,16,69714,5,2,0:0:0:0:
103,32,69877,1,2,0:3:0:0:
68,189,70040,1,8,0:0:0:0:
206,270,70203,1,2,0:3:0:0:
327,163,70366,1,2,0:0:0:0:
68,189,70529,1,2,0:3:0:0:
206,270,70692,2,0,L|216:372,1,100,2|0,0:1|0:0,0:0:0:0:
327,163,71018,5,2,0:0:0:0:
453,187,71181,1,2,0:3:0:0:
382,221,71344,2,0,L|372:323,1,100,8|2,0:0|0:3,0:0:0:0:
444,109,71670,5,2,0:0:0:0:
327,163,71833,1,2,0:3:0:0:
453,187,71997,1,8,0:0:0:0:
365,94,72160,1,2,0:3:0:0:
382,221,72323,5,2,0:0:0:0:
365,94,72486,1,2,0:3:0:0:
238,70,72649,1,8,0:0:0:0:
177,184,72812,1,2,0:3:0:0:
265,276,72975,1,2,0:0:0:0:
382,221,73138,1,2,0:3:0:0:
177,184,73301,6,0,L|72:196,1,100,8|2,0:0|0:3,0:0:0:0:
0,204,73627,1,2,0:0:0:0:
136,272,73790,5,8,0:3:0:0:
139,311,73871,1,0,0:0:0:0:
142,351,73953,1,4,0:3:0:0:
262,315,74116,1,8,0:3:0:0:
265,276,74197,1,0,0:0:0:0:
268,236,74279,1,4,0:3:0:0:
388,272,74442,1,4,0:3:0:0:
508,236,74605,2,0,L|501:130,1,100,8|2,0:0|0:3,0:0:0:0:
401,54,74931,5,2,0:0:0:0:
331,29,75012,1,2,0:3:0:0:
257,34,75094,1,2,0:0:0:0:
191,68,75176,1,2,0:3:0:0:
144,126,75257,1,8,0:0:0:0:
125,198,75338,1,2,0:3:0:0:
136,272,75420,1,2,0:0:0:0:
177,334,75502,1,2,0:3:0:0:
240,372,75583,5,2,0:0:0:0:
269,369,75665,1,0,0:3:0:0:
299,367,75747,1,2,0:0:0:0:
329,364,75827,1,0,0:3:0:0:
359,362,75910,1,2,0:0:0:0:
389,360,75990,1,0,0:3:0:0:
419,357,76072,1,2,0:0:0:0:
449,355,76153,1,2,0:3:0:0:
479,353,76235,5,2,0:0:0:0:
440,228,76399,1,2,0:3:0:0:
500,176,76562,2,0,L|300:192,1,200,8|2,0:0|0:0,0:0:0:0:
224,200,77051,1,2,0:3:0:0:
165,147,77214,6,0,P|144:193|167:255,2,100,8|2|2,0:0|0:3|0:0,0:0:0:0:
218,88,77703,1,2,0:3:0:0:
295,68,77866,1,8,0:0:0:0:
371,93,78029,1,2,0:3:0:0:
421,155,78192,1,2,0:0:0:0:
428,234,78355,1,2,0:3:0:0:
392,305,78518,1,8,0:0:0:0:
323,345,78681,1,2,0:3:0:0:
243,340,78844,6,0,L|136:332,1,100,2|2,0:0|0:3,0:0:0:0:
68,328,79170,1,8,0:0:0:0:
68,328,79333,1,0,0:0:0:0:
264,260,79497,6,0,L|135:250,1,119.999996337891,2|2,0:0|0:3,0:0:0:0:
53,245,79823,1,8,0:0:0:0:
53,245,79986,1,0,0:0:0:0:
285,180,80149,6,0,L|130:168,1,144.000003515625,2|2,0:0|0:3,0:0:0:0:
477,86,80475,6,0,L|305:99,1,172.000002624512,8|2,0:0|0:3,0:0:0:0:
53,245,80801,6,0,P|312:372|477:86,1,600,2|0,0:0|0:0,0:0:0:0:
477,86,81453,5,2,0:0:0:0:
352,116,81616,1,2,0:3:0:0:
284,72,81779,2,0,L|184:64,1,100,8|2,0:0|0:3,0:0:0:0:
53,245,82105,5,2,0:0:0:0:
122,211,82268,1,2,0:3:0:0:
199,221,82431,1,8,0:0:0:0:
257,270,82594,1,2,0:3:0:0:
485,167,82757,5,2,0:0:0:0:
409,175,82920,1,2,0:3:0:0:
417,251,83083,1,8,0:0:0:0:
493,243,83246,1,2,0:3:0:0:
355,352,83410,5,2,0:0:0:0:
278,342,83573,1,2,0:3:0:0:
209,376,83736,1,8,0:0:0:0:
60,168,84062,5,4,0:0:0:0:
137,178,84225,1,0,0:0:0:0:
214,188,84388,2,0,B|282:182|282:182|340:203|340:203|409:198,2,200,0|2|0,0:0|0:0|0:0,0:0:0:0:
168,252,85203,1,0,0:0:0:0:
278,342,85366,5,2,0:0:0:0:
336,293,85529,1,0,0:0:0:0:
413,283,85692,1,0,0:0:0:0:
482,317,85855,1,0,0:0:0:0:
364,220,86018,5,2,0:0:0:0:
352,140,86181,1,0,0:0:0:0:
412,88,86344,5,0,0:0:0:0:
380,64,86425,1,0,0:0:0:0:
341,59,86507,1,0,0:0:0:0:
304,74,86588,1,0,0:0:0:0:
280,105,86670,1,4,0:0:0:0:
256,192,86752,12,2,89279,0:0:0:0:
