osu file format v14

[General]
AudioFilename: audio.mp3
AudioLeadIn: 0
PreviewTime: 65475
Countdown: 0
SampleSet: Soft
StackLeniency: 0.7
Mode: 0
LetterboxInBreaks: 0
WidescreenStoryboard: 1

[Editor]
Bookmarks: 13627,24062,34497,44931,55366,65801
DistanceSpacing: 1.1
BeatDivisor: 2
GridSize: 16
TimelineZoom: 2.1

[Metadata]
Title:The Glory Days
TitleUnicode:The Glory Days
Artist:Tia
ArtistUnicode:Tia
Creator:Beomsan
Version:Normal
Source:キャプテン・アース
Tags:Captain Earth Ending ryo supercell Beom Dailycare Down Sonnyc Cut
BeatmapID:1071975
BeatmapSetID:503486

[Difficulty]
HPDrainRate:4
CircleSize:3.5
OverallDifficulty:4
ApproachRate:4.5
SliderMultiplier:0.8
SliderTickRate:1

[Events]
//Background and Video events
0,0,"bg.png",0,0
//Break Periods
2,45131,46280
2,47740,48889
2,50349,51497
//Storyboard Layer 0 (Background)
//Storyboard Layer 1 (Fail)
//Storyboard Layer 2 (Pass)
//Storyboard Layer 3 (Foreground)
//Storyboard Sound Samples

[TimingPoints]
584,326.086956521739,4,2,1,40,1,0
3192,-100,4,2,1,80,0,0
3274,-100,4,2,2,50,0,0
4497,-100,4,2,2,50,0,0
8410,-100,4,2,1,70,0,0
8491,-100,4,2,2,50,0,0
11018,-100,4,2,1,80,0,0
11100,-100,4,2,2,50,0,0
13627,-100,4,2,1,60,0,0
19497,-100,4,2,1,40,0,0
21453,-100,4,2,1,75,0,0
24062,-100,4,2,2,30,0,0
34497,-100,4,2,1,80,0,0
34660,-100,4,2,2,40,0,0
39714,-100,4,2,2,55,0,0
42323,-100,4,2,1,55,0,0
43627,-100,4,2,1,40,0,0
44931,-100,4,2,2,20,0,0
55366,-100,4,2,1,60,0,0
62214,-100,4,2,1,40,0,0
63192,-100,4,2,2,20,0,0
64497,-100,4,2,1,20,0,0
64823,-100,4,2,1,50,0,0
65149,-100,4,2,1,80,0,0
65475,-100,4,2,2,55,0,0
65801,-100,4,2,1,80,0,1
75910,-100,4,2,2,80,0,1
76073,-100,4,2,1,80,0,1
81127,-100,4,2,2,80,0,1
81453,-100,4,2,1,80,0,1
84062,-100,4,2,2,30,0,0
86670,-100,4,2,1,70,0,0
89279,-100,4,2,2,5,0,0

[Colours]
Combo1 : 162,81,81
Combo2 : 255,147,147
Combo3 : 255,162,117

[HitObjects]
407,298,3192,6,0,P|390:218|386:133,1,160,6|2,0:0|0:0,0:0:0:0:
316,86,4170,1,0,0:0:0:0:
228,98,4497,2,0,P|216:75|209:51,2,40,2|0|0,0:0|0:0|0:0,0:0:0:0:
245,138,4986,2,0,P|246:180|242:227,1,80,2|0,0:0|0:0,0:0:0:0:
208,298,5638,6,0,P|224:313|239:327,1,40,0|2,0:0|0:0,0:0:0:0:
313,370,6127,1,0,0:0:0:0:
373,306,6453,2,0,L|360:222,1,80,2|0,0:0|0:0,0:0:0:0:
338,141,7105,2,0,P|346:101|348:55,1,80,2|0,0:0|0:0,0:0:0:0:
260,67,7757,2,0,P|252:107|250:153,1,80,2|0,0:0|0:0,0:0:0:0:
263,233,8410,6,0,P|187:252|112:223,1,160,6|2,0:0|0:0,0:0:0:0:
56,156,9388,1,0,0:0:0:0:
97,78,9714,2,0,P|121:102|144:148,1,80,2|0,0:0|0:0,0:0:0:0:
112,223,10366,2,0,L|112:308,1,80,2|0,0:0|0:0,0:0:0:0:
195,329,11018,6,0,P|234:320|276:302,1,80,6|0,0:0|0:0,0:0:0:0:
275,216,11670,2,0,P|236:207|194:189,1,80,2|0,0:0|0:0,0:0:0:0:
186,104,12323,2,0,P|216:74|253:62,1,80,2|0,0:0|0:0,0:0:0:0:
335,86,12975,2,0,L|354:172,1,80,2|0,0:0|0:0,0:0:0:0:
365,251,13627,6,0,L|448:247,2,80,6|2|2,0:0|0:0|0:0,0:0:0:0:
311,321,14605,1,2,0:0:0:0:
230,286,14931,2,0,P|207:293|188:297,2,40,2|0|2,0:0|0:0|0:0,0:0:0:0:
245,244,15420,2,0,P|241:200|229:165,1,80,0|0,0:0|0:0,0:0:0:0:
194,85,16073,6,0,P|211:81|235:80,1,40,0|2,0:0|0:0,0:0:0:0:
321,82,16562,1,2,0:0:0:0:
395,128,16888,2,0,P|405:162|408:213,1,80,2|2,0:0|0:0,0:0:0:0:
331,249,17540,2,0,P|321:215|318:164,1,80,2|2,0:0|0:0,0:0:0:0:
229,163,18192,2,0,P|226:202|215:241,1,80,2|2,0:0|0:0,0:0:0:0:
140,287,18844,6,0,P|106:215|113:131,1,160,6|2,0:0|0:0,0:0:0:0:
150,57,19823,1,2,0:0:0:0:
237,47,20149,2,0,P|259:43|286:35,2,40,2|0|2,0:0|0:0|0:0,0:0:0:0:
233,90,20638,2,0,P|231:125|236:181,1,80,0|0,0:0|0:0,0:0:0:0:
258,254,21290,6,0,P|273:263|293:272,1,40,0|2,0:0|0:0,0:0:0:0:
381,267,21779,1,8,0:0:0:0:
448,210,22105,2,0,P|445:167|435:120,1,80,2|0,0:0|0:0,0:0:0:0:
423,89,22594,1,8,0:0:0:0:
353,142,22920,2,0,P|329:138|303:129,1,40,2|8,0:0|0:0,0:0:0:0:
233,96,23410,1,2,0:0:0:0:
148,120,23736,1,2,0:0:0:0:
109,198,24062,6,0,P|103:276|118:360,1,160,2|2,0:0|0:0,0:0:0:0:
195,317,25040,1,0,0:0:0:0:
247,246,25366,2,0,P|271:277|284:321,2,80,2|2|2,0:0|0:0|0:0,0:0:0:0:
179,189,26344,1,2,0:0:0:0:
261,157,26670,6,0,P|328:114|381:40,1,160,2|2,0:0|0:0,0:0:0:0:
289,33,27649,1,0,0:0:0:0:
202,47,27975,2,0,P|166:71|138:103,2,80,2|0|2,0:0|0:0|0:0,0:0:0:0:
289,33,28953,1,2,0:0:0:0:
263,117,29279,6,0,P|340:135|428:133,1,160,2|2,0:0|0:0,0:0:0:0:
504,108,30257,1,0,0:0:0:0:
489,194,30583,2,0,P|485:228|485:279,2,80,2|0|2,0:0|0:0|0:0,0:0:0:0:
504,108,31562,1,2,0:0:0:0:
420,135,31888,6,0,P|345:165|309:244,1,160,2|2,0:0|0:0,0:0:0:0:
364,301,32866,1,2,0:0:0:0:
276,312,33192,2,0,B|235:316|192:329|193:329,1,80,2|2,0:0|0:0,0:0:0:0:
136,264,33844,2,0,B|153:226|163:182|162:183,1,80,2|0,0:0|0:0,0:0:0:0:
126,107,34497,6,0,P|203:87|286:83,1,160,6|2,0:0|0:0,0:0:0:0:
370,92,35475,1,0,0:0:0:0:
318,163,35801,2,0,P|327:199|345:244,1,80,2|0,0:0|0:0,0:0:0:0:
283,304,36453,2,0,P|247:293|199:286,1,80,2|2,0:0|0:0,0:0:0:0:
141,348,37105,6,0,B|172:228|106:228|152:108,1,240,2|0,0:0|0:0,0:0:0:0:
235,90,38410,2,0,P|272:73|308:48,1,80,2|0,0:0|0:0,0:0:0:0:
383,90,39062,2,0,P|379:130|382:174,1,80,2|2,0:0|0:0,0:0:0:0:
403,254,39714,6,0,L|319:246,2,80,2|0|2,0:0|0:0|0:0,0:0:0:0:
367,334,40692,1,0,0:0:0:0:
279,327,41018,2,0,P|252:300|231:264,1,80,2|0,0:0|0:0,0:0:0:0:
208,179,41670,2,0,P|169:169|128:148,1,80,2|2,0:0|0:0,0:0:0:0:
174,73,42323,6,0,P|221:66|254:62,1,80,2|8,0:0|0:0,0:0:0:0:
341,67,42975,2,0,P|339:91|334:113,1,40,2|0,0:0|0:0,0:0:0:0:
312,191,43464,5,8,0:0:0:0:
316,234,43627,2,0,L|322:317,1,80,2|8,0:0|0:0,0:0:0:0:
233,318,44279,2,0,L|238:238,1,80,8|8,0:0|0:0,0:0:0:0:
211,154,44931,5,2,0:0:0:0:
385,102,47540,5,2,0:0:0:0:
201,345,50149,5,2,0:0:0:0:
88,73,52757,5,2,0:0:0:0:
317,36,54388,6,0,P|278:28|235:39,2,80,2|2|2,0:0|0:0|0:0,0:0:0:0:
377,100,55366,6,0,P|376:139|368:183,1,80,6|2,0:0|0:0,0:0:0:0:
395,263,56018,2,0,P|356:264|312:272,1,80,2|2,0:0|0:0,0:0:0:0:
256,335,56670,2,0,P|240:300|231:254,2,80,2|2|2,0:0|0:0|0:0,0:0:0:0:
342,350,57649,1,2,0:0:0:0:
428,332,57975,6,0,P|444:297|453:251,1,80,6|2,0:0|0:0,0:0:0:0:
443,169,58627,2,0,L|419:80,1,80,2|2,0:0|0:0,0:0:0:0:
338,119,59279,2,0,P|299:104|263:81,2,80,2|2|2,0:0|0:0|0:0,0:0:0:0:
422,91,60257,1,2,0:0:0:0:
407,177,60583,6,0,P|338:214|251:224,1,160,6|8,0:0|0:0,0:0:0:0:
171,206,61562,1,0,0:0:0:0:
96,252,61888,2,0,P|97:289|102:335,2,80,6|8|2,0:0|0:0|0:0,0:0:0:0:
30,193,62866,1,8,0:0:0:0:
52,107,63192,6,0,P|125:76|263:154,1,240,0|0,0:0|0:0,0:0:0:0:
295,225,64497,2,0,L|468:194,1,160,0|0,0:0|0:0,0:0:0:0:
505,126,65475,1,2,0:0:0:0:
433,74,65801,6,0,P|396:66|352:65,1,80,6|8,0:0|0:0,0:0:0:0:
284,118,66453,2,0,P|244:126|204:127,1,80,2|8,0:0|0:0,0:0:0:0:
120,101,67105,2,0,L|99:22,2,80,2|8|2,0:0|0:0|0:0,0:0:0:0:
87,182,68083,1,8,0:0:0:0:
39,256,68410,6,0,L|-8:261,2,40,6|0|8,0:0|0:0|0:0,0:0:0:0:
67,339,69062,2,0,L|20:344,2,40,6|0|8,0:0|0:0|0:0,0:0:0:0:
121,269,69714,1,6,0:0:0:0:
208,280,70040,1,12,0:0:0:0:
266,346,70366,2,0,L|351:328,1,80,6|8,0:0|0:0,0:0:0:0:
365,243,71018,6,0,L|280:261,1,80,6|8,0:0|0:0,0:0:0:0:
228,193,71670,2,0,P|231:149|248:114,1,80,2|8,0:0|0:0,0:0:0:0:
316,63,72323,2,0,L|394:79,2,80,2|8|2,0:0|0:0|0:0,0:0:0:0:
237,22,73301,1,8,0:0:0:0:
159,61,73627,6,0,P|119:61|76:78,1,80,6|8,0:0|0:0,0:0:0:0:
47,102,74116,1,2,0:0:0:0:
25,140,74279,2,0,L|11:223,1,80,6|8,0:0|0:0,0:0:0:0:
98,234,74931,2,0,L|183:215,2,80,2|2|2,0:0|0:0|0:0,0:0:0:0:
39,300,75910,2,0,L|74:322,1,40,2|0,0:0|0:0,0:0:0:0:
114,335,76236,6,0,P|151:320|191:317,1,80,6|8,0:0|0:0,0:0:0:0:
278,322,76888,2,0,P|315:337|355:340,1,80,2|8,0:0|0:0,0:0:0:0:
422,282,77540,2,0,L|502:301,2,80,2|8|2,0:0|0:0|0:0,0:0:0:0:
337,257,78518,1,8,0:0:0:0:
322,170,78844,6,0,L|346:132,2,40,6|0|8,0:0|0:0|0:0,0:0:0:0:
259,107,79497,2,0,L|283:69,2,40,6|0|8,0:0|0:0|0:0,0:0:0:0:
176,138,80149,1,6,0:0:0:0:
209,219,80475,1,12,0:0:0:0:
164,295,80801,2,0,L|202:370,1,80,6|2,0:0|0:0,0:0:0:0:
287,374,81453,6,0,P|323:375|366:355,1,80,6|8,0:0|0:0,0:0:0:0:
419,290,82105,2,0,L|454:364,1,80,2|8,0:0|0:0,0:0:0:0:
504,290,82757,2,0,L|469:216,1,80,6|8,0:0|0:0,0:0:0:0:
409,153,83410,2,0,P|367:159|332:180,1,80,2|8,0:0|0:0,0:0:0:0:
252,207,84062,6,0,L|211:195,2,40,2|0|0,0:0|0:0|0:0,0:0:0:0:
235,293,84714,2,0,L|194:281,2,40,2|0|0,0:0|0:0|0:0,0:0:0:0:
307,343,85366,2,0,L|390:334,2,80,2|2|2,0:0|0:0|0:0,0:0:0:0:
312,255,86344,1,0,0:0:0:0:
285,171,86670,5,4,0:0:0:0:
256,192,86833,12,0,89279,0:0:0:0:
