osu file format v14

[General]
AudioFilename: audio.mp3
AudioLeadIn: 0
PreviewTime: 65475
Countdown: 0
SampleSet: Soft
StackLeniency: 0.7
Mode: 0
LetterboxInBreaks: 0
WidescreenStoryboard: 0

[Editor]
DistanceSpacing: 1.8
BeatDivisor: 4
GridSize: 8
TimelineZoom: 2.1

[Metadata]
Title:The Glory Days
TitleUnicode:The Glory Days
Artist:Tia
ArtistUnicode:Tia
Creator:Beomsan
Version:Glory
Source:キャプテン・アース
Tags:Captain Earth Ending ryo supercell Beom Dailycare Down Sonnyc Cut
BeatmapID:1071242
BeatmapSetID:503486

[Difficulty]
HPDrainRate:6
CircleSize:4.1
OverallDifficulty:9
ApproachRate:9.3
SliderMultiplier:1.7
SliderTickRate:1

[Events]
//Background and Video events
0,0,"bg.png",0,0
//Break Periods
//Storyboard Layer 0 (Background)
//Storyboard Layer 1 (Fail)
//Storyboard Layer 2 (Pass)
//Storyboard Layer 3 (Foreground)
//Storyboard Sound Samples

[TimingPoints]
584,326.086956521739,4,2,1,40,1,0
747,-100,4,2,1,5,0,0
910,-100,4,2,1,15,0,0
1562,-100,4,2,1,35,0,0
2214,-100,4,2,1,55,0,0
3192,-200,4,2,1,80,0,0
3274,-200,4,2,2,50,0,0
8410,-200,4,2,1,70,0,0
8491,-200,4,2,2,50,0,0
11018,-200,4,2,1,80,0,0
11100,-200,4,2,2,50,0,0
13627,-133.333333333333,4,2,1,60,0,0
19497,-125,4,2,1,40,0,0
21453,-111.111111111111,4,2,1,75,0,0
24062,-200,4,2,2,30,0,0
34497,-153.846153846154,4,2,1,80,0,0
34660,-153.846153846154,4,2,2,40,0,0
39714,-153.846153846154,4,2,2,55,0,0
42323,-153.846153846154,4,2,1,55,0,0
43627,-133.333333333333,4,2,1,40,0,0
44931,-200,4,2,2,20,0,0
55366,-133.333333333333,4,2,1,60,0,0
62214,-111.111111111111,4,2,1,40,0,0
63192,-200,4,2,2,20,0,0
64497,-200,4,2,1,20,0,0
64823,-200,4,2,1,50,0,0
65149,-200,4,2,1,80,0,0
65475,-200,4,2,2,55,0,0
65801,-90.9090909090909,4,2,1,80,0,1
75910,-90.9090909090909,4,2,2,80,0,1
76073,-90.9090909090909,4,2,1,80,0,1
84062,-181.818181818182,4,2,2,30,0,0
86670,-133.333333333333,4,2,1,70,0,0
89279,-133.333333333333,4,2,2,5,0,0

[Colours]
Combo1 : 162,81,81
Combo2 : 255,147,147
Combo3 : 255,162,117

[HitObjects]
256,192,747,12,2,2866,0:0:0:0:
326,319,3192,6,0,B|336:261|336:261|327:213|327:213|337:142,1,170,6|2,0:0|0:0,0:0:0:0:
185,101,4170,1,0,0:0:0:0:
202,288,4497,5,2,0:0:0:0:
137,242,4660,1,0,0:0:0:0:
208,209,4823,1,0,0:0:0:0:
85,308,4986,2,0,P|58:268|55:226,1,85,2|0,0:0|0:0,0:0:0:0:
102,63,5638,1,0,0:0:0:0:
162,139,5801,6,0,P|206:136|246:124,1,85,2|0,0:0|0:0,0:0:0:0:
390,273,6453,2,0,P|346:270|306:258,1,85,2|0,0:0|0:0,0:0:0:0:
352,56,7105,2,0,L|366:148,1,85,2|0,0:0|0:0,0:0:0:0:
182,283,7757,5,2,0:0:0:0:
106,256,8083,1,0,0:0:0:0:
228,150,8410,6,0,P|223:104|211:62,1,85,6|0,0:0|0:0,0:0:0:0:
166,202,8899,1,0,0:0:0:0:
240,226,9062,2,0,P|265:230|286:231,2,42.5,2|0|0,0:0|0:0|0:0,0:0:0:0:
110,264,9551,1,0,0:0:0:0:
106,270,9632,1,0,0:0:0:0:
102,276,9714,6,0,L|98:329,1,42.5,2|0,0:0|0:0,0:0:0:0:
46,201,10040,2,0,L|42:158,1,42.5
64,81,10366,1,2,0:0:0:0:
203,156,10529,1,0,0:0:0:0:
200,78,10692,1,0,0:0:0:0:
134,119,10855,1,0,0:0:0:0:
190,268,11018,6,0,P|235:260|281:244,1,85,6|0,0:0|0:0,0:0:0:0:
430,133,11670,2,0,P|389:119|347:112,1,85,2|0,0:0|0:0,0:0:0:0:
392,234,12160,1,0,0:0:0:0:
348,354,12323,6,0,P|372:351|396:347,1,42.5,2|0,0:0|0:0,0:0:0:0:
292,261,12649,2,0,P|271:257|249:255,1,42.5
163,348,12975,2,0,P|186:353|210:357,1,42.5,2|0,0:0|0:0,0:0:0:0:
146,173,13301,2,0,L|125:177|104:181,1,42.5
304,254,13627,6,0,P|317:189|312:122,1,127.500004863739,6|2,0:0|0:0,0:0:0:0:
283,51,14116,1,0,0:0:0:0:
324,136,14279,2,0,P|358:133|389:125,1,63.7500024318696,2|0,0:0|0:0,0:0:0:0:
267,44,14605,2,0,P|233:47|202:55,1,63.7500024318696,2|0,0:0|0:0,0:0:0:0:
133,96,14931,5,2,0:0:0:0:
168,254,15094,1,0,0:0:0:0:
228,139,15257,1,2,0:0:0:0:
70,174,15420,1,0,0:0:0:0:
172,262,15583,2,0,P|207:257|241:247,1,63.7500024318696,2|0,0:0|0:0,0:0:0:0:
382,350,15910,2,0,P|347:345|313:335,1,63.7500024318696,2|0,0:0|0:0,0:0:0:0:
315,144,16236,5,2,0:0:0:0:
441,183,16399,1,0,0:0:0:0:
318,243,16562,1,2,0:0:0:0:
447,178,16725,1,0,0:0:0:0:
330,71,16888,2,0,P|326:104|325:150,1,63.7500024318696,2|0,0:0|0:0,0:0:0:0:
422,351,17214,2,0,P|426:318|427:272,1,63.7500024318696,2|0,0:0|0:0,0:0:0:0:
324,65,17540,6,0,P|320:98|319:144,1,63.7500024318696,2|0,0:0|0:0,0:0:0:0:
416,345,17866,2,0,P|420:312|421:266,1,63.7500024318696,2|0,0:0|0:0,0:0:0:0:
203,237,18192,1,2,0:0:0:0:
331,224,18355,1,0,0:0:0:0:
86,233,18518,1,2,0:0:0:0:
214,242,18681,1,0,0:0:0:0:
59,263,18844,6,0,P|70:194|53:140,1,127.500004863739,6|2,0:0|0:0,0:0:0:0:
7,72,19333,1,0,0:0:0:0:
165,33,19497,2,0,P|169:64|171:113,1,68,2|0,0:0|0:0,0:0:0:0:
51,218,19823,2,0,P|52:184|56:150,1,68,2|0,0:0|0:0,0:0:0:0:
60,138,20067,1,0,0:0:0:0:
64,125,20149,5,2,0:0:0:0:
166,220,20312,1,0,0:0:0:0:
176,104,20475,1,2,0:0:0:0:
273,266,20638,1,0,0:0:0:0:
289,79,20801,1,2,0:0:0:0:
347,178,20964,1,0,0:0:0:0:
162,229,21127,2,0,P|163:262|170:299,1,68,2|0,0:0|0:0,0:0:0:0:
249,359,21453,5,2,0:0:0:0:
269,260,21616,1,0,0:0:0:0:
186,87,21779,2,0,P|147:92|111:102,1,76.4999976654053,8|0,0:0|0:0,0:0:0:0:
255,355,22105,5,2,0:0:0:0:
275,256,22268,1,0,0:0:0:0:
185,285,22431,1,0,0:0:0:0:
429,316,22594,6,0,P|426:234|413:159,1,152.999995330811,8|2,0:0|0:0,0:0:0:0:
257,49,23083,1,8,0:0:0:0:
186,224,23247,5,2,0:0:0:0:
190,239,23328,1,2,0:0:0:0:
195,254,23410,1,2,0:0:0:0:
101,48,23573,5,2,0:0:0:0:
97,73,23654,1,2,0:0:0:0:
92,98,23736,1,2,0:0:0:0:
86,122,23817,1,2,0:0:0:0:
78,147,23899,1,2,0:0:0:0:
70,171,23980,1,2,0:0:0:0:
60,194,24062,6,0,P|104:207|141:221,1,85,2|0,0:0|0:0,0:0:0:0:
200,125,24551,1,0,0:0:0:0:
200,125,24714,2,0,P|244:112|281:98,1,85,2|0,0:0|0:0,0:0:0:0:
345,58,25203,1,0,0:0:0:0:
303,176,25366,6,0,P|302:196|304:227,1,42.5,2|0,0:0|0:0,0:0:0:0:
327,291,25692,1,2,0:0:0:0:
371,131,25855,1,0,0:0:0:0:
276,95,26018,1,2,0:0:0:0:
378,131,26181,1,0,0:0:0:0:
226,156,26344,2,0,P|204:154|179:150,1,42.5,2|0,0:0|0:0,0:0:0:0:
48,118,26670,6,0,P|69:114|90:112,1,42.5,2|0,0:0|0:0,0:0:0:0:
138,238,26997,2,0,L|139:289,1,42.5
140,356,27323,5,2,0:0:0:0:
71,193,27486,1,0,0:0:0:0:
145,239,27649,2,0,P|167:238|196:233,1,42.5
266,296,27975,5,2,0:0:0:0:
328,100,28138,1,0,0:0:0:0:
269,164,28301,2,0,P|266:187|265:215,1,42.5
411,319,28627,5,2,0:0:0:0:
346,180,28790,1,0,0:0:0:0:
258,305,28953,2,0,P|260:326|265:346,1,42.5,2|0,0:0|0:0,0:0:0:0:
276,157,29279,6,0,P|239:152|178:155,1,85,2|0,0:0|0:0,0:0:0:0:
118,165,29768,1,0,0:0:0:0:
174,273,29931,2,0,P|188:258|204:239,1,42.5,2|0,0:0|0:0,0:0:0:0:
43,245,30257,2,0,P|56:261|71:276,1,42.5
212,233,30583,5,2,0:0:0:0:
150,92,30747,1,0,0:0:0:0:
81,282,30910,2,0,B|83:306|85:337|85:336,1,42.5
214,146,31236,5,2,0:0:0:0:
19,113,31399,1,0,0:0:0:0:
161,80,31562,1,2,0:0:0:0:
72,179,31725,1,0,0:0:0:0:
173,66,31888,6,0,L|197:160,1,85,2|2,0:0|0:0,0:0:0:0:
162,274,32377,1,0,0:0:0:0:
251,226,32540,2,0,P|272:231|299:239,2,42.5,2|0|2,0:0|0:0|0:0,0:0:0:0:
154,277,33029,1,0,0:0:0:0:
253,357,33192,6,0,P|274:352|301:344,1,42.5,2|0,0:0|0:0,0:0:0:0:
377,298,33518,2,0,L|378:230,1,63.75,2|0,0:0|0:0,0:0:0:0:
378,222,33844,1,2,0:0:0:0:
304,45,34007,1,2,0:0:0:0:
271,267,34170,1,0,0:0:0:0:
368,140,34333,1,2,0:0:0:0:
129,56,34497,6,0,P|125:84|124:118,1,55.2499974708558,6|0,0:0|0:0,0:0:0:0:
238,187,34823,2,0,P|236:159|232:132,1,55.2499974708558
228,121,35067,1,0,0:0:0:0:
222,111,35149,1,2,0:0:0:0:
137,214,35312,1,0,0:0:0:0:
275,107,35475,2,0,P|247:101|216:103,1,55.2499974708558
134,223,35801,6,0,L|138:281,2,55.2499974708558,2|0|0,0:0|0:0|0:0,0:0:0:0:
231,203,36290,1,0,0:0:0:0:
125,125,36453,1,2,0:0:0:0:
262,45,36616,1,0,0:0:0:0:
115,123,36779,1,2,0:0:0:0:
235,212,36942,1,0,0:0:0:0:
41,193,37105,6,0,P|42:247|50:319,1,110.499994941712,2|0,0:0|0:0,0:0:0:0:
67,379,37594,1,0,0:0:0:0:
217,301,37757,5,2,0:0:0:0:
138,128,37920,1,0,0:0:0:0:
280,201,38083,2,0,P|313:194|340:185,1,55.2499974708558
282,126,38410,5,2,0:0:0:0:
109,205,38573,1,0,0:0:0:0:
220,315,38736,2,0,P|248:333|273:346,1,55.2499974708558
146,165,39062,6,0,P|121:177|98:193,1,55.2499974708558,2|0,0:0|0:0,0:0:0:0:
317,245,39388,2,0,P|341:232|364:216,1,55.2499974708558,2|0,0:0|0:0,0:0:0:0:
421,162,39714,6,0,P|422:220|428:287,1,110.499994941712,2|0,0:0|0:0,0:0:0:0:
502,197,40203,1,0,0:0:0:0:
402,75,40366,2,0,P|372:75|341:80,1,55.2499974708558,2|0,0:0|0:0,0:0:0:0:
253,169,40692,1,0,0:0:0:0:
413,158,40855,1,0,0:0:0:0:
245,50,41018,6,0,P|244:99|248:162,1,110.499994941712,2|0,0:0|0:0,0:0:0:0:
274,252,41507,1,0,0:0:0:0:
183,259,41670,2,0,P|156:251|125:235,1,55.2499974708558,2|0,0:0|0:0,0:0:0:0:
253,152,41997,2,0,P|280:160|311:176,1,55.2499974708558,2|0,0:0|0:0,0:0:0:0:
128,308,42323,6,0,L|132:236,1,55.2499974708558,2|2,0:0|0:0,0:0:0:0:
140,59,42649,1,8,0:0:0:0:
141,51,42975,5,2,0:0:0:0:
215,209,43138,1,0,0:0:0:0:
502,144,43464,5,8,0:0:0:0:
397,70,43627,2,0,P|397:103|401:150,1,63.7500024318696,2|2,0:0|0:0,0:0:0:0:
418,263,43953,2,0,P|371:254|315:235,1,95.6250036478044,8|2,0:0|0:0,0:0:0:0:
312,232,44279,5,8,0:0:0:0:
400,149,44442,1,2,0:0:0:0:
143,175,44605,5,8,0:0:0:0:
231,92,44768,1,2,0:0:0:0:
203,274,44931,6,0,L|205:325,2,42.5,2|2|0,0:0|0:0|0:0,0:0:0:0:
148,188,45420,2,0,P|105:190|55:200,1,85,2|0,0:0|0:0,0:0:0:0:
37,207,45910,1,2,0:0:0:0:
205,96,46562,6,0,P|182:60|148:21,2,85
309,274,47540,6,0,L|307:325,2,42.5,2|2|0,0:0|0:0|0:0,0:0:0:0:
364,188,48029,2,0,P|407:190|457:200,1,85,2|0,0:0|0:0,0:0:0:0:
475,207,48519,1,2,0:0:0:0:
306,96,49171,6,0,P|337:67|363:21,2,85
205,126,50149,6,0,P|184:120|157:108,2,42.5,2|2|0,0:0|0:0|0:0,0:0:0:0:
148,204,50638,2,0,P|107:203|64:197,1,85,2|0,0:0|0:0,0:0:0:0:
37,187,51127,1,2,0:0:0:0:
196,290,51779,6,0,P|175:324|148:359,2,85
307,126,52757,6,0,P|328:120|355:108,2,42.5,2|2|0,0:0|0:0|0:0,0:0:0:0:
364,204,53247,2,0,P|405:203|448:197,1,85,2|0,0:0|0:0,0:0:0:0:
475,187,53736,1,2,0:0:0:0:
320,288,54388,5,2,0:0:0:0:
256,352,54714,1,2,0:0:0:0:
192,288,55040,1,2,0:0:0:0:
230,66,55366,6,0,P|237:94|244:135,1,63.7500024318696,6|0,0:0|0:0,0:0:0:0:
101,262,55692,2,0,P|106:230|114:199,1,63.7500024318696,2|0,0:0|0:0,0:0:0:0:
244,138,56018,5,2,0:0:0:0:
119,190,56181,1,0,0:0:0:0:
262,249,56344,1,2,0:0:0:0:
109,91,56507,1,0,0:0:0:0:
246,146,56670,6,0,P|277:140|310:130,1,63.7500024318696,2|0,0:0|0:0,0:0:0:0:
324,124,56915,1,0,0:0:0:0:
324,124,56997,1,2,0:0:0:0:
119,94,57160,1,0,0:0:0:0:
339,116,57323,5,2,0:0:0:0:
133,97,57486,1,0,0:0:0:0:
351,107,57649,2,0,L|360:176,1,63.7500024318696,2|0,0:0|0:0,0:0:0:0:
240,154,57975,6,0,P|233:182|226:223,1,63.7500024318696,6|0,0:0|0:0,0:0:0:0:
369,350,58301,2,0,P|364:318|356:287,1,63.7500024318696,2|0,0:0|0:0,0:0:0:0:
226,226,58627,5,2,0:0:0:0:
351,278,58790,1,0,0:0:0:0:
208,337,58953,1,2,0:0:0:0:
361,179,59116,1,0,0:0:0:0:
370,182,59198,1,0,0:0:0:0:
379,185,59279,5,2,0:0:0:0:
227,234,59442,1,0,0:0:0:0:
75,118,59605,1,2,0:0:0:0:
184,54,59768,1,0,0:0:0:0:
283,164,59931,5,2,0:0:0:0:
293,164,60013,1,0,0:0:0:0:
303,165,60094,1,0,0:0:0:0:
87,284,60257,1,2,0:0:0:0:
196,116,60420,2,0,L|203:149,1,31.8750012159348
55,169,60583,6,0,L|70:95,1,63.7500024318696,6|0,0:0|0:0,0:0:0:0:
71,90,60828,1,0,0:0:0:0:
71,90,60910,1,2,0:0:0:0:
186,243,61073,1,0,0:0:0:0:
275,74,61236,5,8,0:0:0:0:
387,180,61399,1,0,0:0:0:0:
332,325,61562,1,0,0:0:0:0:
326,301,61643,1,0,0:0:0:0:
320,278,61725,1,0,0:0:0:0:
314,255,61806,1,0,0:0:0:0:
309,232,61888,5,6,0:0:0:0:
392,57,62132,1,2,0:0:0:0:
403,64,62214,2,0,L|412:148,1,76.4999976654053,8|0,0:0|0:0,0:0:0:0:
212,142,62540,5,2,0:0:0:0:
217,104,62621,1,2,0:0:0:0:
223,66,62703,1,0,0:0:0:0:
14,212,62866,2,0,L|25:287,1,76.4999976654053,8|2,0:0|0:0,0:0:0:0:
158,373,63192,6,0,B|132:213|132:213|210:277,1,255
256,192,64497,12,2,65475,0:0:0:0:
369,117,65801,6,0,P|366:161|356:215,1,93.5000028533936,6|0,0:0|0:0,0:0:0:0:
182,363,66127,2,0,P|173:317|170:270,1,93.5000028533936,8|0,0:0|0:0,0:0:0:0:
241,190,66453,5,2,0:0:0:0:
82,312,66616,1,0,0:0:0:0:
263,328,66779,5,8,0:0:0:0:
134,180,66942,1,0,0:0:0:0:
334,106,67105,6,0,P|371:142|402:179,1,93.5000028533936,2|0,0:0|0:0,0:0:0:0:
267,358,67431,2,0,P|251:313|240:268,1,93.5000028533936,8|0,0:0|0:0,0:0:0:0:
33,177,67757,6,0,P|18:226|10:274,1,93.5000028533936,2|0,0:0|0:0,0:0:0:0:
164,150,68083,2,0,B|140:46|140:46|125:80,1,140.25000428009,8|0,0:0|0:0,0:0:0:0:
138,235,68410,5,6,0:0:0:0:
250,117,68573,1,0,0:0:0:0:
200,338,68736,1,8,0:0:0:0:
234,211,68899,1,0,0:0:0:0:
12,339,69062,5,6,0:0:0:0:
245,221,69225,1,0,0:0:0:0:
43,122,69388,2,0,L|63:221,1,93.5000028533936,8|0,0:0|0:0,0:0:0:0:
263,55,69714,5,6,0:0:0:0:
196,280,69877,1,0,0:0:0:0:
273,22,70040,5,12,0:0:0:0:
346,233,70203,1,0,0:0:0:0:
89,196,70366,5,6,0:0:0:0:
432,115,70529,1,0,0:0:0:0:
119,86,70692,5,8,0:0:0:0:
303,142,70855,1,0,0:0:0:0:
215,342,71018,6,0,P|222:294|226:248,1,93.5000028533936,6|0,0:0|0:0,0:0:0:0:
166,71,71344,2,0,P|170:117|176:163,1,93.5000028533936,8|0,0:0|0:0,0:0:0:0:
355,205,71670,5,2,0:0:0:0:
251,84,71833,1,0,0:0:0:0:
457,205,71997,1,8,0:0:0:0:
251,342,72160,1,0,0:0:0:0:
327,120,72323,5,2,0:0:0:0:
327,289,72486,1,0,0:0:0:0:
157,90,72649,1,8,0:0:0:0:
157,321,72812,1,0,0:0:0:0:
327,129,72975,5,2,0:0:0:0:
327,298,73138,1,0,0:0:0:0:
100,205,73301,2,0,P|75:158|59:117,1,93.5000028533936,8|0,0:0|0:0,0:0:0:0:
272,205,73627,5,6,0:0:0:0:
155,367,73790,1,2,0:0:0:0:
160,344,73872,1,2,0:0:0:0:
166,321,73953,1,8,0:0:0:0:
287,138,74116,5,2,0:0:0:0:
281,161,74198,1,2,0:0:0:0:
276,184,74279,1,6,0:0:0:0:
56,182,74442,5,2,0:0:0:0:
78,174,74523,1,2,0:0:0:0:
101,168,74605,1,8,0:0:0:0:
300,329,74768,1,2,0:0:0:0:
411,119,74931,5,2,0:0:0:0:
373,92,75012,1,2,0:0:0:0:
327,93,75094,1,2,0:0:0:0:
292,122,75175,1,2,0:0:0:0:
269,163,75257,1,2,0:0:0:0:
234,192,75338,1,2,0:0:0:0:
188,193,75420,1,2,0:0:0:0:
150,166,75501,1,2,0:0:0:0:
136,121,75583,6,0,P|145:98|161:75,1,46.7500014266968,2|2,0:0|0:0,0:0:0:0:
355,172,75747,2,0,P|346:195|330:218,1,46.7500014266968
96,331,75910,6,0,P|80:311|68:286,1,46.7500014266968,2|0,0:0|0:0,0:0:0:0:
184,54,76073,1,0,0:0:0:0:
184,54,76154,1,0,0:0:0:0:
184,54,76236,6,0,P|231:55|279:61,1,93.5000028533936,6|0,0:0|0:0,0:0:0:0:
150,268,76562,1,8,0:0:0:0:
336,368,76725,1,0,0:0:0:0:
256,136,76888,5,2,0:0:0:0:
176,368,77051,1,0,0:0:0:0:
120,176,77214,1,8,0:0:0:0:
256,240,77377,1,0,0:0:0:0:
82,274,77540,6,0,B|81:281|88:221|97:181,1,93.5000028533936,2|0,0:0|0:0,0:0:0:0:
415,182,77866,2,0,B|424:221|431:281|430:274,1,93.5000028533936,8|0,0:0|0:0,0:0:0:0:
256,48,78192,5,2,0:0:0:0:
256,240,78355,1,0,0:0:0:0:
130,52,78518,2,0,P|83:54|32:66,1,93.5000028533936,8|0,0:0|0:0,0:0:0:0:
133,341,78844,5,6,0:0:0:0:
157,52,79007,1,0,0:0:0:0:
1,184,79170,1,8,0:0:0:0:
289,209,79333,1,0,0:0:0:0:
159,346,79497,5,6,0:0:0:0:
27,189,79660,1,0,0:0:0:0:
315,214,79823,1,8,0:0:0:0:
183,57,79986,1,0,0:0:0:0:
159,346,80149,5,6,0:0:0:0:
325,136,80312,1,0,0:0:0:0:
66,205,80475,5,12,0:0:0:0:
316,300,80638,1,0,0:0:0:0:
170,77,80801,5,6,0:0:0:0:
157,357,80964,1,0,0:0:0:0:
287,151,81127,6,0,P|325:135|407:185,1,140.25000428009,8|0,0:0|0:0,0:0:0:0:
336,210,81453,5,6,0:0:0:0:
305,36,81616,1,0,0:0:0:0:
282,283,81779,1,8,0:0:0:0:
125,159,81942,1,0,0:0:0:0:
53,363,82105,6,0,P|62:319|68:262,1,93.5000028533936,2|0,0:0|0:0,0:0:0:0:
222,107,82431,2,0,P|231:151|237:208,1,93.5000028533936,8|0,0:0|0:0,0:0:0:0:
206,288,82757,5,6,0:0:0:0:
336,144,82920,1,0,0:0:0:0:
131,127,83083,5,8,0:0:0:0:
333,230,83247,1,0,0:0:0:0:
97,251,83410,5,2,0:0:0:0:
361,115,83574,1,0,0:0:0:0:
136,48,83736,6,0,L|161:193,1,140.25000428009,8|0,0:0|0:0,0:0:0:0:
97,251,84062,6,0,L|50:248,2,46.7500014266968,2|0|0,0:0|0:0|0:0,0:0:0:0:
259,244,84714,6,0,P|247:221|237:192,1,46.7500014266968,2|0,0:0|0:0,0:0:0:0:
383,214,85040,2,0,P|374:235|363:256,1,46.7500014266968
418,343,85366,6,0,P|463:339|518:339,2,93.5000028533936,2|2|2,0:0|0:0|0:0,0:0:0:0:
311,336,86344,1,0,0:0:0:0:
256,192,86670,5,4,0:0:0:0:
256,192,86752,12,0,89279,0:0:0:0:
