osu file format v14

[General]
AudioFilename: audio.mp3
AudioLeadIn: 0
PreviewTime: 65475
Countdown: 0
SampleSet: Soft
StackLeniency: 0.7
Mode: 0
LetterboxInBreaks: 0
WidescreenStoryboard: 0

[Editor]
DistanceSpacing: 1.5
BeatDivisor: 4
GridSize: 8
TimelineZoom: 2.1

[Metadata]
Title:The Glory Days
TitleUnicode:The Glory Days
Artist:Tia
ArtistUnicode:Tia
Creator:Beomsan
Version:Dailycare's Insane
Source:キャプテン・アース
Tags:Captain Earth Ending ryo supercell Beom Dailycare Down Sonnyc Cut
BeatmapID:1080851
BeatmapSetID:503486

[Difficulty]
HPDrainRate:6
CircleSize:3.9
OverallDifficulty:7
ApproachRate:8.8
SliderMultiplier:1.53
SliderTickRate:1

[Events]
//Background and Video events
0,0,"bg.png",0,0
//Break Periods
//Storyboard Layer 0 (Background)
//Storyboard Layer 1 (Fail)
//Storyboard Layer 2 (Pass)
//Storyboard Layer 3 (Foreground)
//Storyboard Sound Samples

[TimingPoints]
584,326.086956521739,4,2,1,5,1,0
1562,-133.333333333333,4,2,1,20,0,0
2866,-133.333333333333,4,2,1,40,0,0
3844,-133.333333333333,4,2,2,40,0,0
13627,-133.333333333333,4,2,1,40,0,0
24062,-200,4,2,1,40,0,0
24551,-200,4,2,2,40,0,0
34497,-117.647058823529,4,2,1,50,0,0
44931,-200,4,2,2,40,0,0
47214,-200,4,2,2,20,0,0
47540,-200,4,2,2,40,0,0
49823,-200,4,2,2,20,0,0
50149,-200,4,2,2,40,0,0
52431,-200,4,2,2,20,0,0
52757,-200,4,2,2,40,0,0
55366,-111.111111111111,4,2,1,60,0,0
64497,-111.111111111111,4,2,1,40,0,0
65475,-111.111111111111,4,2,2,70,0,0
65801,-90.9090909090909,4,2,1,70,0,1
75828,-111.111111111111,4,2,1,70,0,1
76236,-90.9090909090909,4,2,1,70,0,1
84062,-90.9090909090909,4,2,2,70,0,1
86670,-90.9090909090909,4,2,1,70,0,0

[Colours]
Combo1 : 162,81,81
Combo2 : 255,147,147
Combo3 : 255,162,117

[HitObjects]
256,192,747,12,4,2866,0:0:0:0:
201,71,3192,5,2,0:0:0:0:
136,125,3844,1,2,0:0:0:0:
160,44,4497,1,2,0:0:0:0:
189,122,5149,1,2,0:0:0:0:
0,227,5801,5,2,0:0:0:0:
65,173,6453,1,2,0:0:0:0:
41,254,7106,1,2,0:0:0:0:
12,176,7758,1,2,0:0:0:0:
288,255,8410,5,0,3:2:0:0:
302,338,9062,1,2,0:0:0:0:
244,277,9715,1,2,0:0:0:0:
326,291,10367,1,2,0:0:0:0:
501,170,11018,5,2,0:0:0:0:
436,116,11670,1,2,0:0:0:0:
460,197,12323,1,2,0:0:0:0:
489,119,12975,1,2,0:0:0:0:
264,222,13627,6,0,P|295:197|376:208,1,114.750004377365,2|2,0:0|0:0,0:0:0:0:
489,119,14116,1,0,0:0:0:0:
505,206,14279,2,0,P|464:199|432:191,1,57.3750021886826,2|0,0:0|0:0,0:0:0:0:
338,112,14605,2,0,L|327:33,1,57.3750021886826,2|0,0:0|0:0,0:0:0:0:
407,20,14931,5,2,0:0:0:0:
407,20,15094,2,0,L|414:76,1,57.3750021886826,0|2,0:0|0:0,0:0:0:0:
356,198,15420,2,0,P|299:189|224:182,1,114.750004377365,2|0,0:0|0:0,0:0:0:0:
157,202,15910,1,2,0:0:0:0:
97,139,16073,1,0,0:0:0:0:
157,202,16236,6,0,P|168:251|180:323,1,114.750004377365,2|2,0:0|0:0,0:0:0:0:
233,381,16725,2,0,P|260:343|247:266,1,114.750004377365,2|2,0:0|0:0,0:0:0:0:
286,197,17214,2,0,P|324:203|363:208,1,57.3750021886826,2|0,0:0|0:0,0:0:0:0:
218,140,17540,5,2,0:0:0:0:
184,219,17703,1,0,0:0:0:0:
113,170,17866,2,0,P|75:164|36:159,1,57.3750021886826,2|0,0:0|0:0,0:0:0:0:
2,93,18192,2,0,P|34:66|109:74,1,114.750004377365,2|2,0:0|0:0,0:0:0:0:
103,70,18844,6,0,P|135:97|210:89,1,114.750004377365,2|2,0:0|0:0,0:0:0:0:
319,48,19333,1,0,0:0:0:0:
284,127,19497,2,0,L|276:209,1,57.3750021886826,2|0,0:0|0:0,0:0:0:0:
199,313,19823,1,2,0:0:0:0:
152,240,19986,1,0,0:0:0:0:
152,240,20067,1,0,0:0:0:0:
152,240,20149,6,0,P|193:231|222:229,1,57.3750021886826,2|0,0:0|0:0,0:0:0:0:
283,270,20475,1,2,0:0:0:0:
367,255,20638,2,0,P|398:213|386:141,1,114.750004377365,2|0,0:0|0:0,0:0:0:0:
319,48,21127,2,0,P|278:39|249:37,1,57.3750021886826,10|0,0:0|0:0,0:0:0:0:
227,116,21453,6,0,P|268:125|297:127,1,57.3750021886826,2|0,0:0|0:0,0:0:0:0:
402,24,21779,1,10,0:0:0:0:
402,24,21942,1,0,0:0:0:0:
470,76,22105,2,0,P|485:109|492:210,1,114.750004377365,2|2,0:0|0:0,0:0:0:0:
421,271,22594,6,0,L|413:202,1,57.3750021886826,8|2,0:0|0:0,0:0:0:0:
332,189,22920,1,2,0:0:0:0:
332,189,23083,2,0,L|324:258,1,57.3750021886826,8|2,0:0|0:0,0:0:0:0:
309,267,23328,1,2,0:0:0:0:
309,267,23410,1,2,0:0:0:0:
414,214,23573,1,2,0:0:0:0:
245,158,23736,1,8,0:0:0:0:
245,158,24062,6,0,B|203:137|155:148|155:148|188:170,1,114.75,6|0,0:0|0:0,0:0:0:0:
245,158,24714,2,0,B|284:132|298:85|298:85|263:102,1,114.75,2|0,0:0|0:0,0:0:0:0:
245,158,25366,2,0,B|247:204|281:240|281:240|283:201,1,114.75,2|0,0:0|0:0,0:0:0:0:
282,218,26018,6,0,L|238:223,1,38.25,2|0,0:0|0:0,0:0:0:0:
228,302,26344,2,0,L|189:297,1,38.25,2|0,0:0|0:0,0:0:0:0:
116,336,26670,6,0,P|110:298|94:209,1,114.75,2|0,0:0|0:0,0:0:0:0:
19,169,27323,6,0,L|16:208,1,38.25,2|0,0:0|0:0,0:0:0:0:
35,299,27649,1,0,0:0:0:0:
194,215,27975,6,0,L|155:220,1,38.25,2|0,0:0|0:0,0:0:0:0:
104,143,28301,1,0,0:0:0:0:
189,297,28627,6,0,L|228:302,1,38.25,2|0,0:0|0:0,0:0:0:0:
282,218,28953,1,2,0:0:0:0:
282,218,29279,6,0,P|264:166|321:146,1,114.75,2|0,0:0|0:0,0:0:0:0:
387,127,29931,2,0,P|350:168|305:129,1,114.75,2|0,0:0|0:0,0:0:0:0:
255,80,30583,2,0,P|309:90|297:149,1,114.75,2|0,0:0|0:0,0:0:0:0:
307,140,31236,6,0,L|305:190,1,38.25,2|0,0:0|0:0,0:0:0:0:
342,253,31562,2,0,L|344:303,1,38.25,2|0,0:0|0:0,0:0:0:0:
379,366,31888,6,0,P|409:338|492:352,1,114.75,2|0,0:0|0:0,0:0:0:0:
488,265,32540,2,0,L|477:356,1,76.5,2|0,0:0|0:0,0:0:0:0:
387,200,33029,1,0,0:0:0:0:
466,183,33192,2,0,L|475:107,1,76.5,2|0,0:0|0:0,0:0:0:0:
475,107,33844,5,2,0:0:0:0:
381,108,34007,1,0,0:0:0:0:
293,74,34170,2,0,L|289:23,1,38.25,2|0,0:0|0:0,0:0:0:0:
197,80,34497,6,0,P|158:121|178:215,1,130.050002480507,12|2,0:0|0:0,0:0:0:0:
258,333,34986,1,0,0:0:0:0:
331,251,35149,2,0,P|266:254|201:260,1,130.050002480507,2|2,0:0|0:0,0:0:0:0:
90,232,35638,1,0,0:0:0:0:
0,325,35801,6,0,P|64:321|129:315,1,130.050002480507,2|2,0:0|0:0,0:0:0:0:
167,182,36290,1,0,0:0:0:0:
73,152,36453,2,0,L|80:217,1,65.0250012402535,2|0,0:0|0:0,0:0:0:0:
221,313,36779,2,0,L|227:248,1,65.0250012402535,2|0,0:0|0:0,0:0:0:0:
197,75,37105,6,0,P|154:120|167:182,1,130.050002480507,2|2,0:0|0:0,0:0:0:0:
314,255,37594,1,0,0:0:0:0:
282,110,37757,5,2,0:0:0:0:
254,192,37920,1,0,0:0:0:0:
282,110,38083,2,0,P|286:72|288:35,1,65.0250012402535,2|0,0:0|0:0,0:0:0:0:
389,164,38410,5,2,0:0:0:0:
361,82,38573,1,0,0:0:0:0:
389,164,38736,2,0,P|393:202|395:239,1,65.0250012402535,2|0,0:0|0:0,0:0:0:0:
504,140,39062,5,2,0:0:0:0:
476,222,39225,1,0,0:0:0:0:
504,140,39388,2,0,P|508:102|510:65,1,65.0250012402535,2|0,0:0|0:0,0:0:0:0:
422,21,39714,6,0,P|374:32|352:110,1,130.050002480507,2|2,0:0|0:0,0:0:0:0:
251,235,40203,1,0,0:0:0:0:
264,146,40366,2,0,L|260:70,1,65.0250012402535,2|0,0:0|0:0,0:0:0:0:
369,189,40692,2,0,L|365:253,1,65.0250012402535,2|0,0:0|0:0,0:0:0:0:
264,325,41018,6,0,P|220:318|185:305,1,65.0250012402535,2|0,0:0|0:0,0:0:0:0:
49,231,41344,1,10,0:0:0:0:
49,231,41507,1,0,0:0:0:0:
36,329,41670,6,0,P|80:322|115:309,1,65.0250012402535,2|2,0:0|0:0,0:0:0:0:
251,235,41997,1,10,0:0:0:0:
170,188,42160,1,0,0:0:0:0:
251,235,42323,6,0,P|309:244|392:262,1,130.050002480507,2|10,0:0|0:0,0:0:0:0:
247,144,42975,1,2,0:0:0:0:
170,188,43138,2,0,P|112:179|48:166,1,97.5375018603802,2|0,0:0|0:0,0:0:0:0:
42,164,43464,1,10,0:0:0:0:
42,164,43627,6,0,L|51:238,1,65.0250012402535,2|2,0:0|0:0,0:0:0:0:
118,126,43953,2,0,L|125:61,1,65.0250012402535,10|2,0:0|0:0,0:0:0:0:
148,45,44198,1,10,0:0:0:0:
148,45,44279,2,0,P|183:56|222:62,1,65.0250012402535,2|2,0:0|0:0,0:0:0:0:
333,115,44605,2,0,P|301:120|270:130,1,65.0250012402535,10|2,0:0|0:0,0:0:0:0:
202,189,44931,6,0,L|206:232,2,38.25,2|0|0,0:0|0:0|0:0,0:0:0:0:
277,243,45420,2,0,L|185:235,1,76.5,2|0,0:0|0:0,0:0:0:0:
362,251,45910,1,2,0:0:0:0:
362,251,46562,6,0,L|351:343,2,76.5,2|2|2,0:0|0:0|0:0,0:0:0:0:
330,128,47540,6,0,L|326:171,2,38.25,2|0|0,0:0|0:0|0:0,0:0:0:0:
255,182,48029,2,0,L|347:174,1,76.5,2|0,0:0|0:0,0:0:0:0:
170,190,48519,1,2,0:0:0:0:
170,190,49170,6,0,L|181:282,2,76.5,2|2|2,0:0|0:0|0:0,0:0:0:0:
405,307,50149,5,2,0:0:0:0:
463,257,50312,1,0,0:0:0:0:
425,190,50475,1,0,0:0:0:0:
369,241,50638,2,0,P|341:253|287:236,1,76.5,2|0,0:0|0:0,0:0:0:0:
331,175,51127,1,2,0:0:0:0:
331,175,51779,6,0,P|333:136|339:99,2,76.5,2|2|2,0:0|0:0|0:0,0:0:0:0:
107,307,52757,5,2,0:0:0:0:
49,257,52920,1,0,0:0:0:0:
87,190,53083,1,0,0:0:0:0:
143,241,53247,2,0,P|171:253|225:236,1,76.5,2|0,0:0|0:0,0:0:0:0:
181,175,53735,1,2,0:0:0:0:
181,175,54388,5,2,0:0:0:0:
155,340,54714,1,2,0:0:0:0:
337,257,55040,1,2,0:0:0:0:
172,99,55366,6,0,P|224:79|305:125,1,137.69999579773,2|2,1:2|0:0,0:0:0:0:
329,189,55855,1,0,0:0:0:0:
372,49,56018,6,0,P|374:81|384:126,1,68.8499978988648,2|0,0:0|0:0,0:0:0:0:
337,257,56344,2,0,P|335:225|325:180,1,68.8499978988648,2|0,0:0|0:0,0:0:0:0:
221,167,56670,5,2,0:0:0:0:
284,110,56833,1,0,0:0:0:0:
221,167,56997,2,0,P|223:199|233:244,1,68.8499978988648,2|0,0:0|0:0,0:0:0:0:
304,342,57323,6,0,L|391:333,1,68.8499978988648,2|0,0:0|0:0,0:0:0:0:
224,318,57649,2,0,L|155:325,1,68.8499978988648,2|0,0:0|0:0,0:0:0:0:
79,357,57975,5,2,1:2:0:0:
114,253,58138,1,0,0:0:0:0:
114,253,58219,1,2,0:0:0:0:
114,253,58301,2,0,L|101:175,1,68.8499978988648,2|0,0:0|0:0,0:0:0:0:
145,104,58627,6,0,L|137:57,2,34.4249989494324,2|2|0,0:0|0:0|0:0,0:0:0:0:
221,155,58953,2,0,P|255:154|289:148,1,68.8499978988648,2|0,0:0|0:0,0:0:0:0:
335,0,59279,5,0,1:2:0:0:
335,0,59605,2,0,L|332:68,1,68.8499978988648,2|0,0:0|0:0,0:0:0:0:
151,175,59931,5,2,0:0:0:0:
151,175,60013,1,2,0:0:0:0:
151,175,60094,2,0,P|140:135|161:86,1,68.8499978988648,2|2,0:0|0:0,0:0:0:0:
243,40,60420,1,0,0:0:0:0:
66,72,60583,5,2,1:2:0:0:
237,143,60747,1,0,0:0:0:0:
237,143,60828,1,0,0:0:0:0:
237,143,60910,2,0,P|277:137|314:118,1,68.8499978988648,2|0,0:0|0:0,0:0:0:0:
160,78,61236,5,2,1:2:0:0:
116,168,61399,1,0,0:0:0:0:
116,168,61562,2,0,L|120:243,1,68.8499978988648,2|0,0:0|0:0,0:0:0:0:
157,329,61888,5,2,1:2:0:0:
38,355,62051,1,0,0:0:0:0:
38,355,62132,1,0,0:0:0:0:
38,355,62214,2,0,L|42:280,1,68.8499978988648,2|0,0:0|0:0,0:0:0:0:
129,169,62540,6,0,P|127:205|114:250,1,68.8499978988648,2|0,1:2|0:0,0:0:0:0:
17,122,62866,2,0,P|9:89|8:55,1,68.8499978988648,2|0,0:0|0:0,0:0:0:0:
161,0,63192,5,0,0:0:0:0:
351,384,64497,1,0,0:0:0:0:
494,103,65475,5,2,0:0:0:0:
494,103,65801,6,0,P|482:154|478:197,1,84.1500025680543,6|0,0:0|0:0,0:0:0:0:
250,135,66127,2,0,L|398:128,1,126.225003852081,8|0,0:0|0:0,0:0:0:0:
392,129,66453,2,0,P|404:78|408:35,1,84.1500025680543,2|0,0:0|0:0,0:0:0:0:
323,3,66779,1,8,0:0:0:0:
323,3,66942,1,0,0:0:0:0:
494,103,67105,5,2,0:0:0:0:
494,103,67268,2,0,P|482:154|478:197,1,84.1500025680543,0|8,0:0|0:0,0:0:0:0:
498,293,67594,2,0,P|462:266|317:266,1,168.300005136109
342,255,68083,2,0,L|351:349,1,84.1500025680543,8|0,0:0|0:0,0:0:0:0:
429,199,68410,5,2,0:0:0:0:
240,261,68573,1,2,0:0:0:0:
333,164,68736,5,8,0:0:0:0:
249,271,68899,1,0,0:0:0:0:
252,101,69062,5,2,0:0:0:0:
342,255,69225,1,2,0:0:0:0:
175,327,69388,5,8,0:0:0:0:
207,180,69551,1,0,0:0:0:0:
334,342,69714,6,0,B|293:359|293:359|252:351,1,84.1500025680543,2|0,0:0|0:0,0:0:0:0:
62,251,70040,2,0,B|103:234|103:234|142:241,1,84.1500025680543,8|0,0:0|0:0,0:0:0:0:
366,156,70366,2,0,L|185:141,1,168.300005136109,2|8,0:0|0:0,0:0:0:0:
183,141,71018,6,0,P|138:144|96:152,1,84.1500025680543,2|0,0:0|0:0,0:0:0:0:
4,28,71344,2,0,P|54:61|137:44,1,126.225003852081,8|0,0:0|0:0,0:0:0:0:
133,46,71670,2,0,P|178:43|220:35,1,84.1500025680543,2|0,0:0|0:0,0:0:0:0:
311,69,71997,1,8,0:0:0:0:
311,69,72160,1,0,0:0:0:0:
183,141,72323,5,2,0:0:0:0:
183,141,72486,2,0,P|138:144|96:152,1,84.1500025680543,0|8,0:0|0:0,0:0:0:0:
8,144,72812,2,0,P|18:204|34:322,1,168.300005136109
32,310,73301,2,0,P|77:307|119:299,1,84.1500025680543,8|0,0:0|0:0,0:0:0:0:
198,259,73627,5,2,0:0:0:0:
160,384,73790,1,0,0:0:0:0:
160,384,73872,1,2,0:0:0:0:
160,384,73953,1,8,0:0:0:0:
85,220,74116,1,0,0:0:0:0:
258,327,74279,6,0,P|285:282|284:239,1,84.1500025680543,2|2,0:0|0:0,0:0:0:0:
173,137,74605,2,0,L|63:140,1,84.1500025680543,8|0,0:0|0:0,0:0:0:0:
211,217,74931,5,2,0:0:0:0:
255,98,75094,1,0,0:0:0:0:
293,178,75257,2,0,L|377:175,1,84.1500025680543,8|0,0:0|0:0,0:0:0:0:
495,205,75583,5,2,0:0:0:0:
496,191,75664,1,0,0:0:0:0:
497,177,75747,1,2,0:0:0:0:
499,163,75828,2,0,P|456:123|375:138,1,137.69999579773,2|0,0:0|0:0,0:0:0:0:
377,175,76236,6,0,L|293:178,1,84.1500025680543,6|0,0:0|0:0,0:0:0:0:
128,300,76562,2,0,P|205:308|244:261,1,126.225003852081,8|0,0:0|0:0,0:0:0:0:
243,260,76888,2,0,L|327:263,1,84.1500025680543,2|0,0:0|0:0,0:0:0:0:
394,335,77214,1,8,0:0:0:0:
394,335,77377,1,0,0:0:0:0:
377,175,77540,5,2,0:0:0:0:
377,175,77703,2,0,L|367:88,1,84.1500025680543,0|8,0:0|0:0,0:0:0:0:
452,51,78029,2,0,B|385:42|385:42|356:48|356:48|270:37,1,168.300005136109
285,38,78518,2,0,P|269:88|265:132,1,84.1500025680543,8|0,0:0|0:0,0:0:0:0:
284,222,78844,5,2,0:0:0:0:
189,46,79007,1,2,0:0:0:0:
358,109,79170,5,8,0:0:0:0:
183,54,79333,1,0,0:0:0:0:
375,1,79497,5,2,0:0:0:0:
265,133,79660,1,2,0:0:0:0:
378,245,79823,5,8,0:0:0:0:
364,101,79986,1,0,0:0:0:0:
292,322,80149,6,0,B|331:341|331:341|376:335,1,84.1500025680543,2|0,0:0|0:0,0:0:0:0:
494,176,80475,2,0,B|455:157|455:157|410:163,1,84.1500025680543,8|0,0:0|0:0,0:0:0:0:
210,254,80801,2,0,L|378:245,1,168.300005136109,2|12,0:0|0:0,0:0:0:0:
392,244,81453,6,0,L|387:145,1,84.1500025680543,2|0,0:0|0:0,0:0:0:0:
296,55,81779,2,0,P|247:56|147:13,1,126.225003852081,8|0,0:0|0:0,0:0:0:0:
159,23,82105,2,0,L|163:107,1,84.1500025680543,2|0,0:0|0:0,0:0:0:0:
95,168,82431,1,8,0:0:0:0:
95,168,82594,1,0,0:0:0:0:
215,265,82757,5,2,0:0:0:0:
215,265,82920,2,0,L|220:166,1,84.1500025680543,0|8,0:0|0:0,0:0:0:0:
314,185,83247,2,0,P|329:228|341:363,1,168.300005136109
342,349,83736,2,0,L|251:369,1,84.1500025680543,8|0,0:0|0:0,0:0:0:0:
412,291,84062,5,2,0:0:0:0:
497,285,84225,1,2,0:0:0:0:
418,312,84388,1,2,0:0:0:0:
242,229,84714,5,2,0:0:0:0:
157,223,84877,1,2,0:0:0:0:
236,250,85040,1,2,0:0:0:0:
414,170,85366,5,2,0:0:0:0:
499,164,85692,1,0,0:0:0:0:
420,191,86018,1,2,0:0:0:0:
263,111,86670,5,4,0:0:0:0:
