osu file format v14

[General]
AudioFilename: theglorydays.mp3
AudioLeadIn: 0
PreviewTime: 148889
Countdown: 0
SampleSet: Soft
StackLeniency: 0.7
Mode: 3
LetterboxInBreaks: 0
SpecialStyle: 0
WidescreenStoryboard: 0

[Editor]
Bookmarks: 65248,149215,167476,198780,240519
DistanceSpacing: 2
BeatDivisor: 4
GridSize: 8
TimelineZoom: 2.799999

[Metadata]
Title:The Glory Days
TitleUnicode:The Glory Days
Artist:Tia
ArtistUnicode:ティア
Creator:[FX] AEM
Version:Insane
Source:キャプテン・アース
Tags:ryo supercell ending anime ed theme
BeatmapID:642805
BeatmapSetID:284465

[Difficulty]
HPDrainRate:8
CircleSize:4
OverallDifficulty:8
ApproachRate:0
SliderMultiplier:1.4
SliderTickRate:1

[Events]
//Background and Video events
0,0,"bg.jpg",0,0
//Break Periods
//Storyboard Layer 0 (Background)
//Storyboard Layer 1 (Fail)
//Storyboard Layer 2 (Pass)
//Storyboard Layer 3 (Foreground)
//Storyboard Sound Samples

[TimingPoints]
563,326.086956521739,4,2,1,20,1,0
13932,-100,4,2,1,23,0,0
14584,-100,4,2,1,26,0,0
15236,-100,4,2,1,29,0,0
15889,-100,4,2,1,32,0,0
16541,-100,4,2,1,35,0,0
17193,-100,4,2,1,38,0,0
17845,-100,4,2,1,41,0,0
18497,-100,4,2,1,44,0,0
19149,-100,4,2,1,47,0,0
19802,-100,4,2,1,50,0,0
20454,-100,4,2,1,53,0,0
21106,-100,4,2,1,56,0,0
21758,-100,4,2,1,59,0,0
22410,-100,4,2,1,62,0,0
23062,-100,4,2,1,65,0,0
23715,-100,4,2,1,68,0,0
24041,-100,4,2,1,20,0,0
34476,-100,4,2,2,20,0,0
34802,-100,4,2,1,20,0,0
55345,-100,4,2,2,20,0,0
55427,-100,4,2,1,20,0,0
63131,-200,4,2,1,20,0,0
64476,-188.679245283019,4,2,1,20,0,0
64530,-178.571428571429,4,2,1,20,0,0
64584,-169.491525423729,4,2,1,20,0,0
64639,-161.290322580645,4,2,1,20,0,0
64693,-153.846153846154,4,2,1,20,0,0
64747,-147.058823529412,4,2,1,20,0,0
64802,-140.845070422535,4,2,1,20,0,0
64856,-135.135135135135,4,2,1,20,0,0
64910,-129.87012987013,4,2,1,20,0,0
64965,-125,4,2,1,20,0,0
65019,-120.481927710843,4,2,1,20,0,0
65073,-116.279069767442,4,2,1,20,0,0
65128,-112.359550561798,4,2,1,20,0,0
65182,-108.695652173913,4,2,1,20,0,0
65236,-104.166666666667,4,2,1,20,0,0
65291,-100,4,2,1,20,0,0
65454,-133.333333333333,4,2,1,20,0,0
65617,-74.0740740740741,4,2,1,20,0,0
65698,-86.9565217391304,4,2,1,20,0,0
65780,-100,4,2,1,20,0,1
86649,-100,4,2,1,20,0,0
138823,-100,4,2,2,20,0,0
138905,-100,4,2,1,20,0,0
149258,-100,4,2,1,20,0,1
170128,-100,4,2,1,20,0,0
180236,-100,4,2,2,20,0,0
180562,-100,4,2,1,20,0,0
198823,-100,4,2,1,20,0,1
219693,-100,4,2,1,20,0,0

[HitObjects]
448,192,2845,128,0,3171:0:0:0:0:
320,192,3171,1,0,0:0:0:0:
192,192,3171,1,0,0:0:0:0:
64,192,3171,128,2,5454:0:0:0:0:
448,192,3497,1,0,0:0:0:0:
192,192,3823,1,0,0:0:0:0:
320,192,3986,1,0,0:0:0:0:
448,192,4149,1,0,0:0:0:0:
192,192,4476,1,0,0:0:0:0:
320,192,4639,1,0,0:0:0:0:
448,192,4802,1,0,0:0:0:0:
192,192,5128,1,0,0:0:0:0:
320,192,5291,1,0,0:0:0:0:
448,192,5454,1,0,0:0:0:0:
192,192,5780,1,0,0:0:0:0:
64,192,5780,128,2,7736:0:0:0:0:
320,192,5780,1,0,0:0:0:0:
448,192,6106,1,0,0:0:0:0:
192,192,6432,1,0,0:0:0:0:
320,192,6595,1,0,0:0:0:0:
448,192,6758,1,0,0:0:0:0:
192,192,7084,1,0,0:0:0:0:
320,192,7247,1,0,0:0:0:0:
448,192,7410,1,0,0:0:0:0:
320,192,7736,128,0,8062:0:0:0:0:
192,192,8062,128,0,8389:0:0:0:0:
448,192,8389,128,2,10997:0:0:0:0:
64,192,8389,1,0,0:0:0:0:
320,192,8715,1,0,0:0:0:0:
192,192,8878,1,0,0:0:0:0:
64,192,9041,1,0,0:0:0:0:
320,192,9367,1,0,0:0:0:0:
64,192,9693,1,0,0:0:0:0:
192,192,9856,1,0,0:0:0:0:
320,192,10019,1,0,0:0:0:0:
64,192,10345,1,0,0:0:0:0:
192,192,10508,1,0,0:0:0:0:
320,192,10671,1,0,0:0:0:0:
192,192,10997,128,2,12954:0:0:0:0:
64,192,10997,1,0,0:0:0:0:
320,192,11323,1,0,0:0:0:0:
64,192,11649,1,0,0:0:0:0:
448,192,11812,1,0,0:0:0:0:
320,192,11976,1,0,0:0:0:0:
64,192,12302,1,0,0:0:0:0:
448,192,12465,1,0,0:0:0:0:
320,192,12628,1,0,0:0:0:0:
448,192,12954,1,0,0:0:0:0:
64,192,12954,128,0,13606:0:0:0:0:
320,192,13117,1,0,0:0:0:0:
192,192,13280,128,0,13606:0:0:0:0:
320,192,13606,1,0,0:0:0:0:
448,192,13606,1,0,0:0:0:0:
192,192,13769,1,0,0:0:0:0:
64,192,13932,1,8,0:0:0:0:
448,192,13932,1,0,0:0:0:0:
448,192,14095,1,0,0:0:0:0:
64,192,14258,1,0,0:0:0:0:
192,192,14258,1,0,0:0:0:0:
320,192,14421,1,0,0:0:0:0:
64,192,14584,1,8,0:0:0:0:
448,192,14584,1,0,0:0:0:0:
64,192,14747,1,0,0:0:0:0:
320,192,14910,1,0,0:0:0:0:
448,192,14910,1,0,0:0:0:0:
192,192,15073,1,0,0:0:0:0:
64,192,15236,1,8,0:0:0:0:
448,192,15236,1,0,0:0:0:0:
448,192,15399,1,0,0:0:0:0:
64,192,15562,1,0,0:0:0:0:
192,192,15562,1,0,0:0:0:0:
320,192,15726,1,0,0:0:0:0:
448,192,15889,1,0,0:0:0:0:
64,192,15889,1,8,0:0:0:0:
64,192,16052,1,0,0:0:0:0:
320,192,16215,1,0,0:0:0:0:
448,192,16215,1,0,0:0:0:0:
192,192,16215,1,0,0:0:0:0:
192,192,16378,1,0,0:0:0:0:
64,192,16541,1,8,0:0:0:0:
448,192,16541,1,0,0:0:0:0:
448,192,16704,1,0,0:0:0:0:
64,192,16867,1,0,0:0:0:0:
192,192,16867,1,0,0:0:0:0:
320,192,16867,1,0,0:0:0:0:
320,192,17030,1,0,0:0:0:0:
64,192,17193,1,8,0:0:0:0:
448,192,17193,1,0,0:0:0:0:
64,192,17356,1,0,0:0:0:0:
320,192,17519,1,0,0:0:0:0:
448,192,17519,1,0,0:0:0:0:
192,192,17519,1,0,0:0:0:0:
192,192,17682,1,0,0:0:0:0:
64,192,17845,1,8,0:0:0:0:
448,192,17845,1,0,0:0:0:0:
448,192,18008,1,0,0:0:0:0:
64,192,18171,1,0,0:0:0:0:
192,192,18171,1,0,0:0:0:0:
320,192,18171,1,0,0:0:0:0:
320,192,18334,1,0,0:0:0:0:
64,192,18497,1,8,0:0:0:0:
448,192,18497,1,0,0:0:0:0:
64,192,18660,1,0,0:0:0:0:
192,192,18823,128,0,21432:0:0:0:0:
448,192,18823,1,0,0:0:0:0:
320,192,18823,1,0,0:0:0:0:
320,192,18986,1,0,0:0:0:0:
448,192,19149,1,0,0:0:0:0:
64,192,19149,1,0,0:0:0:0:
448,192,19312,1,0,0:0:0:0:
320,192,19394,1,0,0:0:0:0:
64,192,19476,1,0,0:0:0:0:
320,192,19639,1,0,0:0:0:0:
448,192,19802,1,0,0:0:0:0:
64,192,19802,1,0,0:0:0:0:
320,192,19965,1,0,0:0:0:0:
448,192,20046,1,0,0:0:0:0:
320,192,20128,1,0,0:0:0:0:
64,192,20291,1,0,0:0:0:0:
448,192,20454,1,0,0:0:0:0:
320,192,20454,1,0,0:0:0:0:
448,192,20617,1,0,0:0:0:0:
64,192,20780,1,0,0:0:0:0:
320,192,20780,1,0,0:0:0:0:
448,192,20943,1,0,0:0:0:0:
64,192,21106,1,0,0:0:0:0:
320,192,21106,1,0,0:0:0:0:
64,192,21269,1,0,0:0:0:0:
320,192,21432,128,0,23062:0:0:0:0:
448,192,21432,1,0,0:0:0:0:
64,192,21595,1,0,0:0:0:0:
448,192,21758,1,0,0:0:0:0:
192,192,21758,1,0,0:0:0:0:
64,192,21921,1,0,0:0:0:0:
192,192,22084,1,0,0:0:0:0:
448,192,22084,1,0,0:0:0:0:
192,192,22247,1,0,0:0:0:0:
448,192,22410,1,0,0:0:0:0:
64,192,22573,1,0,0:0:0:0:
192,192,22573,1,0,0:0:0:0:
64,192,22736,1,0,0:0:0:0:
448,192,22736,1,0,0:0:0:0:
448,192,22899,1,0,0:0:0:0:
64,192,23062,1,0,0:0:0:0:
448,192,23062,1,0,0:0:0:0:
192,192,23062,1,0,0:0:0:0:
320,192,23226,1,0,0:0:0:0:
192,192,23307,1,0,0:0:0:0:
320,192,23389,1,0,0:0:0:0:
64,192,23389,1,0,0:0:0:0:
448,192,23389,1,0,0:0:0:0:
320,192,23552,1,0,0:0:0:0:
448,192,23552,1,0,0:0:0:0:
64,192,23552,1,0,0:0:0:0:
64,192,23715,1,0,0:0:0:0:
448,192,23715,1,0,0:0:0:0:
320,192,23715,1,0,0:0:0:0:
192,192,23796,1,0,0:0:0:0:
320,192,23878,1,0,0:0:0:0:
448,192,23959,1,0,0:0:0:0:
192,192,24041,1,0,0:0:0:0:
64,192,24041,1,0,0:0:0:0:
320,192,24041,1,0,0:0:0:0:
64,192,24204,1,0,0:0:0:0:
448,192,24367,1,4,0:0:0:0:
192,192,24367,1,4,0:0:0:0:
320,192,24693,1,0,0:0:0:0:
448,192,24693,1,0,0:0:0:0:
64,192,24856,1,0,0:0:0:0:
320,192,25019,1,4,0:0:0:0:
192,192,25019,1,4,0:0:0:0:
448,192,25345,1,0,0:0:0:0:
320,192,25345,1,0,0:0:0:0:
64,192,25508,1,0,0:0:0:0:
192,192,25671,1,4,0:0:0:0:
448,192,25671,1,4,0:0:0:0:
448,192,25997,1,0,0:0:0:0:
320,192,25997,1,0,0:0:0:0:
64,192,26160,1,0,0:0:0:0:
192,192,26323,1,4,0:0:0:0:
320,192,26323,1,4,0:0:0:0:
64,192,26649,1,0,0:0:0:0:
320,192,26649,1,0,0:0:0:0:
448,192,26812,1,0,0:0:0:0:
320,192,26976,1,4,0:0:0:0:
192,192,26976,1,4,0:0:0:0:
64,192,27139,1,0,0:0:0:0:
448,192,27302,1,0,0:0:0:0:
320,192,27302,1,0,0:0:0:0:
64,192,27465,1,0,0:0:0:0:
192,192,27628,1,4,0:0:0:0:
448,192,27628,1,4,0:0:0:0:
64,192,27791,1,0,0:0:0:0:
320,192,27954,1,0,0:0:0:0:
448,192,27954,1,0,0:0:0:0:
64,192,28117,1,0,0:0:0:0:
192,192,28280,1,4,0:0:0:0:
320,192,28280,1,4,0:0:0:0:
64,192,28443,1,0,0:0:0:0:
192,192,28606,1,0,0:0:0:0:
448,192,28606,1,0,0:0:0:0:
64,192,28769,1,0,0:0:0:0:
320,192,28932,1,4,0:0:0:0:
448,192,28932,128,0,29258:0:0:0:0:
64,192,29258,1,0,0:0:0:0:
192,192,29258,128,0,29584:0:0:0:0:
448,192,29421,1,0,0:0:0:0:
64,192,29584,1,4,0:0:0:0:
320,192,29584,1,4,0:0:0:0:
448,192,29747,1,0,0:0:0:0:
320,192,29910,1,0,0:0:0:0:
192,192,29910,1,0,0:0:0:0:
448,192,30073,1,0,0:0:0:0:
192,192,30236,1,4,0:0:0:0:
64,192,30236,1,4,0:0:0:0:
448,192,30399,1,0,0:0:0:0:
320,192,30562,1,0,0:0:0:0:
64,192,30562,1,0,0:0:0:0:
448,192,30726,1,0,0:0:0:0:
192,192,30889,1,4,0:0:0:0:
320,192,30889,1,4,0:0:0:0:
64,192,31052,1,0,0:0:0:0:
320,192,31215,1,0,0:0:0:0:
448,192,31215,1,0,0:0:0:0:
64,192,31378,1,0,0:0:0:0:
192,192,31541,1,4,0:0:0:0:
320,192,31541,1,4,0:0:0:0:
64,192,31704,1,0,0:0:0:0:
192,192,31867,1,0,0:0:0:0:
448,192,31867,1,0,0:0:0:0:
448,192,32030,1,0,0:0:0:0:
320,192,32193,1,0,0:0:0:0:
64,192,32193,1,0,0:0:0:0:
64,192,32356,1,0,0:0:0:0:
192,192,32519,1,0,0:0:0:0:
448,192,32519,1,0,0:0:0:0:
320,192,32682,1,0,0:0:0:0:
448,192,32682,1,0,0:0:0:0:
64,192,32845,128,4,33171:0:0:0:0:
192,192,33171,1,0,0:0:0:0:
448,192,33171,1,0,0:0:0:0:
448,192,33497,128,4,33823:0:0:0:0:
192,192,33823,1,0,0:0:0:0:
64,192,33823,1,0,0:0:0:0:
192,192,33986,1,0,0:0:0:0:
320,192,33986,1,0,0:0:0:0:
320,192,34149,1,4,0:0:0:0:
448,192,34149,1,0,0:0:0:0:
448,192,34312,1,0,0:0:0:0:
320,192,34476,1,0,0:0:0:0:
64,192,34476,1,4,0:0:0:0:
192,192,34476,1,4,0:0:0:0:
192,192,34802,1,0,0:0:0:0:
320,192,34965,1,0,0:0:0:0:
192,192,35128,1,0,0:0:0:0:
64,192,35128,1,0,0:0:0:0:
448,192,35291,1,0,0:0:0:0:
320,192,35454,1,4,0:0:0:0:
64,192,35454,1,4,0:0:0:0:
64,192,35780,1,0,0:0:0:0:
192,192,35780,1,0,0:0:0:0:
448,192,35943,1,0,0:0:0:0:
320,192,36106,1,4,0:0:0:0:
192,192,36106,1,4,0:0:0:0:
64,192,36432,1,0,0:0:0:0:
192,192,36432,1,0,0:0:0:0:
448,192,36595,1,0,0:0:0:0:
320,192,36758,1,4,0:0:0:0:
64,192,36758,1,4,0:0:0:0:
192,192,36921,1,0,0:0:0:0:
320,192,37084,1,0,0:0:0:0:
448,192,37084,1,0,0:0:0:0:
192,192,37410,1,0,0:0:0:0:
64,192,37410,1,0,0:0:0:0:
320,192,37736,1,0,0:0:0:0:
64,192,37736,1,0,0:0:0:0:
448,192,37899,1,0,0:0:0:0:
320,192,38062,1,4,0:0:0:0:
192,192,38062,1,4,0:0:0:0:
64,192,38389,1,0,0:0:0:0:
192,192,38389,1,0,0:0:0:0:
448,192,38552,1,0,0:0:0:0:
320,192,38715,1,4,0:0:0:0:
192,192,38715,1,4,0:0:0:0:
64,192,39041,1,0,0:0:0:0:
192,192,39041,1,0,0:0:0:0:
448,192,39204,1,0,0:0:0:0:
320,192,39367,1,4,0:0:0:0:
64,192,39367,1,4,0:0:0:0:
192,192,39530,1,0,0:0:0:0:
320,192,39693,1,0,0:0:0:0:
448,192,39693,1,0,0:0:0:0:
192,192,40019,1,0,0:0:0:0:
320,192,40182,1,0,0:0:0:0:
64,192,40345,1,0,0:0:0:0:
192,192,40345,1,0,0:0:0:0:
448,192,40508,1,0,0:0:0:0:
320,192,40671,1,4,0:0:0:0:
64,192,40671,1,4,0:0:0:0:
192,192,40834,1,0,0:0:0:0:
448,192,40997,1,0,0:0:0:0:
192,192,40997,1,0,0:0:0:0:
320,192,41160,1,0,0:0:0:0:
64,192,41323,128,0,41649:0:0:0:0:
192,192,41649,1,0,0:0:0:0:
192,192,41812,1,0,0:0:0:0:
320,192,41976,1,0,0:0:0:0:
448,192,41976,128,0,42302:0:0:0:0:
192,192,42302,1,0,0:0:0:0:
64,192,42302,1,0,0:0:0:0:
192,192,42628,1,0,0:0:0:0:
320,192,42628,128,0,42954:0:0:0:0:
448,192,42954,1,0,0:0:0:0:
192,192,42954,1,0,0:0:0:0:
320,192,43117,1,0,0:0:0:0:
64,192,43117,1,0,0:0:0:0:
448,192,43280,1,0,0:0:0:0:
64,192,43443,1,0,0:0:0:0:
192,192,43443,1,0,0:0:0:0:
192,192,43606,1,0,0:0:0:0:
448,192,43606,1,0,0:0:0:0:
64,192,43769,1,0,0:0:0:0:
320,192,43769,1,0,0:0:0:0:
192,192,43932,1,0,0:0:0:0:
448,192,43932,1,0,0:0:0:0:
320,192,43932,1,0,0:0:0:0:
448,192,44095,1,0,0:0:0:0:
320,192,44177,1,0,0:0:0:0:
192,192,44258,1,0,0:0:0:0:
64,192,44258,1,0,0:0:0:0:
320,192,44421,1,0,0:0:0:0:
448,192,44421,1,0,0:0:0:0:
192,192,44584,1,0,0:0:0:0:
64,192,44584,1,0,0:0:0:0:
320,192,44747,1,0,0:0:0:0:
192,192,44747,1,0,0:0:0:0:
448,192,44910,1,0,0:0:0:0:
64,192,44910,1,0,0:0:0:0:
192,192,45073,1,0,0:0:0:0:
320,192,45236,1,0,0:0:0:0:
192,192,45399,1,0,0:0:0:0:
64,192,45726,1,0,0:0:0:0:
448,192,45726,1,0,0:0:0:0:
320,192,45889,1,0,0:0:0:0:
64,192,45889,128,0,46215:0:0:0:0:
192,192,46215,1,0,0:0:0:0:
448,192,46541,1,4,0:0:0:0:
320,192,46867,1,0,0:0:0:0:
192,192,47030,1,0,0:0:0:0:
320,192,47193,1,4,0:0:0:0:
64,192,47519,1,0,0:0:0:0:
448,192,47519,1,0,0:0:0:0:
192,192,47519,1,0,0:0:0:0:
64,192,47682,1,0,0:0:0:0:
320,192,47682,1,0,0:0:0:0:
64,192,47845,1,0,0:0:0:0:
448,192,47845,1,0,0:0:0:0:
320,192,48008,1,0,0:0:0:0:
192,192,48008,1,0,0:0:0:0:
320,192,48334,1,0,0:0:0:0:
64,192,48497,1,0,0:0:0:0:
448,192,48497,128,0,48823:0:0:0:0:
320,192,48823,1,0,0:0:0:0:
192,192,49149,1,4,0:0:0:0:
320,192,49476,1,0,0:0:0:0:
192,192,49639,1,0,0:0:0:0:
320,192,49802,1,4,0:0:0:0:
64,192,50128,1,0,0:0:0:0:
320,192,50128,1,0,0:0:0:0:
448,192,50128,1,0,0:0:0:0:
192,192,50291,1,0,0:0:0:0:
448,192,50291,1,0,0:0:0:0:
64,192,50454,1,0,0:0:0:0:
448,192,50454,1,0,0:0:0:0:
320,192,50617,1,0,0:0:0:0:
192,192,50617,1,0,0:0:0:0:
448,192,50943,1,0,0:0:0:0:
64,192,50943,1,0,0:0:0:0:
448,192,51106,1,0,0:0:0:0:
192,192,51106,128,0,51432:0:0:0:0:
320,192,51432,1,0,0:0:0:0:
448,192,51758,1,4,0:0:0:0:
192,192,52084,1,0,0:0:0:0:
320,192,52247,1,0,0:0:0:0:
192,192,52410,1,4,0:0:0:0:
192,192,52736,1,0,0:0:0:0:
64,192,52736,1,0,0:0:0:0:
448,192,52736,1,0,0:0:0:0:
320,192,52899,1,0,0:0:0:0:
64,192,52899,1,0,0:0:0:0:
64,192,53062,1,0,0:0:0:0:
448,192,53062,1,0,0:0:0:0:
192,192,53226,1,0,0:0:0:0:
320,192,53226,1,0,0:0:0:0:
192,192,53552,1,0,0:0:0:0:
448,192,53715,128,0,54041:0:0:0:0:
320,192,54041,1,0,0:0:0:0:
192,192,54204,1,0,0:0:0:0:
320,192,54367,128,0,55345:0:0:0:0:
448,192,54693,1,0,0:0:0:0:
192,192,54856,1,0,0:0:0:0:
64,192,55019,1,4,0:0:0:0:
64,192,55345,1,4,0:0:0:0:
192,192,55345,1,0,0:0:0:20:before.wav
448,192,55345,1,0,0:0:0:0:
320,192,55427,1,0,0:0:0:0:
192,192,55508,1,0,0:0:0:0:
320,192,55671,1,0,0:0:0:20:before.wav
448,192,55671,1,0,0:0:0:0:
192,192,55753,1,0,0:0:0:0:
64,192,55834,1,0,0:0:0:0:
320,192,55997,1,0,0:0:0:20:before.wav
448,192,55997,1,0,0:0:0:0:
192,192,56079,1,0,0:0:0:0:
64,192,56160,1,0,0:0:0:0:
320,192,56323,1,0,0:0:0:20:before.wav
448,192,56323,1,0,0:0:0:0:
192,192,56405,1,0,0:0:0:0:
64,192,56486,1,0,0:0:0:0:
320,192,56568,1,0,0:0:0:0:
448,192,56568,1,0,0:0:0:0:
64,192,56649,1,0,0:0:0:0:
192,192,56649,1,0,0:0:0:20:before.wav
320,192,56731,1,0,0:0:0:0:
192,192,56894,1,0,0:0:0:0:
320,192,56976,1,0,0:0:0:20:before.wav
448,192,56976,1,0,0:0:0:0:
192,192,57057,1,0,0:0:0:0:
64,192,57139,1,0,0:0:0:0:
192,192,57302,1,0,0:0:0:20:before.wav
64,192,57302,1,0,0:0:0:0:
320,192,57383,1,0,0:0:0:0:
448,192,57465,1,0,0:0:0:0:
192,192,57628,1,0,0:0:0:20:before.wav
64,192,57628,1,0,0:0:0:0:
320,192,57709,1,0,0:0:0:0:
448,192,57791,1,0,0:0:0:0:
320,192,57954,1,0,0:0:0:20:before.wav
448,192,57954,1,0,0:0:0:0:
64,192,57954,1,0,0:0:0:0:
320,192,58198,1,0,0:0:0:0:
64,192,58280,1,0,0:0:0:20:before.wav
192,192,58280,1,0,0:0:0:0:
448,192,58443,1,8,0:0:0:0:
320,192,58443,1,0,0:0:0:0:
192,192,58606,1,0,0:0:0:20:before.wav
64,192,58606,1,0,0:0:0:0:
320,192,58687,1,0,0:0:0:0:
448,192,58769,1,0,0:0:0:0:
192,192,58932,1,0,0:0:0:20:before.wav
64,192,58932,1,0,0:0:0:0:
320,192,59014,1,0,0:0:0:0:
448,192,59095,1,0,0:0:0:0:
192,192,59177,1,0,0:0:0:0:
64,192,59177,1,0,0:0:0:0:
320,192,59258,1,0,0:0:0:20:before.wav
448,192,59258,1,0,0:0:0:0:
320,192,59503,1,0,0:0:0:0:
64,192,59584,1,0,0:0:0:20:before.wav
192,192,59584,1,0,0:0:0:0:
320,192,59666,1,0,0:0:0:0:
448,192,59747,1,0,0:0:0:0:
320,192,59910,1,0,0:0:0:20:before.wav
448,192,59910,1,0,0:0:0:0:
192,192,59992,1,0,0:0:0:0:
64,192,60073,1,0,0:0:0:0:
448,192,60236,1,0,0:0:0:20:before.wav
320,192,60236,1,0,0:0:0:0:
192,192,60318,1,0,0:0:0:0:
64,192,60399,1,0,0:0:0:0:
320,192,60562,1,0,0:0:0:0:
192,192,60562,1,0,0:0:0:20:before.wav
448,192,60562,1,0,0:0:0:0:
64,192,60644,1,0,0:0:0:0:
448,192,60807,1,0,0:0:0:0:
320,192,60807,1,0,0:0:0:0:
64,192,60889,1,0,0:0:0:20:before.wav
192,192,60889,1,0,0:0:0:0:
192,192,61052,1,0,0:0:0:0:
320,192,61052,1,8,0:0:0:0:
64,192,61215,1,0,0:0:0:20:before.wav
320,192,61215,1,0,0:0:0:0:
448,192,61215,1,0,0:0:0:0:
192,192,61296,1,0,0:0:0:0:
320,192,61378,1,0,0:0:0:0:
192,192,61541,1,0,0:0:0:20:before.wav
448,192,61541,1,0,0:0:0:0:
320,192,61622,1,0,0:0:0:0:
64,192,61785,1,0,0:0:0:0:
192,192,61826,1,0,0:0:0:0:
448,192,61867,1,0,0:0:0:20:before.wav
320,192,61867,1,0,0:0:0:0:
320,192,62111,1,0,0:0:0:0:
192,192,62193,1,0,0:0:0:20:before.wav
64,192,62193,1,0,0:0:0:0:
320,192,62274,1,0,0:0:0:0:
448,192,62356,1,0,0:0:0:0:
64,192,62519,1,0,0:0:0:20:before.wav
192,192,62519,1,0,0:0:0:0:
448,192,62519,1,0,0:0:0:0:
320,192,62601,1,0,0:0:0:0:
192,192,62682,1,0,0:0:0:0:
64,192,62845,1,0,0:0:0:20:before.wav
448,192,62845,128,0,63171:0:0:0:0:
192,192,62927,1,0,0:0:0:0:
320,192,63008,1,0,0:0:0:0:
192,192,63171,128,0,65454:0:0:0:0:
448,192,65454,128,0,65780:0:0:0:0:
64,192,65780,1,8,0:0:0:0:
192,192,65780,1,0,0:0:0:0:
320,192,65780,1,0,0:0:0:0:
448,192,65861,1,0,0:0:0:0:
64,192,65943,1,0,0:0:0:70:hat.wav
192,192,66024,1,0,0:0:0:0:
64,192,66106,1,0,0:0:0:0:
320,192,66106,1,0,0:0:0:0:
448,192,66106,1,0,0:0:0:0:
192,192,66187,1,0,0:0:0:0:
448,192,66269,1,0,0:0:0:0:
192,192,66351,1,0,0:0:0:0:
320,192,66432,1,0,0:0:0:0:
64,192,66432,1,8,0:0:0:0:
448,192,66514,1,0,0:0:0:0:
64,192,66595,1,0,0:0:0:70:hat.wav
192,192,66677,1,0,0:0:0:0:
320,192,66758,1,0,0:0:0:0:
64,192,66758,1,0,0:0:0:0:
448,192,66758,1,0,0:0:0:0:
192,192,66840,1,0,0:0:0:0:
448,192,66921,1,0,0:0:0:0:
192,192,67003,1,0,0:0:0:0:
64,192,67084,1,8,0:0:0:0:
320,192,67084,1,0,0:0:0:0:
448,192,67166,1,0,0:0:0:0:
64,192,67247,1,0,0:0:0:70:hat.wav
192,192,67329,1,0,0:0:0:0:
64,192,67410,1,0,0:0:0:0:
320,192,67410,1,0,0:0:0:0:
448,192,67410,1,0,0:0:0:0:
192,192,67492,1,0,0:0:0:0:
448,192,67573,1,0,0:0:0:0:
192,192,67655,1,0,0:0:0:0:
64,192,67736,1,8,0:0:0:0:
320,192,67736,1,0,0:0:0:0:
448,192,67818,1,0,0:0:0:0:
64,192,67899,1,0,0:0:0:70:hat.wav
192,192,67981,1,0,0:0:0:0:
64,192,68062,1,0,0:0:0:0:
320,192,68062,1,0,0:0:0:0:
448,192,68062,1,0,0:0:0:0:
192,192,68144,1,0,0:0:0:0:
448,192,68226,1,0,0:0:0:0:
192,192,68307,1,0,0:0:0:0:
320,192,68389,1,0,0:0:0:0:
64,192,68389,1,8,0:0:0:0:
448,192,68470,1,0,0:0:0:0:
64,192,68552,1,0,0:0:0:70:hat.wav
192,192,68633,1,0,0:0:0:0:
64,192,68715,1,0,0:0:0:0:
320,192,68715,1,0,0:0:0:0:
448,192,68715,1,0,0:0:0:0:
192,192,68796,1,0,0:0:0:0:
448,192,68878,1,0,0:0:0:0:
192,192,68959,1,0,0:0:0:0:
64,192,69041,1,8,0:0:0:0:
320,192,69041,1,0,0:0:0:0:
448,192,69122,1,0,0:0:0:0:
64,192,69204,1,0,0:0:0:70:hat.wav
192,192,69285,1,0,0:0:0:0:
64,192,69367,1,0,0:0:0:0:
448,192,69367,1,0,0:0:0:0:
320,192,69367,1,0,0:0:0:0:
192,192,69448,1,0,0:0:0:0:
448,192,69530,1,0,0:0:0:0:
192,192,69611,1,0,0:0:0:0:
320,192,69693,1,0,0:0:0:0:
64,192,69693,1,8,0:0:0:0:
448,192,69774,1,0,0:0:0:0:
64,192,69856,1,0,0:0:0:70:hat.wav
192,192,69937,1,0,0:0:0:0:
320,192,70019,1,0,0:0:0:0:
448,192,70019,1,0,0:0:0:0:
64,192,70019,1,0,0:0:0:0:
192,192,70101,1,0,0:0:0:0:
448,192,70182,1,0,0:0:0:0:
192,192,70264,1,0,0:0:0:0:
64,192,70345,1,8,0:0:0:0:
320,192,70345,1,0,0:0:0:0:
448,192,70427,1,0,0:0:0:0:
64,192,70508,1,0,0:0:0:70:hat.wav
192,192,70590,1,0,0:0:0:0:
448,192,70671,1,0,0:0:0:0:
320,192,70671,1,0,0:0:0:0:
64,192,70671,1,0,0:0:0:0:
192,192,70753,1,0,0:0:0:0:
448,192,70834,1,0,0:0:0:0:
192,192,70916,1,0,0:0:0:0:
320,192,70997,1,0,0:0:0:0:
64,192,70997,1,8,0:0:0:0:
448,192,71079,1,0,0:0:0:0:
64,192,71160,1,0,0:0:0:70:hat.wav
192,192,71242,1,0,0:0:0:0:
64,192,71323,1,0,0:0:0:0:
320,192,71323,1,0,0:0:0:0:
448,192,71323,1,0,0:0:0:0:
192,192,71405,1,0,0:0:0:0:
448,192,71486,1,0,0:0:0:0:
192,192,71568,1,0,0:0:0:0:
64,192,71649,1,8,0:0:0:0:
320,192,71649,1,0,0:0:0:0:
448,192,71731,1,0,0:0:0:0:
64,192,71812,1,0,0:0:0:70:hat.wav
192,192,71894,1,0,0:0:0:0:
64,192,71976,1,0,0:0:0:0:
448,192,71976,1,0,0:0:0:0:
320,192,71976,1,0,0:0:0:0:
192,192,72057,1,0,0:0:0:0:
448,192,72139,1,0,0:0:0:0:
192,192,72220,1,0,0:0:0:0:
320,192,72302,1,0,0:0:0:0:
64,192,72302,1,8,0:0:0:0:
448,192,72383,1,0,0:0:0:0:
64,192,72465,1,0,0:0:0:70:hat.wav
192,192,72546,1,0,0:0:0:0:
64,192,72628,1,0,0:0:0:0:
320,192,72628,1,0,0:0:0:0:
448,192,72628,1,0,0:0:0:0:
192,192,72709,1,0,0:0:0:0:
448,192,72791,1,0,0:0:0:0:
192,192,72872,1,0,0:0:0:0:
64,192,72954,1,8,0:0:0:0:
320,192,72954,1,0,0:0:0:0:
448,192,73035,1,0,0:0:0:0:
64,192,73117,1,0,0:0:0:70:hat.wav
192,192,73198,1,0,0:0:0:0:
448,192,73280,1,0,0:0:0:0:
320,192,73280,1,0,0:0:0:0:
64,192,73280,1,0,0:0:0:0:
192,192,73361,1,0,0:0:0:0:
448,192,73443,1,0,0:0:0:0:
192,192,73524,1,0,0:0:0:0:
320,192,73606,1,0,0:0:0:0:
64,192,73606,1,8,0:0:0:0:
448,192,73687,1,0,0:0:0:0:
320,192,73769,1,0,0:0:0:0:
192,192,73851,1,0,0:0:0:0:
64,192,73932,1,8,0:0:0:0:
320,192,73932,1,0,0:0:0:0:
448,192,73932,1,0,0:0:0:0:
192,192,74014,1,0,0:0:0:0:
448,192,74095,1,0,0:0:0:0:
192,192,74177,1,0,0:0:0:0:
320,192,74177,1,0,0:0:0:0:
64,192,74258,1,8,0:0:0:0:
448,192,74258,1,0,0:0:0:0:
320,192,74340,1,0,0:0:0:0:
64,192,74421,1,0,0:0:0:0:
192,192,74503,1,0,0:0:0:0:
320,192,74503,1,0,0:0:0:0:
448,192,74584,1,0,0:0:0:0:
64,192,74584,1,8,0:0:0:0:
320,192,74666,1,0,0:0:0:0:
192,192,74747,1,0,0:0:0:0:
448,192,74829,1,0,0:0:0:0:
64,192,74910,1,8,0:0:0:0:
192,192,74910,1,0,0:0:0:0:
320,192,74992,1,0,0:0:0:0:
448,192,75073,1,0,0:0:0:0:
64,192,75155,1,0,0:0:0:0:
320,192,75236,1,8,0:0:0:0:
192,192,75236,1,0,0:0:0:0:
448,192,75236,1,0,0:0:0:0:
64,192,75318,1,0,0:0:0:0:
448,192,75399,1,0,0:0:0:0:
320,192,75481,1,0,0:0:0:0:
64,192,75562,1,0,0:0:0:0:
192,192,75562,1,8,0:0:0:0:
448,192,75644,1,0,0:0:0:0:
320,192,75644,1,8,0:0:0:0:
192,192,75726,1,8,0:0:0:0:
64,192,75726,1,0,0:0:0:0:
448,192,75807,1,8,0:0:0:0:
320,192,75807,1,0,0:0:0:0:
64,192,75889,128,8,76215:0:0:0:0:
320,192,76133,1,0,0:0:0:0:
192,192,76215,1,0,0:0:0:0:
448,192,76215,1,8,0:0:0:0:
64,192,76296,1,0,0:0:0:0:
448,192,76378,1,0,0:0:0:70:hat.wav
320,192,76459,1,0,0:0:0:0:
192,192,76541,1,0,0:0:0:0:
64,192,76541,1,0,0:0:0:0:
448,192,76541,1,0,0:0:0:0:
320,192,76622,1,0,0:0:0:0:
64,192,76704,1,0,0:0:0:0:
320,192,76785,1,0,0:0:0:0:
192,192,76867,1,0,0:0:0:0:
448,192,76867,1,8,0:0:0:0:
64,192,76948,1,0,0:0:0:0:
448,192,77030,1,0,0:0:0:70:hat.wav
320,192,77111,1,0,0:0:0:0:
448,192,77193,1,0,0:0:0:0:
192,192,77193,1,0,0:0:0:0:
64,192,77193,1,0,0:0:0:0:
320,192,77274,1,0,0:0:0:0:
64,192,77356,1,0,0:0:0:0:
320,192,77437,1,0,0:0:0:0:
448,192,77519,1,8,0:0:0:0:
192,192,77519,1,0,0:0:0:0:
64,192,77601,1,0,0:0:0:0:
448,192,77682,1,0,0:0:0:70:hat.wav
320,192,77764,1,0,0:0:0:0:
64,192,77845,1,0,0:0:0:0:
192,192,77845,1,0,0:0:0:0:
448,192,77845,1,0,0:0:0:0:
320,192,77927,1,0,0:0:0:0:
64,192,78008,1,0,0:0:0:0:
320,192,78090,1,0,0:0:0:0:
192,192,78171,1,0,0:0:0:0:
448,192,78171,1,8,0:0:0:0:
64,192,78253,1,0,0:0:0:0:
448,192,78334,1,0,0:0:0:70:hat.wav
320,192,78416,1,0,0:0:0:0:
192,192,78497,1,0,0:0:0:0:
64,192,78497,1,0,0:0:0:0:
448,192,78497,1,0,0:0:0:0:
320,192,78579,1,0,0:0:0:0:
64,192,78660,1,0,0:0:0:0:
320,192,78742,1,0,0:0:0:0:
192,192,78823,1,0,0:0:0:0:
448,192,78823,1,8,0:0:0:0:
64,192,78905,1,0,0:0:0:0:
448,192,78986,1,0,0:0:0:70:hat.wav
320,192,79068,1,0,0:0:0:0:
448,192,79149,1,0,0:0:0:0:
192,192,79149,1,0,0:0:0:0:
64,192,79149,1,0,0:0:0:0:
320,192,79231,1,0,0:0:0:0:
64,192,79312,1,0,0:0:0:0:
320,192,79394,1,0,0:0:0:0:
448,192,79476,1,8,0:0:0:0:
192,192,79476,1,0,0:0:0:0:
64,192,79557,1,0,0:0:0:0:
448,192,79639,1,0,0:0:0:70:hat.wav
320,192,79720,1,0,0:0:0:0:
448,192,79802,1,0,0:0:0:0:
64,192,79802,1,0,0:0:0:0:
192,192,79802,1,0,0:0:0:0:
320,192,79883,1,0,0:0:0:0:
64,192,79965,1,0,0:0:0:0:
320,192,80046,1,0,0:0:0:0:
448,192,80128,1,8,0:0:0:0:
192,192,80128,1,0,0:0:0:0:
64,192,80209,1,0,0:0:0:0:
448,192,80291,1,0,0:0:0:70:hat.wav
320,192,80372,1,0,0:0:0:0:
448,192,80454,1,0,0:0:0:0:
64,192,80454,1,0,0:0:0:0:
192,192,80454,1,0,0:0:0:0:
320,192,80535,1,0,0:0:0:0:
64,192,80617,1,0,0:0:0:0:
320,192,80698,1,0,0:0:0:0:
192,192,80780,1,0,0:0:0:0:
448,192,80780,1,8,0:0:0:0:
64,192,80861,1,0,0:0:0:0:
448,192,80943,1,0,0:0:0:70:hat.wav
320,192,81024,1,0,0:0:0:0:
448,192,81106,1,0,0:0:0:0:
192,192,81106,1,0,0:0:0:0:
64,192,81106,1,0,0:0:0:0:
320,192,81187,1,0,0:0:0:0:
64,192,81269,1,0,0:0:0:0:
320,192,81351,1,0,0:0:0:0:
448,192,81432,1,8,0:0:0:0:
192,192,81432,1,0,0:0:0:0:
64,192,81514,1,0,0:0:0:0:
448,192,81595,1,0,0:0:0:70:hat.wav
320,192,81677,1,0,0:0:0:0:
192,192,81758,1,0,0:0:0:0:
448,192,81758,1,0,0:0:0:0:
64,192,81758,1,0,0:0:0:0:
320,192,81840,1,0,0:0:0:0:
64,192,81921,1,0,0:0:0:0:
320,192,82003,1,0,0:0:0:0:
192,192,82084,1,0,0:0:0:0:
448,192,82084,1,8,0:0:0:0:
64,192,82166,1,0,0:0:0:0:
448,192,82247,1,0,0:0:0:70:hat.wav
320,192,82329,1,0,0:0:0:0:
192,192,82410,1,0,0:0:0:0:
64,192,82410,1,0,0:0:0:0:
448,192,82410,1,0,0:0:0:0:
320,192,82492,1,0,0:0:0:0:
64,192,82573,1,0,0:0:0:0:
320,192,82655,1,0,0:0:0:0:
448,192,82736,1,8,0:0:0:0:
192,192,82736,1,0,0:0:0:0:
64,192,82818,1,0,0:0:0:0:
448,192,82899,1,0,0:0:0:70:hat.wav
320,192,82981,1,0,0:0:0:0:
64,192,83062,1,0,0:0:0:0:
192,192,83062,1,0,0:0:0:0:
448,192,83062,1,0,0:0:0:0:
320,192,83144,1,0,0:0:0:0:
64,192,83226,1,0,0:0:0:0:
320,192,83307,1,0,0:0:0:0:
192,192,83389,1,0,0:0:0:0:
448,192,83389,1,8,0:0:0:0:
64,192,83470,1,0,0:0:0:0:
448,192,83552,1,0,0:0:0:70:hat.wav
320,192,83633,1,0,0:0:0:0:
448,192,83715,1,0,0:0:0:0:
192,192,83715,1,0,0:0:0:0:
64,192,83715,128,0,84041:0:0:0:0:
192,192,84041,128,0,85345:0:0:0:0:
448,192,84041,128,0,84530:0:0:0:0:
64,192,84530,1,0,0:0:0:0:
320,192,84693,128,0,85019:0:0:0:0:
64,192,85019,1,0,0:0:0:0:
64,192,85345,1,0,0:0:0:0:
320,192,85345,128,0,86323:0:0:0:0:
448,192,85508,1,0,0:0:0:0:
192,192,85508,128,0,85997:0:0:0:0:
64,192,85997,128,0,86323:0:0:0:0:
448,192,85997,1,0,0:0:0:0:
192,192,86323,128,0,86649:0:0:0:0:
64,192,86649,1,0,0:0:0:0:
448,192,86649,1,0,0:0:0:0:
320,192,86649,1,0,0:0:0:0:
192,192,86812,1,0,0:0:0:0:
320,192,86976,1,4,0:0:0:0:
448,192,87302,1,0,0:0:0:0:
192,192,87465,1,0,0:0:0:0:
448,192,87628,1,4,0:0:0:0:
320,192,87628,1,0,0:0:0:0:
192,192,87954,1,0,0:0:0:0:
448,192,88117,1,0,0:0:0:0:
192,192,88280,1,4,0:0:0:0:
64,192,88280,1,0,0:0:0:0:
448,192,88606,1,0,0:0:0:0:
192,192,88769,1,0,0:0:0:0:
448,192,88932,1,4,0:0:0:0:
320,192,88932,1,0,0:0:0:0:
64,192,89258,128,2,90562:0:0:0:0:
192,192,89258,1,0,0:0:0:0:
448,192,89421,1,0,0:0:0:0:
192,192,89584,1,4,0:0:0:0:
448,192,89910,1,0,0:0:0:0:
192,192,90073,1,0,0:0:0:0:
448,192,90236,1,4,0:0:0:0:
192,192,90562,1,0,0:0:0:0:
320,192,90726,1,0,0:0:0:0:
192,192,90889,1,4,0:0:0:0:
64,192,91215,1,0,0:0:0:0:
320,192,91378,1,0,0:0:0:0:
64,192,91541,1,4,0:0:0:0:
192,192,91541,1,0,0:0:0:0:
320,192,91867,1,0,0:0:0:0:
448,192,91867,128,2,93171:0:0:0:0:
64,192,92030,1,0,0:0:0:0:
320,192,92193,1,4,0:0:0:0:
64,192,92519,1,0,0:0:0:0:
320,192,92682,1,0,0:0:0:0:
64,192,92845,1,4,0:0:0:0:
192,192,92845,1,0,0:0:0:0:
320,192,93171,1,0,0:0:0:0:
64,192,93334,1,0,0:0:0:0:
192,192,93497,1,4,0:0:0:0:
192,192,93823,1,0,0:0:0:0:
448,192,93986,1,0,0:0:0:0:
320,192,94149,1,4,0:0:0:0:
64,192,94149,1,0,0:0:0:0:
320,192,94476,1,0,0:0:0:0:
448,192,94476,128,2,95780:0:0:0:0:
64,192,94639,1,0,0:0:0:0:
192,192,94802,1,4,0:0:0:0:
64,192,95128,1,0,0:0:0:0:
320,192,95291,1,0,0:0:0:0:
192,192,95454,1,4,0:0:0:0:
64,192,95454,1,0,0:0:0:0:
64,192,95780,128,2,97084:0:0:0:0:
320,192,95780,1,0,0:0:0:0:
192,192,95943,1,0,0:0:0:0:
448,192,96106,1,4,0:0:0:0:
320,192,96106,1,0,0:0:0:0:
448,192,96432,128,0,97084:0:0:0:0:
192,192,96595,1,0,0:0:0:0:
320,192,96758,1,4,0:0:0:0:
320,192,97084,1,0,0:0:0:0:
192,192,97084,128,2,97573:0:0:0:0:
320,192,97247,1,0,0:0:0:0:
320,192,97410,1,0,0:0:0:0:
64,192,97573,128,2,98062:0:0:0:0:
448,192,97573,1,0,0:0:0:0:
448,192,97736,1,0,0:0:0:0:
448,192,97899,1,0,0:0:0:0:
320,192,98062,128,2,98552:0:0:0:0:
192,192,98062,1,0,0:0:0:0:
192,192,98226,1,0,0:0:0:0:
192,192,98389,1,0,0:0:0:0:
448,192,98552,128,2,99041:0:0:0:0:
64,192,98552,1,0,0:0:0:0:
64,192,98715,1,0,0:0:0:0:
64,192,98878,1,0,0:0:0:0:
320,192,99041,128,2,99204:0:0:0:0:
192,192,99041,1,0,0:0:0:0:
448,192,99204,1,0,0:0:0:0:
64,192,99204,128,2,99367:0:0:0:0:
320,192,99367,128,2,99530:0:0:0:0:
192,192,99367,1,0,0:0:0:0:
64,192,99530,128,2,99693:0:0:0:0:
448,192,99530,1,0,0:0:0:0:
448,192,99693,128,2,100182:0:0:0:0:
192,192,99693,1,0,0:0:0:0:
192,192,99856,1,0,0:0:0:0:
192,192,100019,1,0,0:0:0:0:
320,192,100182,128,2,100671:0:0:0:0:
64,192,100182,1,0,0:0:0:0:
64,192,100345,1,0,0:0:0:0:
64,192,100508,1,0,0:0:0:0:
448,192,100671,1,0,0:0:0:0:
192,192,100671,128,2,101160:0:0:0:0:
448,192,100834,1,0,0:0:0:0:
448,192,100997,1,0,0:0:0:0:
320,192,101160,128,2,101649:0:0:0:0:
64,192,101160,1,0,0:0:0:0:
64,192,101323,1,0,0:0:0:0:
64,192,101486,1,0,0:0:0:0:
448,192,101649,1,0,0:0:0:0:
192,192,101649,128,2,101812:0:0:0:0:
64,192,101812,128,2,101976:0:0:0:0:
320,192,101812,1,0,0:0:0:0:
448,192,101976,1,0,0:0:0:0:
192,192,101976,128,2,102139:0:0:0:0:
64,192,102139,128,2,102302:0:0:0:0:
320,192,102139,1,0,0:0:0:0:
448,192,102302,128,2,102791:0:0:0:0:
320,192,102302,1,0,0:0:0:0:
320,192,102465,1,0,0:0:0:0:
320,192,102628,1,0,0:0:0:0:
64,192,102791,128,2,103280:0:0:0:0:
192,192,102791,1,0,0:0:0:0:
192,192,102954,1,0,0:0:0:0:
192,192,103117,1,0,0:0:0:0:
320,192,103280,128,2,103769:0:0:0:0:
448,192,103280,1,0,0:0:0:0:
448,192,103443,1,0,0:0:0:0:
448,192,103606,1,0,0:0:0:0:
192,192,103769,128,2,104258:0:0:0:0:
64,192,103769,1,0,0:0:0:0:
64,192,103932,1,0,0:0:0:0:
64,192,104095,1,0,0:0:0:0:
448,192,104258,128,2,104421:0:0:0:0:
320,192,104258,1,0,0:0:0:0:
64,192,104421,128,2,104584:0:0:0:0:
192,192,104421,1,0,0:0:0:0:
320,192,104584,128,2,104747:0:0:0:0:
448,192,104584,1,0,0:0:0:0:
192,192,104747,128,2,104910:0:0:0:0:
64,192,104747,1,0,0:0:0:0:
448,192,104910,128,2,105399:0:0:0:0:
320,192,104910,1,0,0:0:0:0:
320,192,105073,1,0,0:0:0:0:
320,192,105236,1,0,0:0:0:0:
64,192,105399,128,2,106459:0:0:0:0:
192,192,105399,1,0,0:0:0:0:
192,192,105562,1,0,0:0:0:0:
192,192,105726,1,0,0:0:0:0:
320,192,105889,128,2,106459:0:0:0:0:
192,192,106215,128,2,106785:0:0:0:0:
448,192,106215,128,0,106785:0:0:0:0:
320,192,106541,128,0,107437:0:0:0:0:
64,192,106541,128,2,107437:0:0:0:0:
448,192,106867,128,0,107111:0:0:0:0:
192,192,106867,128,2,107111:0:0:0:0:
448,192,107193,128,2,107519:0:0:0:0:
192,192,107193,128,0,107437:0:0:0:0:
192,192,107519,1,8,0:0:0:0:
64,192,107519,1,8,0:0:0:0:
320,192,107519,1,8,0:0:0:0:
448,192,107845,1,0,0:0:0:0:
64,192,108008,1,0,0:0:0:0:
192,192,108171,1,0,0:0:0:0:
320,192,108334,1,0,0:0:0:0:
448,192,108334,1,0,0:0:0:0:
64,192,108497,1,4,0:0:0:0:
320,192,108823,1,0,0:0:0:0:
192,192,108986,1,0,0:0:0:0:
448,192,108986,1,0,0:0:0:0:
64,192,109149,1,4,0:0:0:0:
448,192,109476,1,0,0:0:0:0:
64,192,109639,1,0,0:0:0:0:
320,192,109639,1,0,0:0:0:0:
192,192,109802,1,4,0:0:0:0:
448,192,110128,1,0,0:0:0:0:
64,192,110128,1,0,0:0:0:0:
192,192,110454,1,0,0:0:0:0:
64,192,110617,1,0,0:0:0:0:
448,192,110780,1,0,0:0:0:0:
192,192,110943,1,0,0:0:0:0:
64,192,110943,1,0,0:0:0:0:
320,192,111106,1,4,0:0:0:0:
64,192,111269,1,0,0:0:0:0:
448,192,111432,1,0,0:0:0:0:
192,192,111595,1,0,0:0:0:0:
64,192,111595,1,0,0:0:0:0:
320,192,111758,1,4,0:0:0:0:
64,192,111921,1,0,0:0:0:0:
448,192,112084,1,0,0:0:0:0:
192,192,112247,1,0,0:0:0:0:
64,192,112247,1,0,0:0:0:0:
320,192,112410,1,4,0:0:0:0:
64,192,112736,1,0,0:0:0:0:
192,192,112736,1,0,0:0:0:0:
448,192,113062,1,0,0:0:0:0:
320,192,113226,1,0,0:0:0:0:
64,192,113389,1,0,0:0:0:0:
192,192,113552,1,0,0:0:0:0:
448,192,113552,1,0,0:0:0:0:
320,192,113715,1,4,0:0:0:0:
64,192,113878,1,0,0:0:0:0:
448,192,114041,1,0,0:0:0:0:
320,192,114204,1,0,0:0:0:0:
64,192,114204,1,0,0:0:0:0:
192,192,114367,1,4,0:0:0:0:
448,192,114530,1,0,0:0:0:0:
64,192,114693,1,0,0:0:0:0:
192,192,114856,1,0,0:0:0:0:
448,192,114856,1,0,0:0:0:0:
320,192,115019,1,4,0:0:0:0:
64,192,115345,128,0,116649:0:0:0:0:
192,192,115671,1,0,0:0:0:0:
320,192,115997,1,0,0:0:0:0:
448,192,116160,1,0,0:0:0:0:
192,192,116160,1,0,0:0:0:0:
448,192,116486,1,0,0:0:0:0:
320,192,116649,128,0,116976:0:0:0:0:
192,192,116976,128,0,117302:0:0:0:0:
64,192,117302,1,0,0:0:0:0:
448,192,117302,1,0,0:0:0:0:
192,192,117465,1,0,0:0:0:0:
64,192,117465,1,0,0:0:0:0:
320,192,117628,1,0,0:0:0:0:
64,192,117628,1,0,0:0:0:0:
448,192,117791,1,0,0:0:0:0:
64,192,117791,1,0,0:0:0:0:
320,192,117954,5,0,0:0:0:0:
448,192,117954,1,8,0:0:0:0:
192,192,117954,128,0,119910:0:0:0:0:
64,192,118117,1,0,0:0:0:0:
320,192,118280,1,0,0:0:0:0:
448,192,118280,1,8,0:0:0:0:
64,192,118443,1,0,0:0:0:0:
320,192,118606,1,0,0:0:0:0:
448,192,118606,1,8,0:0:0:0:
64,192,118769,1,0,0:0:0:0:
320,192,118932,1,0,0:0:0:0:
448,192,118932,1,8,0:0:0:0:
64,192,119095,1,0,0:0:0:0:
320,192,119258,1,0,0:0:0:0:
448,192,119258,1,8,0:0:0:0:
64,192,119421,1,0,0:0:0:0:
320,192,119584,1,0,0:0:0:0:
448,192,119584,1,8,0:0:0:0:
64,192,119747,1,0,0:0:0:0:
320,192,119910,1,0,0:0:0:0:
448,192,119910,1,8,0:0:0:0:
64,192,120073,1,0,0:0:0:0:
448,192,120236,1,8,0:0:0:0:
192,192,120236,1,0,0:0:0:0:
320,192,120399,1,0,0:0:0:0:
64,192,120562,1,8,0:0:0:0:
192,192,120562,1,0,0:0:0:0:
448,192,120726,1,0,0:0:0:0:
192,192,120889,1,0,0:0:0:0:
320,192,120889,1,8,0:0:0:0:
64,192,121052,1,0,0:0:0:0:
320,192,121215,1,0,0:0:0:0:
448,192,121215,1,8,0:0:0:0:
64,192,121378,1,0,0:0:0:0:
320,192,121541,1,0,0:0:0:0:
192,192,121541,1,8,0:0:0:0:
448,192,121704,1,0,0:0:0:0:
192,192,121867,1,0,0:0:0:0:
64,192,121867,1,8,0:0:0:0:
320,192,122030,1,0,0:0:0:0:
192,192,122193,1,0,0:0:0:0:
448,192,122193,1,0,0:0:0:0:
64,192,122356,1,0,0:0:0:0:
192,192,122519,1,0,0:0:0:0:
448,192,122519,1,0,0:0:0:0:
320,192,122682,1,0,0:0:0:0:
192,192,122845,1,0,0:0:0:0:
448,192,122845,1,0,0:0:0:0:
64,192,123008,1,0,0:0:0:0:
320,192,123090,1,0,0:0:0:0:
448,192,123171,1,8,0:0:0:0:
192,192,123171,1,0,0:0:0:0:
448,192,123334,1,0,0:0:0:0:
320,192,123497,1,0,0:0:0:0:
64,192,123497,1,8,0:0:0:0:
64,192,123660,1,0,0:0:0:0:
192,192,123823,1,0,0:0:0:0:
448,192,123823,1,8,0:0:0:0:
448,192,123986,1,0,0:0:0:0:
320,192,124149,1,0,0:0:0:0:
64,192,124149,1,8,0:0:0:0:
192,192,124312,1,0,0:0:0:0:
64,192,124476,1,8,0:0:0:0:
320,192,124476,1,0,0:0:0:0:
320,192,124639,1,0,0:0:0:0:
192,192,124802,1,0,0:0:0:0:
448,192,124802,1,8,0:0:0:0:
192,192,124965,1,0,0:0:0:0:
320,192,125128,1,0,0:0:0:0:
64,192,125128,1,8,0:0:0:0:
320,192,125291,1,0,0:0:0:0:
448,192,125454,1,8,0:0:0:0:
192,192,125454,1,0,0:0:0:40:before.wav
320,192,125617,1,0,0:0:0:0:
64,192,125617,1,0,0:0:0:0:
448,192,125780,1,8,0:0:0:0:
192,192,125780,128,0,126106:0:0:0:0:
448,192,125943,1,0,0:0:0:0:
64,192,126106,1,8,0:0:0:0:
320,192,126106,128,0,126432:0:0:0:0:
64,192,126269,1,0,0:0:0:0:
192,192,126432,1,0,0:0:0:0:
448,192,126432,1,8,0:0:0:0:
448,192,126595,1,8,0:0:0:0:
192,192,126595,1,0,0:0:0:0:
64,192,126758,1,0,0:0:0:0:
320,192,126758,1,8,0:0:0:0:
192,192,126921,128,0,127084:0:0:0:0:
320,192,127084,1,0,0:0:0:0:
448,192,127084,1,8,0:0:0:0:
320,192,127247,1,0,0:0:0:0:
64,192,127247,1,8,0:0:0:0:
448,192,127410,128,0,127655:0:0:0:0:
192,192,127410,1,8,0:0:0:0:
320,192,127655,1,0,0:0:0:0:
192,192,127736,1,0,0:0:0:0:
64,192,127736,1,8,0:0:0:0:
448,192,127899,1,0,0:0:0:0:
64,192,127899,1,8,0:0:0:0:
192,192,128062,1,0,0:0:0:0:
320,192,128062,128,0,128389:0:0:0:40:before.wav
448,192,128062,128,0,128389:0:0:0:0:
192,192,128389,128,0,129204:0:0:0:0:
320,192,129204,1,0,0:0:0:0:
64,192,129367,128,0,129693:0:0:0:0:
448,192,130019,128,0,130997:0:0:0:0:
320,192,130345,128,0,130997:0:0:0:0:
192,192,130671,128,0,130997:0:0:0:0:
64,192,130997,128,0,131976:0:0:0:0:
448,192,132628,128,0,133606:0:0:0:0:
64,192,132628,1,0,0:0:0:0:
320,192,132954,128,0,133606:0:0:0:0:
192,192,132954,1,0,0:0:0:0:
64,192,133280,128,0,133606:0:0:0:0:
192,192,133606,128,0,134584:0:0:0:0:
320,192,134584,128,0,134910:0:0:0:0:
448,192,135236,128,0,136215:0:0:0:0:
320,192,135562,128,0,136215:0:0:0:0:
192,192,135889,128,0,136215:0:0:0:0:
64,192,136215,1,0,0:0:0:0:
192,192,136541,1,0,0:0:0:0:
320,192,136704,128,0,137193:0:0:0:0:
192,192,137193,128,0,137519:0:0:0:0:
448,192,137519,1,0,0:0:0:0:
448,192,138171,1,0,0:0:0:0:
64,192,138823,1,4,0:0:0:0:
320,192,138823,1,0,0:0:0:20:before.wav
448,192,138823,1,0,0:0:0:0:
192,192,138905,1,0,0:0:0:0:
320,192,138986,1,0,0:0:0:0:
448,192,139149,1,0,0:0:0:20:before.wav
64,192,139149,1,0,0:0:0:0:
320,192,139231,1,0,0:0:0:0:
192,192,139312,1,0,0:0:0:0:
64,192,139476,1,0,0:0:0:20:before.wav
448,192,139476,1,0,0:0:0:0:
192,192,139557,1,0,0:0:0:0:
320,192,139639,1,0,0:0:0:0:
448,192,139802,1,0,0:0:0:20:before.wav
64,192,139802,1,0,0:0:0:0:
320,192,139883,1,0,0:0:0:0:
192,192,139965,1,0,0:0:0:0:
64,192,140128,1,0,0:0:0:20:before.wav
192,192,140128,1,0,0:0:0:0:
320,192,140209,1,0,0:0:0:0:
448,192,140291,1,0,0:0:0:0:
192,192,140454,1,0,0:0:0:20:before.wav
64,192,140454,1,0,0:0:0:0:
320,192,140535,1,0,0:0:0:0:
448,192,140617,1,0,0:0:0:0:
320,192,140780,1,0,0:0:0:20:before.wav
448,192,140780,1,0,0:0:0:0:
192,192,140861,1,0,0:0:0:0:
64,192,140943,1,0,0:0:0:0:
320,192,141106,1,0,0:0:0:20:before.wav
448,192,141106,1,0,0:0:0:0:
192,192,141187,1,0,0:0:0:0:
64,192,141269,1,0,0:0:0:0:
192,192,141432,1,0,0:0:0:0:
64,192,141432,1,0,0:0:0:0:
448,192,141432,1,0,0:0:0:0:
320,192,141514,1,0,0:0:0:0:
448,192,141677,1,0,0:0:0:0:
320,192,141677,1,0,0:0:0:0:
192,192,141758,1,0,0:0:0:0:
64,192,141758,1,0,0:0:0:20:before.wav
64,192,141921,1,0,0:0:0:0:
448,192,141921,1,0,0:0:0:0:
320,192,142084,1,0,0:0:0:20:before.wav
448,192,142084,1,0,0:0:0:0:
192,192,142166,1,0,0:0:0:0:
64,192,142247,1,0,0:0:0:0:
192,192,142410,1,0,0:0:0:20:before.wav
64,192,142410,1,0,0:0:0:0:
320,192,142492,1,0,0:0:0:0:
448,192,142655,1,0,0:0:0:0:
320,192,142736,1,0,0:0:0:0:
64,192,142736,1,0,0:0:0:20:before.wav
192,192,142736,1,0,0:0:0:0:
64,192,142981,1,0,0:0:0:0:
448,192,143062,1,0,0:0:0:0:
192,192,143062,1,0,0:0:0:20:before.wav
320,192,143144,1,0,0:0:0:0:
192,192,143226,1,0,0:0:0:0:
64,192,143389,1,0,0:0:0:20:before.wav
448,192,143389,1,0,0:0:0:0:
192,192,143470,1,0,0:0:0:0:
320,192,143552,1,0,0:0:0:0:
192,192,143715,1,0,0:0:0:20:before.wav
64,192,143715,1,0,0:0:0:0:
320,192,143796,1,0,0:0:0:0:
448,192,143878,1,0,0:0:0:0:
64,192,144041,1,0,0:0:0:0:
192,192,144041,1,0,0:0:0:0:
320,192,144122,1,0,0:0:0:0:
192,192,144285,1,0,0:0:0:0:
320,192,144367,1,0,0:0:0:20:before.wav
448,192,144367,1,0,0:0:0:0:
64,192,144530,1,8,0:0:0:0:
320,192,144530,1,0,0:0:0:0:
192,192,144693,1,0,0:0:0:0:
448,192,144693,1,0,0:0:0:20:before.wav
320,192,144693,1,0,0:0:0:0:
192,192,144856,1,0,0:0:0:0:
64,192,144856,1,0,0:0:0:0:
448,192,145019,1,0,0:0:0:20:before.wav
320,192,145019,1,0,0:0:0:0:
192,192,145101,1,0,0:0:0:0:
320,192,145264,1,0,0:0:0:0:
64,192,145345,1,0,0:0:0:20:before.wav
192,192,145345,1,0,0:0:0:0:
448,192,145345,1,0,0:0:0:0:
192,192,145590,1,0,0:0:0:0:
320,192,145671,1,0,0:0:0:0:
448,192,145671,1,0,0:0:0:20:before.wav
192,192,145753,1,0,0:0:0:0:
64,192,145834,1,0,0:0:0:0:
192,192,145997,1,0,0:0:0:0:
448,192,145997,1,0,0:0:0:0:
320,192,145997,1,0,0:0:0:20:before.wav
64,192,146079,1,0,0:0:0:0:
320,192,146160,1,0,0:0:0:0:
192,192,146323,1,0,0:0:0:0:
448,192,146323,1,0,0:0:0:20:before.wav
320,192,146405,1,0,0:0:0:0:
192,192,146486,1,0,0:0:0:0:
64,192,146649,128,0,148524:0:0:0:0:
192,192,146976,128,0,148198:0:0:0:0:
320,192,147302,128,0,147872:0:0:0:0:
448,192,147628,128,0,148851:0:0:0:0:
320,192,147954,128,0,148932:0:0:0:0:
192,192,148280,128,0,148932:0:0:0:0:
64,192,148606,128,0,148932:0:0:0:0:
448,192,148932,1,4,0:0:0:0:
448,192,149258,5,8,0:0:0:0:
320,192,149258,1,8,0:0:0:0:
192,192,149258,1,0,0:0:0:0:
64,192,149340,1,0,0:0:0:0:
448,192,149421,1,0,0:0:0:70:hat.wav
320,192,149503,1,0,0:0:0:0:
448,192,149584,1,0,0:0:0:0:
64,192,149584,1,0,0:0:0:0:
192,192,149584,1,0,0:0:0:0:
320,192,149666,1,0,0:0:0:0:
64,192,149747,1,0,0:0:0:0:
320,192,149829,1,0,0:0:0:0:
192,192,149910,1,0,0:0:0:0:
448,192,149910,1,8,0:0:0:0:
64,192,149992,1,0,0:0:0:0:
192,192,150073,1,0,0:0:0:70:hat.wav
320,192,150155,1,0,0:0:0:0:
192,192,150236,1,0,0:0:0:0:
64,192,150236,1,0,0:0:0:0:
448,192,150236,1,0,0:0:0:0:
320,192,150318,1,0,0:0:0:0:
64,192,150399,1,0,0:0:0:0:
320,192,150481,1,0,0:0:0:0:
192,192,150562,1,0,0:0:0:0:
448,192,150562,1,8,0:0:0:0:
64,192,150644,1,0,0:0:0:0:
448,192,150726,1,0,0:0:0:70:hat.wav
320,192,150807,1,0,0:0:0:0:
448,192,150889,1,0,0:0:0:0:
192,192,150889,1,0,0:0:0:0:
64,192,150889,1,0,0:0:0:0:
320,192,150970,1,0,0:0:0:0:
64,192,151052,1,0,0:0:0:0:
320,192,151133,1,0,0:0:0:0:
448,192,151215,1,8,0:0:0:0:
192,192,151215,1,0,0:0:0:0:
64,192,151296,1,0,0:0:0:0:
192,192,151378,1,0,0:0:0:70:hat.wav
320,192,151459,1,0,0:0:0:0:
64,192,151541,1,0,0:0:0:0:
448,192,151541,1,0,0:0:0:0:
192,192,151541,1,0,0:0:0:0:
320,192,151622,1,0,0:0:0:0:
64,192,151704,1,0,0:0:0:0:
320,192,151785,1,0,0:0:0:0:
192,192,151867,1,0,0:0:0:0:
448,192,151867,1,8,0:0:0:0:
64,192,151948,1,0,0:0:0:0:
448,192,152030,1,0,0:0:0:70:hat.wav
320,192,152111,1,0,0:0:0:0:
192,192,152193,1,0,0:0:0:0:
64,192,152193,1,0,0:0:0:0:
448,192,152193,1,0,0:0:0:0:
320,192,152274,1,0,0:0:0:0:
64,192,152356,1,0,0:0:0:0:
320,192,152437,1,0,0:0:0:0:
448,192,152519,1,8,0:0:0:0:
192,192,152519,1,0,0:0:0:0:
64,192,152601,1,0,0:0:0:0:
192,192,152682,1,0,0:0:0:70:hat.wav
320,192,152764,1,0,0:0:0:0:
64,192,152845,1,0,0:0:0:0:
192,192,152845,1,0,0:0:0:0:
448,192,152845,1,0,0:0:0:0:
320,192,152927,1,0,0:0:0:0:
64,192,153008,1,0,0:0:0:0:
320,192,153090,1,0,0:0:0:0:
448,192,153171,1,8,0:0:0:0:
192,192,153171,1,0,0:0:0:0:
64,192,153253,1,0,0:0:0:0:
448,192,153334,1,0,0:0:0:70:hat.wav
320,192,153416,1,0,0:0:0:0:
448,192,153497,1,0,0:0:0:0:
192,192,153497,1,0,0:0:0:0:
64,192,153497,1,0,0:0:0:0:
320,192,153579,1,0,0:0:0:0:
64,192,153660,1,0,0:0:0:0:
320,192,153742,1,0,0:0:0:0:
192,192,153823,1,0,0:0:0:0:
448,192,153823,1,8,0:0:0:0:
64,192,153905,1,0,0:0:0:0:
192,192,153986,1,0,0:0:0:70:hat.wav
320,192,154068,1,0,0:0:0:0:
448,192,154149,1,0,0:0:0:0:
64,192,154149,1,0,0:0:0:0:
192,192,154149,1,0,0:0:0:0:
320,192,154231,1,0,0:0:0:0:
64,192,154312,1,0,0:0:0:0:
320,192,154394,1,0,0:0:0:0:
192,192,154476,1,0,0:0:0:0:
448,192,154476,1,8,0:0:0:0:
64,192,154557,1,0,0:0:0:0:
448,192,154639,1,0,0:0:0:70:hat.wav
320,192,154720,1,0,0:0:0:0:
192,192,154802,1,0,0:0:0:0:
64,192,154802,1,0,0:0:0:0:
448,192,154802,1,0,0:0:0:0:
320,192,154883,1,0,0:0:0:0:
64,192,154965,1,0,0:0:0:0:
320,192,155046,1,0,0:0:0:0:
448,192,155128,1,8,0:0:0:0:
192,192,155128,1,0,0:0:0:0:
64,192,155209,1,0,0:0:0:0:
192,192,155291,1,0,0:0:0:70:hat.wav
320,192,155372,1,0,0:0:0:0:
192,192,155454,1,0,0:0:0:0:
64,192,155454,1,0,0:0:0:0:
448,192,155454,1,0,0:0:0:0:
320,192,155535,1,0,0:0:0:0:
64,192,155617,1,0,0:0:0:0:
320,192,155698,1,0,0:0:0:0:
448,192,155780,1,8,0:0:0:0:
192,192,155780,1,0,0:0:0:0:
64,192,155861,1,0,0:0:0:0:
448,192,155943,1,0,0:0:0:70:hat.wav
320,192,156024,1,0,0:0:0:0:
192,192,156106,1,0,0:0:0:0:
64,192,156106,1,0,0:0:0:0:
448,192,156106,1,0,0:0:0:0:
320,192,156187,1,0,0:0:0:0:
64,192,156269,1,0,0:0:0:0:
320,192,156351,1,0,0:0:0:0:
192,192,156432,1,0,0:0:0:0:
448,192,156432,1,8,0:0:0:0:
64,192,156514,1,0,0:0:0:0:
192,192,156595,1,0,0:0:0:70:hat.wav
320,192,156677,1,0,0:0:0:0:
192,192,156758,1,0,0:0:0:0:
64,192,156758,1,0,0:0:0:0:
448,192,156758,1,0,0:0:0:0:
320,192,156840,1,0,0:0:0:0:
64,192,156921,1,0,0:0:0:0:
320,192,157003,1,0,0:0:0:0:
192,192,157084,1,0,0:0:0:0:
64,192,157084,1,8,0:0:0:0:
448,192,157166,1,0,0:0:0:0:
192,192,157247,1,0,0:0:0:0:
320,192,157329,1,0,0:0:0:0:
64,192,157410,1,8,0:0:0:0:
192,192,157410,1,0,0:0:0:0:
448,192,157410,1,0,0:0:0:0:
320,192,157492,1,0,0:0:0:0:
64,192,157573,1,0,0:0:0:0:
192,192,157655,1,0,0:0:0:0:
448,192,157736,1,0,0:0:0:0:
320,192,157736,1,0,0:0:0:0:
64,192,157736,1,8,0:0:0:0:
192,192,157818,1,0,0:0:0:0:
448,192,157899,1,0,0:0:0:0:
320,192,157981,1,0,0:0:0:0:
192,192,157981,1,0,0:0:0:0:
64,192,158062,1,8,0:0:0:0:
448,192,158062,1,0,0:0:0:0:
192,192,158144,1,0,0:0:0:0:
320,192,158226,1,0,0:0:0:0:
192,192,158307,1,0,0:0:0:0:
448,192,158307,1,0,0:0:0:0:
320,192,158389,1,0,0:0:0:0:
64,192,158389,1,8,0:0:0:0:
192,192,158470,1,0,0:0:0:0:
64,192,158552,1,0,0:0:0:0:
448,192,158633,1,0,0:0:0:0:
64,192,158715,1,8,0:0:0:0:
192,192,158715,1,0,0:0:0:0:
320,192,158715,1,0,0:0:0:0:
448,192,158796,1,0,0:0:0:0:
64,192,158878,1,0,0:0:0:0:
192,192,158959,1,0,0:0:0:0:
448,192,159041,1,0,0:0:0:0:
320,192,159041,1,8,0:0:0:0:
192,192,159122,1,8,0:0:0:0:
64,192,159122,1,0,0:0:0:0:
448,192,159204,1,0,0:0:0:0:
320,192,159204,1,8,0:0:0:0:
64,192,159285,1,8,0:0:0:0:
192,192,159285,1,0,0:0:0:0:
448,192,159367,128,8,159693:0:0:0:0:
192,192,159611,1,0,0:0:0:0:
320,192,159693,1,0,0:0:0:0:
64,192,159693,1,8,0:0:0:0:
448,192,159774,1,0,0:0:0:0:
64,192,159856,1,0,0:0:0:70:hat.wav
192,192,159937,1,0,0:0:0:0:
64,192,160019,1,0,0:0:0:0:
320,192,160019,1,0,0:0:0:0:
448,192,160019,1,0,0:0:0:0:
192,192,160101,1,0,0:0:0:0:
448,192,160182,1,0,0:0:0:0:
192,192,160264,1,0,0:0:0:0:
320,192,160345,1,0,0:0:0:0:
64,192,160345,1,8,0:0:0:0:
448,192,160427,1,0,0:0:0:0:
320,192,160508,1,0,0:0:0:70:hat.wav
192,192,160590,1,0,0:0:0:0:
64,192,160671,1,0,0:0:0:0:
448,192,160671,1,0,0:0:0:0:
320,192,160671,1,0,0:0:0:0:
192,192,160753,1,0,0:0:0:0:
448,192,160834,1,0,0:0:0:0:
192,192,160916,1,0,0:0:0:0:
64,192,160997,1,8,0:0:0:0:
320,192,160997,1,0,0:0:0:0:
448,192,161079,1,0,0:0:0:0:
64,192,161160,1,0,0:0:0:70:hat.wav
192,192,161242,1,0,0:0:0:0:
448,192,161323,1,0,0:0:0:0:
64,192,161323,1,0,0:0:0:0:
320,192,161323,1,0,0:0:0:0:
192,192,161405,1,0,0:0:0:0:
448,192,161486,1,0,0:0:0:0:
192,192,161568,1,0,0:0:0:0:
64,192,161649,1,8,0:0:0:0:
320,192,161649,1,0,0:0:0:0:
448,192,161731,1,0,0:0:0:0:
320,192,161812,1,0,0:0:0:70:hat.wav
192,192,161894,1,0,0:0:0:0:
64,192,161976,1,0,0:0:0:0:
320,192,161976,1,0,0:0:0:0:
448,192,161976,1,0,0:0:0:0:
192,192,162057,1,0,0:0:0:0:
448,192,162139,1,0,0:0:0:0:
192,192,162220,1,0,0:0:0:0:
64,192,162302,1,8,0:0:0:0:
320,192,162302,1,0,0:0:0:0:
448,192,162383,1,0,0:0:0:0:
64,192,162465,1,0,0:0:0:70:hat.wav
192,192,162546,1,0,0:0:0:0:
64,192,162628,1,0,0:0:0:0:
320,192,162628,1,0,0:0:0:0:
448,192,162628,1,0,0:0:0:0:
192,192,162709,1,0,0:0:0:0:
448,192,162791,1,0,0:0:0:0:
192,192,162872,1,0,0:0:0:0:
64,192,162954,1,8,0:0:0:0:
320,192,162954,1,0,0:0:0:0:
448,192,163035,1,0,0:0:0:0:
320,192,163117,1,0,0:0:0:70:hat.wav
192,192,163198,1,0,0:0:0:0:
320,192,163280,1,0,0:0:0:0:
448,192,163280,1,0,0:0:0:0:
64,192,163280,1,0,0:0:0:0:
192,192,163361,1,0,0:0:0:0:
448,192,163443,1,0,0:0:0:0:
192,192,163524,1,0,0:0:0:0:
320,192,163606,1,0,0:0:0:0:
64,192,163606,1,8,0:0:0:0:
448,192,163687,1,0,0:0:0:0:
64,192,163769,1,0,0:0:0:70:hat.wav
192,192,163851,1,0,0:0:0:0:
448,192,163932,1,0,0:0:0:0:
320,192,163932,1,0,0:0:0:0:
64,192,163932,1,0,0:0:0:0:
192,192,164014,1,0,0:0:0:0:
448,192,164095,1,0,0:0:0:0:
192,192,164177,1,0,0:0:0:0:
64,192,164258,1,8,0:0:0:0:
320,192,164258,1,0,0:0:0:0:
448,192,164340,1,0,0:0:0:0:
320,192,164421,1,0,0:0:0:70:hat.wav
192,192,164503,1,0,0:0:0:0:
448,192,164584,1,0,0:0:0:0:
64,192,164584,1,0,0:0:0:0:
320,192,164584,1,0,0:0:0:0:
192,192,164666,1,0,0:0:0:0:
448,192,164747,1,0,0:0:0:0:
192,192,164829,1,0,0:0:0:0:
64,192,164910,1,8,0:0:0:0:
320,192,164910,1,0,0:0:0:0:
448,192,164992,1,0,0:0:0:0:
64,192,165073,1,0,0:0:0:70:hat.wav
192,192,165155,1,0,0:0:0:0:
64,192,165236,1,0,0:0:0:0:
320,192,165236,1,0,0:0:0:0:
448,192,165236,1,0,0:0:0:0:
192,192,165318,1,0,0:0:0:0:
448,192,165399,1,0,0:0:0:0:
192,192,165481,1,0,0:0:0:0:
64,192,165562,1,8,0:0:0:0:
320,192,165562,1,0,0:0:0:0:
448,192,165644,1,0,0:0:0:0:
320,192,165726,1,0,0:0:0:70:hat.wav
192,192,165807,1,0,0:0:0:0:
448,192,165889,1,0,0:0:0:0:
64,192,165889,1,0,0:0:0:0:
320,192,165889,1,0,0:0:0:0:
192,192,165970,1,0,0:0:0:0:
448,192,166052,1,0,0:0:0:0:
192,192,166133,1,0,0:0:0:0:
320,192,166215,1,0,0:0:0:0:
64,192,166215,1,8,0:0:0:0:
448,192,166296,1,0,0:0:0:0:
64,192,166378,1,0,0:0:0:70:hat.wav
192,192,166459,1,0,0:0:0:0:
448,192,166541,1,0,0:0:0:0:
320,192,166541,1,0,0:0:0:0:
64,192,166541,1,0,0:0:0:0:
192,192,166622,1,0,0:0:0:0:
448,192,166704,1,0,0:0:0:0:
192,192,166785,1,0,0:0:0:0:
320,192,166867,1,8,0:0:0:0:
64,192,166867,1,0,0:0:0:0:
192,192,166948,1,0,0:0:0:0:
320,192,167030,1,0,0:0:0:70:hat.wav
448,192,167111,1,0,0:0:0:0:
64,192,167193,1,8,0:0:0:0:
192,192,167234,1,8,0:0:0:0:
320,192,167274,1,8,0:0:0:0:
448,192,167315,1,8,0:0:0:0:
64,192,167356,1,8,0:0:0:0:
192,192,167397,1,8,0:0:0:0:
320,192,167437,1,8,0:0:0:0:
448,192,167478,1,8,0:0:0:0:
64,192,167519,1,8,0:0:0:0:
192,192,167519,1,0,0:0:0:0:
64,192,167845,128,0,168171:0:0:0:0:
320,192,167845,128,0,168171:0:0:0:0:
192,192,168171,1,8,0:0:0:0:
448,192,168171,1,0,0:0:0:0:
320,192,168334,1,0,0:0:0:0:
64,192,168334,1,8,0:0:0:0:
448,192,168660,128,0,168986:0:0:0:0:
64,192,168823,1,8,0:0:0:0:
320,192,168823,1,0,0:0:0:0:
64,192,168986,1,8,0:0:0:0:
320,192,169149,1,0,0:0:0:0:
192,192,169149,128,0,169476:0:0:0:0:
64,192,169394,1,0,0:0:0:0:
320,192,169476,1,8,0:0:0:0:
448,192,169476,1,0,0:0:0:0:
320,192,169639,1,8,0:0:0:0:
64,192,169802,1,8,0:0:0:0:
192,192,169802,128,0,170128:0:0:0:0:
320,192,170128,1,0,0:0:0:35:gs7.wav
448,192,170128,1,0,0:0:0:35:gs7.wav
64,192,170291,1,0,0:0:0:70:c8.wav
64,192,170454,1,0,0:0:0:35:c8.wav
448,192,170454,1,0,0:0:0:35:c8.wav
448,192,170780,1,0,0:0:0:35:d8.wav
192,192,170780,1,0,0:0:0:35:d8.wav
64,192,170943,1,0,0:0:0:50:c8.wav
320,192,170943,1,0,0:0:0:50:c8.wav
64,192,171106,1,0,0:0:0:50:d8.wav
192,192,171106,1,0,0:0:0:50:d8.wav
320,192,171269,1,0,0:0:0:50:f8.wav
192,192,171269,1,0,0:0:0:50:f8.wav
320,192,171432,1,0,0:0:0:50:fs8.wav
448,192,171432,1,0,0:0:0:50:fs8.wav
192,192,171595,1,0,0:0:0:35:f8.wav
320,192,171595,1,0,0:0:0:35:f8.wav
192,192,171758,1,0,0:0:0:35:d8.wav
64,192,171758,1,0,0:0:0:35:d8.wav
448,192,171921,1,0,0:0:0:35:c8.wav
64,192,171921,128,0,172410:0:0:0:35:c8.wav
192,192,172410,128,0,172736:0:0:0:70:f7.wav
448,192,172736,1,0,0:0:0:35:c8.wav
320,192,172736,1,0,0:0:0:35:c8.wav
64,192,172899,1,0,0:0:0:70:gs7.wav
64,192,173062,1,0,0:0:0:70:gs7.wav
320,192,173389,1,0,0:0:0:35:c8.wav
448,192,173389,1,0,0:0:0:35:c8.wav
64,192,173552,1,0,0:0:0:70:gs7.wav
64,192,173715,1,0,0:0:0:70:gs7.wav
64,192,174041,128,0,174367:0:0:0:70:c8.wav
192,192,174367,128,0,174693:0:0:0:70:d8.wav
320,192,174693,1,0,0:0:0:50:f8.wav
64,192,174693,1,0,0:0:0:50:f8.wav
448,192,174693,128,0,175345:0:0:0:50:f8.wav
320,192,175345,1,0,0:0:0:70:gs7.wav
64,192,175508,1,0,0:0:0:70:c8.wav
64,192,175671,1,0,0:0:0:70:c8.wav
320,192,175997,1,0,0:0:0:35:d8.wav
192,192,175997,1,0,0:0:0:35:d8.wav
64,192,176160,1,0,0:0:0:35:c8.wav
192,192,176160,1,0,0:0:0:35:c8.wav
192,192,176323,1,0,0:0:0:50:d8.wav
320,192,176323,1,0,0:0:0:50:d8.wav
320,192,176486,1,0,0:0:0:50:f8.wav
448,192,176486,1,0,0:0:0:50:f8.wav
448,192,176649,1,0,0:0:0:40:fs8.wav
192,192,176649,1,0,0:0:0:40:fs8.wav
64,192,176649,1,0,0:0:0:40:fs8.wav
320,192,176812,1,0,0:0:0:70:f8.wav
192,192,176976,1,0,0:0:0:70:d8.wav
448,192,177139,1,0,0:0:0:35:c8.wav
64,192,177139,128,0,177628:0:0:0:35:c8.wav
192,192,177628,128,0,177954:0:0:0:70:f7.wav
320,192,177954,1,0,0:0:0:35:c8.wav
448,192,177954,1,0,0:0:0:35:c8.wav
64,192,178117,1,0,0:0:0:70:gs7.wav
64,192,178280,1,0,0:0:0:70:gs7.wav
320,192,178606,1,0,0:0:0:35:c8.wav
448,192,178606,1,0,0:0:0:35:c8.wav
64,192,178769,1,0,0:0:0:70:gs7.wav
64,192,178932,1,0,0:0:0:70:gs7.wav
192,192,179258,128,0,179584:0:0:0:70:c8.wav
320,192,179584,128,0,179910:0:0:0:70:d8.wav
64,192,179910,1,0,0:0:0:50:f8.wav
192,192,179910,1,0,0:0:0:50:f8.wav
448,192,179910,1,0,0:0:0:50:f8.wav
448,192,180236,128,4,180562:0:0:0:0:
64,192,180562,1,0,0:0:0:20:kickfast.wav
192,192,180562,1,0,0:0:0:0:
64,192,180726,1,0,0:0:0:20:kickfast.wav
320,192,180889,1,0,0:0:0:0:
64,192,180889,1,0,0:0:0:20:kickfast.wav
192,192,181052,1,0,0:0:0:20:kickfast.wav
448,192,181215,1,0,0:0:0:0:
192,192,181215,1,0,0:0:0:20:kickfast.wav
448,192,181378,1,0,0:0:0:0:
192,192,181541,1,0,0:0:0:0:
64,192,181541,1,0,0:0:0:20:kickfast.wav
320,192,181704,1,0,0:0:0:0:
192,192,181704,1,0,0:0:0:0:
448,192,181867,1,0,0:0:0:0:
64,192,181867,1,0,0:0:0:20:kickfast.wav
320,192,181948,1,0,0:0:0:0:
448,192,182030,1,0,0:0:0:0:
64,192,182193,1,0,0:0:0:20:kickfast.wav
192,192,182193,128,0,182519:0:0:0:0:
64,192,182519,1,0,0:0:0:20:kickfast.wav
320,192,182519,1,0,0:0:0:0:
64,192,182682,1,0,0:0:0:20:kickfast.wav
320,192,182682,1,0,0:0:0:0:
448,192,182845,128,0,183171:0:0:0:0:
192,192,182845,1,0,0:0:0:0:
320,192,183171,1,0,0:0:0:0:
192,192,183171,1,0,0:0:0:20:kickfast.wav
64,192,183497,1,0,0:0:0:20:kickfast.wav
192,192,183497,128,0,183823:0:0:0:0:
64,192,183823,1,0,0:0:0:20:kickfast.wav
320,192,183823,1,0,0:0:0:0:
64,192,183986,1,0,0:0:0:20:kickfast.wav
320,192,183986,1,0,0:0:0:0:
448,192,184312,128,0,184639:0:0:0:0:
64,192,184476,1,0,0:0:0:20:kickfast.wav
64,192,184639,1,0,0:0:0:20:kickfast.wav
320,192,184802,128,0,185128:0:0:0:0:
448,192,184802,1,0,0:0:0:0:
192,192,185128,1,0,0:0:0:20:kickfast.wav
192,192,185291,1,0,0:0:0:20:kickfast.wav
320,192,185454,128,0,185780:0:0:0:0:
448,192,185454,1,0,0:0:0:0:
64,192,185780,1,0,0:0:0:20:kickfast.wav
448,192,185780,1,0,0:0:0:0:
192,192,186106,1,0,0:0:0:0:
448,192,186106,128,0,186432:0:0:0:0:
192,192,186432,1,0,0:0:0:0:
64,192,186432,1,0,0:0:0:20:kickfast.wav
64,192,186595,1,0,0:0:0:20:kickfast.wav
320,192,186921,128,0,187247:0:0:0:0:
64,192,187084,1,0,0:0:0:20:kickfast.wav
64,192,187247,1,0,0:0:0:20:kickfast.wav
448,192,187247,1,0,0:0:0:0:
320,192,187410,128,0,187736:0:0:0:0:
192,192,187410,1,0,0:0:0:0:
64,192,187655,1,8,0:0:0:0:
192,192,187736,1,8,0:0:0:0:
448,192,187736,1,0,0:0:0:0:
64,192,187899,1,8,0:0:0:0:
320,192,187899,1,0,0:0:0:0:
320,192,188062,1,8,0:0:0:0:
448,192,188062,128,0,188389:0:0:0:0:
192,192,188389,1,0,0:0:0:20:before.wav
64,192,188389,1,0,0:0:0:0:
320,192,188470,1,0,0:0:0:0:
448,192,188552,1,0,0:0:0:0:
448,192,188715,1,0,0:0:0:0:
64,192,188715,1,0,0:0:0:20:before.wav
320,192,188796,1,0,0:0:0:0:
192,192,188878,1,0,0:0:0:0:
192,192,189041,1,0,0:0:0:20:before.wav
64,192,189041,1,0,0:0:0:0:
320,192,189122,1,0,0:0:0:0:
448,192,189204,1,0,0:0:0:0:
448,192,189367,1,0,0:0:0:0:
64,192,189367,1,0,0:0:0:20:before.wav
320,192,189448,1,0,0:0:0:0:
192,192,189611,1,0,0:0:0:0:
64,192,189693,1,0,0:0:0:20:before.wav
448,192,189693,1,0,0:0:0:0:
320,192,189693,1,0,0:0:0:0:
192,192,189774,1,0,0:0:0:0:
320,192,189856,1,0,0:0:0:0:
64,192,190019,1,0,0:0:0:20:before.wav
448,192,190019,1,0,0:0:0:0:
192,192,190101,1,0,0:0:0:0:
320,192,190182,1,0,0:0:0:0:
64,192,190345,1,0,0:0:0:20:before.wav
448,192,190345,1,0,0:0:0:0:
192,192,190427,1,0,0:0:0:0:
320,192,190508,1,0,0:0:0:0:
64,192,190671,1,0,0:0:0:20:before.wav
448,192,190671,1,0,0:0:0:0:
192,192,190753,1,0,0:0:0:0:
320,192,190834,1,0,0:0:0:0:
448,192,190997,1,0,0:0:0:0:
192,192,190997,1,0,0:0:0:0:
64,192,190997,1,0,0:0:0:0:
320,192,191079,1,0,0:0:0:0:
448,192,191242,1,0,0:0:0:0:
64,192,191323,1,0,0:0:0:20:before.wav
320,192,191323,1,0,0:0:0:0:
192,192,191405,1,0,0:0:0:0:
320,192,191486,1,0,0:0:0:0:
448,192,191649,1,0,0:0:0:0:
192,192,191649,1,0,0:0:0:20:before.wav
320,192,191731,1,0,0:0:0:0:
192,192,191812,1,0,0:0:0:0:
64,192,191976,1,0,0:0:0:20:before.wav
320,192,191976,1,0,0:0:0:0:
192,192,192057,1,0,0:0:0:0:
448,192,192139,1,0,0:0:0:0:
64,192,192220,1,0,0:0:0:0:
192,192,192220,1,0,0:0:0:0:
320,192,192302,1,0,0:0:0:0:
448,192,192302,1,0,0:0:0:0:
448,192,192546,1,0,0:0:0:0:
320,192,192546,1,0,0:0:0:0:
64,192,192628,1,0,0:0:0:20:before.wav
192,192,192628,1,0,0:0:0:0:
64,192,192791,1,0,0:0:0:0:
448,192,192791,1,0,0:0:0:0:
320,192,192954,1,0,0:0:0:20:before.wav
192,192,192954,1,0,0:0:0:0:
64,192,193035,1,0,0:0:0:0:
192,192,193117,1,0,0:0:0:0:
320,192,193280,1,0,0:0:0:0:
448,192,193280,1,0,0:0:0:20:before.wav
192,192,193361,1,0,0:0:0:0:
320,192,193443,1,0,0:0:0:0:
64,192,193606,1,0,0:0:0:20:before.wav
192,192,193606,1,0,0:0:0:0:
448,192,193606,1,0,0:0:0:0:
320,192,193687,1,0,0:0:0:0:
192,192,193769,1,0,0:0:0:0:
320,192,193932,1,0,0:0:0:0:
448,192,193932,1,0,0:0:0:20:before.wav
192,192,194014,1,0,0:0:0:0:
320,192,194095,1,0,0:0:0:0:
64,192,194258,1,0,0:0:0:20:before.wav
448,192,194258,1,0,0:0:0:0:
192,192,194258,1,0,0:0:0:0:
320,192,194340,1,0,0:0:0:0:
192,192,194421,1,0,0:0:0:0:
64,192,194584,1,0,0:0:0:0:
448,192,194584,1,0,0:0:0:20:before.wav
192,192,194666,1,0,0:0:0:0:
320,192,194747,1,0,0:0:0:0:
64,192,194910,1,0,0:0:0:20:before.wav
448,192,194910,1,0,0:0:0:0:
192,192,194910,1,0,0:0:0:0:
320,192,194992,1,0,0:0:0:0:
192,192,195073,1,0,0:0:0:0:
448,192,195236,1,0,0:0:0:20:before.wav
64,192,195236,1,0,0:0:0:0:
192,192,195318,1,0,0:0:0:0:
320,192,195399,1,0,0:0:0:0:
192,192,195562,1,0,0:0:0:0:
64,192,195562,1,0,0:0:0:20:before.wav
448,192,195562,1,0,0:0:0:0:
320,192,195644,1,0,0:0:0:0:
192,192,195726,1,0,0:0:0:0:
64,192,195889,1,0,0:0:0:0:
448,192,195889,1,0,0:0:0:20:before.wav
192,192,195970,1,0,0:0:0:0:
320,192,196052,1,0,0:0:0:0:
192,192,196215,1,0,0:0:0:0:
448,192,196215,1,0,0:0:0:0:
64,192,196215,1,8,0:0:0:0:
320,192,196296,1,0,0:0:0:0:
64,192,196378,1,8,0:0:0:0:
320,192,196459,1,0,0:0:0:0:
192,192,196541,1,0,0:0:0:0:
64,192,196541,1,8,0:0:0:0:
448,192,196541,1,0,0:0:0:0:
320,192,196622,1,0,0:0:0:0:
448,192,196704,1,8,0:0:0:0:
320,192,196785,1,0,0:0:0:0:
192,192,196867,1,0,0:0:0:0:
64,192,196867,1,8,0:0:0:0:
448,192,196867,1,0,0:0:0:0:
320,192,196948,1,0,0:0:0:0:
64,192,197030,1,8,0:0:0:0:
320,192,197111,1,0,0:0:0:0:
192,192,197193,1,0,0:0:0:0:
64,192,197193,1,8,0:0:0:0:
448,192,197193,1,0,0:0:0:0:
320,192,197274,1,0,0:0:0:0:
448,192,197356,1,8,0:0:0:0:
320,192,197437,1,0,0:0:0:0:
64,192,197519,1,0,0:0:0:0:
192,192,197519,1,0,0:0:0:20:snarerush.wav
320,192,197560,1,0,0:0:0:20:snarerush.wav
448,192,197601,1,0,0:0:0:20:snarerush.wav
64,192,197641,1,0,0:0:0:20:snarerush.wav
192,192,197682,1,0,0:0:0:20:snarerush.wav
320,192,197682,1,0,0:0:0:0:
448,192,197723,1,0,0:0:0:20:snarerush.wav
64,192,197764,1,0,0:0:0:20:snarerush.wav
192,192,197804,1,0,0:0:0:20:snarerush.wav
320,192,197845,1,0,0:0:0:20:snarerush.wav
448,192,197845,1,0,0:0:0:0:
64,192,197886,1,0,0:0:0:20:snarerush.wav
192,192,197927,1,0,0:0:0:20:snarerush.wav
320,192,197967,1,0,0:0:0:20:snarerush.wav
64,192,198008,1,0,0:0:0:0:
448,192,198008,1,0,0:0:0:20:snarerush.wav
192,192,198049,1,0,0:0:0:20:snarerush.wav
320,192,198090,1,0,0:0:0:20:snarerush.wav
448,192,198130,1,0,0:0:0:20:snarerush.wav
64,192,198171,1,0,0:0:0:0:
192,192,198171,1,8,0:0:0:0:
320,192,198253,1,8,0:0:0:0:
448,192,198253,1,0,0:0:0:0:
192,192,198334,1,8,0:0:0:0:
64,192,198334,1,0,0:0:0:0:
320,192,198416,1,8,0:0:0:0:
448,192,198416,1,0,0:0:0:0:
64,192,198497,128,0,198823:0:0:0:0:
192,192,198497,1,8,0:0:0:0:
448,192,198823,5,8,0:0:0:0:
192,192,198823,1,0,0:0:0:0:
320,192,198823,1,8,0:0:0:0:
64,192,198905,1,0,0:0:0:0:
448,192,198986,1,0,0:0:0:70:hat.wav
192,192,198986,1,0,0:0:0:0:
320,192,199068,1,0,0:0:0:0:
64,192,199149,1,0,0:0:0:0:
448,192,199149,1,0,0:0:0:0:
192,192,199149,1,0,0:0:0:0:
320,192,199231,1,0,0:0:0:0:
64,192,199312,1,0,0:0:0:0:
448,192,199394,1,0,0:0:0:0:
192,192,199476,1,8,0:0:0:0:
320,192,199476,1,8,0:0:0:0:
64,192,199557,1,0,0:0:0:0:
448,192,199639,1,0,0:0:0:70:hat.wav
192,192,199639,1,0,0:0:0:70:hat.wav
320,192,199720,1,0,0:0:0:0:
192,192,199802,1,0,0:0:0:0:
64,192,199802,1,0,0:0:0:0:
448,192,199802,1,0,0:0:0:0:
320,192,199883,1,0,0:0:0:0:
64,192,199965,1,0,0:0:0:0:
192,192,199965,1,0,0:0:0:0:
320,192,200046,1,0,0:0:0:0:
192,192,200128,1,8,0:0:0:0:
448,192,200128,1,8,0:0:0:0:
64,192,200209,1,0,0:0:0:0:
448,192,200291,1,0,0:0:0:70:hat.wav
192,192,200291,1,0,0:0:0:0:
320,192,200372,1,0,0:0:0:0:
64,192,200454,1,0,0:0:0:0:
192,192,200454,1,0,0:0:0:0:
448,192,200454,1,0,0:0:0:0:
320,192,200535,1,0,0:0:0:0:
64,192,200617,1,0,0:0:0:0:
192,192,200617,1,0,0:0:0:0:
448,192,200698,1,0,0:0:0:0:
192,192,200780,1,8,0:0:0:0:
320,192,200780,1,8,0:0:0:0:
64,192,200861,1,0,0:0:0:0:
448,192,200943,1,0,0:0:0:70:hat.wav
192,192,200943,1,0,0:0:0:70:hat.wav
320,192,201024,1,0,0:0:0:0:
192,192,201106,1,0,0:0:0:0:
448,192,201106,1,0,0:0:0:0:
64,192,201106,1,0,0:0:0:0:
320,192,201187,1,0,0:0:0:0:
64,192,201269,1,0,0:0:0:0:
320,192,201351,1,0,0:0:0:0:
448,192,201432,1,8,0:0:0:0:
192,192,201432,1,8,0:0:0:0:
64,192,201514,1,0,0:0:0:0:
448,192,201595,1,0,0:0:0:70:hat.wav
192,192,201595,1,0,0:0:0:0:
320,192,201677,1,0,0:0:0:0:
192,192,201758,1,0,0:0:0:0:
448,192,201758,1,0,0:0:0:0:
64,192,201758,1,0,0:0:0:0:
320,192,201840,1,0,0:0:0:0:
64,192,201921,1,0,0:0:0:0:
448,192,202003,1,0,0:0:0:0:
192,192,202084,1,8,0:0:0:0:
320,192,202084,1,8,0:0:0:0:
64,192,202166,1,0,0:0:0:0:
448,192,202247,1,0,0:0:0:70:hat.wav
192,192,202247,1,0,0:0:0:70:hat.wav
320,192,202329,1,0,0:0:0:0:
192,192,202410,1,0,0:0:0:0:
448,192,202410,1,0,0:0:0:0:
64,192,202410,1,0,0:0:0:0:
320,192,202492,1,0,0:0:0:0:
64,192,202573,1,0,0:0:0:0:
192,192,202573,1,0,0:0:0:0:
320,192,202655,1,0,0:0:0:0:
448,192,202736,1,8,0:0:0:0:
192,192,202736,1,8,0:0:0:0:
64,192,202818,1,0,0:0:0:0:
192,192,202899,1,0,0:0:0:0:
448,192,202899,1,0,0:0:0:0:
320,192,202981,1,0,0:0:0:0:
64,192,203062,1,0,0:0:0:0:
192,192,203062,1,0,0:0:0:0:
448,192,203062,1,0,0:0:0:0:
320,192,203144,1,0,0:0:0:0:
64,192,203226,1,0,0:0:0:0:
448,192,203307,1,0,0:0:0:0:
192,192,203389,1,8,0:0:0:0:
320,192,203389,1,8,0:0:0:0:
64,192,203470,1,0,0:0:0:0:
448,192,203552,1,0,0:0:0:40:hat.wav
192,192,203552,1,0,0:0:0:40:hat.wav
320,192,203633,1,0,0:0:0:0:
64,192,203715,1,0,0:0:0:0:
192,192,203715,1,0,0:0:0:0:
448,192,203715,1,0,0:0:0:0:
320,192,203796,1,0,0:0:0:0:
64,192,203878,1,0,0:0:0:0:
320,192,203959,1,0,0:0:0:0:
448,192,204041,1,8,0:0:0:0:
192,192,204041,1,8,0:0:0:0:
64,192,204122,1,0,0:0:0:0:
448,192,204204,1,0,0:0:0:70:hat.wav
192,192,204204,1,0,0:0:0:0:
320,192,204285,1,0,0:0:0:0:
64,192,204367,1,0,0:0:0:0:
448,192,204367,1,0,0:0:0:0:
192,192,204367,1,0,0:0:0:0:
320,192,204448,1,0,0:0:0:0:
64,192,204530,1,0,0:0:0:0:
448,192,204611,1,0,0:0:0:0:
192,192,204693,1,8,0:0:0:0:
320,192,204693,1,8,0:0:0:0:
64,192,204774,1,0,0:0:0:0:
448,192,204856,1,0,0:0:0:70:hat.wav
192,192,204856,1,0,0:0:0:70:hat.wav
320,192,204937,1,0,0:0:0:0:
448,192,205019,1,0,0:0:0:0:
192,192,205019,1,0,0:0:0:0:
64,192,205019,1,0,0:0:0:0:
320,192,205101,1,0,0:0:0:0:
64,192,205182,1,0,0:0:0:0:
192,192,205182,1,0,0:0:0:0:
320,192,205264,1,0,0:0:0:0:
192,192,205345,1,8,0:0:0:0:
448,192,205345,1,8,0:0:0:0:
64,192,205427,1,0,0:0:0:0:
448,192,205508,1,0,0:0:0:70:hat.wav
192,192,205508,1,0,0:0:0:0:
320,192,205590,1,0,0:0:0:0:
448,192,205671,1,0,0:0:0:0:
64,192,205671,1,0,0:0:0:0:
192,192,205671,1,0,0:0:0:0:
320,192,205753,1,0,0:0:0:0:
64,192,205834,1,0,0:0:0:0:
192,192,205834,1,0,0:0:0:0:
448,192,205916,1,0,0:0:0:0:
192,192,205997,1,8,0:0:0:0:
320,192,205997,1,8,0:0:0:0:
64,192,206079,1,0,0:0:0:0:
448,192,206160,1,0,0:0:0:70:hat.wav
192,192,206160,1,0,0:0:0:70:hat.wav
320,192,206242,1,0,0:0:0:0:
64,192,206323,1,0,0:0:0:0:
192,192,206323,1,0,0:0:0:0:
448,192,206323,1,0,0:0:0:0:
320,192,206405,1,0,0:0:0:0:
64,192,206486,1,0,0:0:0:0:
448,192,206568,1,0,0:0:0:0:
64,192,206649,1,8,0:0:0:0:
320,192,206649,1,8,0:0:0:0:
192,192,206649,1,0,0:0:0:0:
448,192,206731,1,0,0:0:0:0:
192,192,206812,1,0,0:0:0:0:
320,192,206894,1,0,0:0:0:0:
448,192,206976,1,8,0:0:0:0:
64,192,206976,1,8,0:0:0:0:
192,192,206976,1,0,0:0:0:0:
320,192,207057,1,0,0:0:0:0:
64,192,207139,1,0,0:0:0:0:
448,192,207220,1,0,0:0:0:0:
192,192,207302,1,0,0:0:0:0:
320,192,207302,1,8,0:0:0:0:
64,192,207383,1,0,0:0:0:0:
320,192,207465,1,0,0:0:0:0:
192,192,207546,1,0,0:0:0:0:
448,192,207546,1,0,0:0:0:0:
320,192,207628,1,0,0:0:0:0:
64,192,207628,1,8,0:0:0:0:
192,192,207709,1,0,0:0:0:0:
320,192,207791,1,0,0:0:0:0:
192,192,207872,1,0,0:0:0:0:
448,192,207872,1,0,0:0:0:0:
64,192,207954,1,8,0:0:0:0:
320,192,207954,1,0,0:0:0:0:
192,192,208035,1,0,0:0:0:0:
64,192,208117,1,0,0:0:0:0:
448,192,208198,1,0,0:0:0:0:
192,192,208280,1,0,0:0:0:0:
320,192,208280,1,0,0:0:0:0:
64,192,208280,1,8,0:0:0:0:
448,192,208361,1,0,0:0:0:0:
64,192,208443,1,0,0:0:0:0:
192,192,208524,1,0,0:0:0:0:
320,192,208606,1,8,0:0:0:0:
448,192,208606,1,0,0:0:0:0:
64,192,208687,1,0,0:0:0:0:
192,192,208687,1,8,0:0:0:0:
320,192,208769,1,8,0:0:0:0:
448,192,208769,1,0,0:0:0:0:
64,192,208851,1,8,0:0:0:0:
192,192,208851,1,0,0:0:0:0:
320,192,208932,128,8,209095:0:0:0:0:
448,192,209177,1,8,0:0:0:0:
320,192,209217,1,0,0:0:0:0:
192,192,209258,1,8,0:0:0:0:
64,192,209258,1,0,0:0:0:0:
448,192,209340,1,0,0:0:0:0:
64,192,209421,1,0,0:0:0:70:hat.wav
320,192,209421,1,0,0:0:0:0:
192,192,209503,1,0,0:0:0:0:
64,192,209584,1,0,0:0:0:0:
320,192,209584,1,0,0:0:0:0:
448,192,209584,1,0,0:0:0:0:
192,192,209666,1,0,0:0:0:0:
448,192,209747,1,0,0:0:0:0:
64,192,209829,1,0,0:0:0:0:
320,192,209910,1,8,0:0:0:0:
192,192,209910,1,8,0:0:0:0:
448,192,209992,1,0,0:0:0:0:
64,192,210073,1,0,0:0:0:70:hat.wav
320,192,210073,1,0,0:0:0:70:hat.wav
192,192,210155,1,0,0:0:0:0:
448,192,210236,1,0,0:0:0:0:
320,192,210236,1,0,0:0:0:0:
64,192,210236,1,0,0:0:0:0:
192,192,210318,1,0,0:0:0:0:
448,192,210399,1,0,0:0:0:0:
320,192,210399,1,0,0:0:0:0:
192,192,210481,1,0,0:0:0:0:
64,192,210562,1,8,0:0:0:0:
320,192,210562,1,8,0:0:0:0:
448,192,210644,1,0,0:0:0:0:
64,192,210726,1,0,0:0:0:70:hat.wav
320,192,210726,1,0,0:0:0:0:
192,192,210807,1,0,0:0:0:0:
64,192,210889,1,0,0:0:0:0:
320,192,210889,1,0,0:0:0:0:
448,192,210889,1,0,0:0:0:0:
192,192,210970,1,0,0:0:0:0:
448,192,211052,1,0,0:0:0:0:
320,192,211052,1,0,0:0:0:0:
64,192,211133,1,0,0:0:0:0:
192,192,211215,1,8,0:0:0:0:
320,192,211215,1,8,0:0:0:0:
448,192,211296,1,0,0:0:0:0:
64,192,211378,1,0,0:0:0:70:hat.wav
320,192,211378,1,0,0:0:0:70:hat.wav
192,192,211459,1,0,0:0:0:0:
320,192,211541,1,0,0:0:0:0:
64,192,211541,1,0,0:0:0:0:
448,192,211541,1,0,0:0:0:0:
192,192,211622,1,0,0:0:0:0:
448,192,211704,1,0,0:0:0:0:
192,192,211785,1,0,0:0:0:0:
64,192,211867,1,8,0:0:0:0:
320,192,211867,1,8,0:0:0:0:
448,192,211948,1,0,0:0:0:0:
64,192,212030,1,0,0:0:0:70:hat.wav
320,192,212030,1,0,0:0:0:0:
192,192,212111,1,0,0:0:0:0:
64,192,212193,1,0,0:0:0:0:
448,192,212193,1,0,0:0:0:0:
320,192,212193,1,0,0:0:0:0:
192,192,212274,1,0,0:0:0:0:
448,192,212356,1,0,0:0:0:0:
64,192,212437,1,0,0:0:0:0:
192,192,212519,1,8,0:0:0:0:
320,192,212519,1,8,0:0:0:0:
448,192,212601,1,0,0:0:0:0:
64,192,212682,1,0,0:0:0:70:hat.wav
320,192,212682,1,0,0:0:0:70:hat.wav
192,192,212764,1,0,0:0:0:0:
448,192,212845,1,0,0:0:0:0:
320,192,212845,1,0,0:0:0:0:
64,192,212845,1,0,0:0:0:0:
192,192,212927,1,0,0:0:0:0:
448,192,213008,1,0,0:0:0:0:
320,192,213008,1,0,0:0:0:0:
192,192,213090,1,0,0:0:0:0:
64,192,213171,1,8,0:0:0:0:
320,192,213171,1,8,0:0:0:0:
448,192,213253,1,0,0:0:0:0:
64,192,213334,1,0,0:0:0:70:hat.wav
192,192,213416,1,0,0:0:0:0:
64,192,213497,1,0,0:0:0:0:
448,192,213497,1,0,0:0:0:0:
320,192,213497,1,0,0:0:0:0:
192,192,213579,1,0,0:0:0:0:
448,192,213660,1,0,0:0:0:0:
64,192,213742,1,0,0:0:0:0:
320,192,213823,1,8,0:0:0:0:
192,192,213823,1,8,0:0:0:0:
448,192,213905,1,0,0:0:0:0:
64,192,213986,1,0,0:0:0:70:hat.wav
320,192,213986,1,0,0:0:0:70:hat.wav
192,192,214068,1,0,0:0:0:0:
64,192,214149,1,0,0:0:0:0:
448,192,214149,1,0,0:0:0:0:
320,192,214149,1,0,0:0:0:0:
192,192,214231,1,0,0:0:0:0:
448,192,214312,1,0,0:0:0:0:
192,192,214394,1,0,0:0:0:0:
64,192,214476,1,8,0:0:0:0:
320,192,214476,1,8,0:0:0:0:
448,192,214557,1,0,0:0:0:0:
64,192,214639,1,0,0:0:0:70:hat.wav
320,192,214639,1,0,0:0:0:0:
192,192,214720,1,0,0:0:0:0:
448,192,214802,1,0,0:0:0:0:
320,192,214802,1,0,0:0:0:0:
64,192,214802,1,0,0:0:0:0:
192,192,214883,1,0,0:0:0:0:
448,192,214965,1,0,0:0:0:0:
64,192,215046,1,0,0:0:0:0:
192,192,215128,1,8,0:0:0:0:
320,192,215128,1,8,0:0:0:0:
448,192,215209,1,0,0:0:0:0:
64,192,215291,1,0,0:0:0:70:hat.wav
320,192,215291,1,0,0:0:0:70:hat.wav
192,192,215372,1,0,0:0:0:0:
448,192,215454,1,0,0:0:0:0:
320,192,215454,1,0,0:0:0:0:
64,192,215454,1,0,0:0:0:0:
192,192,215535,1,0,0:0:0:0:
448,192,215617,1,0,0:0:0:0:
320,192,215617,1,0,0:0:0:0:
192,192,215698,1,0,0:0:0:0:
320,192,215780,1,8,0:0:0:0:
64,192,215780,1,8,0:0:0:0:
448,192,215861,1,0,0:0:0:0:
64,192,215943,1,0,0:0:0:70:hat.wav
320,192,215943,1,0,0:0:0:0:
192,192,216024,1,0,0:0:0:0:
448,192,216106,1,0,0:0:0:0:
320,192,216106,1,0,0:0:0:0:
64,192,216106,1,0,0:0:0:0:
192,192,216187,1,0,0:0:0:0:
448,192,216269,1,0,0:0:0:0:
320,192,216269,1,0,0:0:0:0:
64,192,216351,1,0,0:0:0:0:
448,192,216432,1,8,0:0:0:0:
192,192,216432,1,8,0:0:0:0:
320,192,216514,1,0,0:0:0:0:
192,192,216595,1,0,0:0:0:70:hat.wav
64,192,216677,1,0,0:0:0:0:
448,192,216758,1,8,0:0:0:0:
320,192,216799,1,8,0:0:0:0:
192,192,216840,1,8,0:0:0:0:
64,192,216880,1,8,0:0:0:0:
448,192,216921,1,8,0:0:0:0:
320,192,216962,1,8,0:0:0:0:
192,192,217003,1,8,0:0:0:0:
64,192,217043,1,8,0:0:0:0:
320,192,217084,1,8,0:0:0:0:
448,192,217084,1,8,0:0:0:0:
192,192,217410,1,8,0:0:0:0:
448,192,217410,128,0,217899:0:0:0:0:
64,192,217736,1,0,0:0:0:0:
192,192,217736,1,0,0:0:0:0:
64,192,217899,1,0,0:0:0:0:
320,192,218062,1,0,0:0:0:0:
192,192,218226,1,0,0:0:0:0:
448,192,218226,1,0,0:0:0:0:
64,192,218389,128,0,219041:0:0:0:0:
320,192,218552,1,0,0:0:0:0:
448,192,218552,1,0,0:0:0:0:
448,192,218715,128,4,219041:0:0:0:0:
320,192,218878,1,0,0:0:0:0:
192,192,218959,1,0,0:0:0:0:
320,192,219041,128,0,219204:0:0:0:0:
192,192,219204,128,0,219367:0:0:0:0:
448,192,219367,128,0,219530:0:0:0:0:
64,192,219530,128,0,219693:0:0:0:0:
448,192,219693,5,8,0:0:0:0:
320,192,219693,1,8,0:0:0:0:
192,192,219693,1,0,0:0:0:0:
64,192,219774,1,0,0:0:0:0:
192,192,219856,1,0,0:0:0:70:hat.wav
448,192,219937,1,0,0:0:0:0:
320,192,220019,1,0,0:0:0:0:
192,192,220019,1,0,0:0:0:0:
64,192,220101,1,0,0:0:0:0:
320,192,220182,1,0,0:0:0:0:
64,192,220264,1,0,0:0:0:0:
320,192,220345,1,8,0:0:0:0:
192,192,220345,1,8,0:0:0:0:
448,192,220427,1,0,0:0:0:0:
64,192,220508,1,0,0:0:0:70:hat.wav
320,192,220590,1,0,0:0:0:0:
192,192,220671,1,0,0:0:0:0:
64,192,220671,1,0,0:0:0:0:
448,192,220671,1,0,0:0:0:0:
320,192,220753,1,0,0:0:0:0:
192,192,220834,1,0,0:0:0:0:
64,192,220916,1,0,0:0:0:0:
192,192,220997,1,8,0:0:0:0:
320,192,220997,1,8,0:0:0:0:
448,192,221079,1,0,0:0:0:0:
192,192,221160,1,0,0:0:0:70:hat.wav
448,192,221242,1,0,0:0:0:0:
192,192,221323,1,0,0:0:0:0:
64,192,221323,1,0,0:0:0:0:
320,192,221323,1,0,0:0:0:0:
448,192,221405,1,0,0:0:0:0:
320,192,221486,1,0,0:0:0:0:
64,192,221568,1,0,0:0:0:0:
192,192,221649,1,8,0:0:0:0:
320,192,221649,1,8,0:0:0:0:
448,192,221731,1,0,0:0:0:0:
192,192,221812,1,0,0:0:0:70:hat.wav
64,192,221812,1,0,0:0:0:0:
320,192,221894,1,0,0:0:0:0:
448,192,221976,1,0,0:0:0:0:
192,192,221976,1,0,0:0:0:0:
64,192,221976,1,0,0:0:0:0:
320,192,222057,1,0,0:0:0:0:
192,192,222139,1,0,0:0:0:0:
448,192,222139,1,0,0:0:0:0:
64,192,222220,1,0,0:0:0:0:
320,192,222302,1,8,0:0:0:0:
192,192,222302,1,8,0:0:0:0:
448,192,222302,1,0,0:0:0:0:
64,192,222383,1,0,0:0:0:0:
192,192,222465,1,0,0:0:0:70:hat.wav
448,192,222546,1,0,0:0:0:0:
192,192,222628,1,0,0:0:0:0:
320,192,222628,1,0,0:0:0:0:
64,192,222628,1,0,0:0:0:0:
448,192,222709,1,0,0:0:0:0:
320,192,222791,1,0,0:0:0:0:
64,192,222872,1,0,0:0:0:0:
192,192,222954,1,8,0:0:0:0:
320,192,222954,1,8,0:0:0:0:
448,192,223035,1,0,0:0:0:0:
192,192,223117,1,0,0:0:0:70:hat.wav
448,192,223198,1,0,0:0:0:0:
64,192,223280,1,0,0:0:0:0:
320,192,223280,1,0,0:0:0:0:
192,192,223280,1,0,0:0:0:0:
448,192,223361,1,0,0:0:0:0:
320,192,223443,1,0,0:0:0:0:
64,192,223524,1,0,0:0:0:0:
320,192,223606,1,8,0:0:0:0:
192,192,223606,1,8,0:0:0:0:
448,192,223687,1,0,0:0:0:0:
192,192,223769,1,0,0:0:0:70:hat.wav
448,192,223851,1,0,0:0:0:0:
192,192,223932,1,0,0:0:0:0:
320,192,223932,1,0,0:0:0:0:
64,192,223932,1,0,0:0:0:0:
448,192,224014,1,0,0:0:0:0:
320,192,224095,1,0,0:0:0:0:
64,192,224177,1,0,0:0:0:0:
192,192,224258,1,8,0:0:0:0:
320,192,224258,1,8,0:0:0:0:
448,192,224340,1,0,0:0:0:0:
192,192,224421,1,0,0:0:0:70:hat.wav
64,192,224421,1,0,0:0:0:0:
448,192,224503,1,0,0:0:0:0:
64,192,224584,1,0,0:0:0:0:
320,192,224584,1,0,0:0:0:0:
192,192,224584,1,0,0:0:0:0:
448,192,224666,1,0,0:0:0:0:
320,192,224747,1,0,0:0:0:0:
192,192,224747,1,0,0:0:0:0:
64,192,224829,1,0,0:0:0:0:
320,192,224910,1,8,0:0:0:0:
192,192,224910,1,8,0:0:0:0:
448,192,224910,1,0,0:0:0:0:
64,192,224992,1,0,0:0:0:0:
192,192,225073,1,0,0:0:0:70:hat.wav
448,192,225155,1,0,0:0:0:0:
192,192,225236,1,0,0:0:0:0:
320,192,225236,1,0,0:0:0:0:
64,192,225236,1,0,0:0:0:0:
448,192,225318,1,0,0:0:0:0:
320,192,225399,1,0,0:0:0:0:
64,192,225481,1,0,0:0:0:0:
192,192,225562,1,8,0:0:0:0:
320,192,225562,1,8,0:0:0:0:
64,192,225644,1,0,0:0:0:0:
192,192,225726,1,0,0:0:0:70:hat.wav
448,192,225807,1,0,0:0:0:0:
64,192,225889,1,0,0:0:0:0:
320,192,225889,1,0,0:0:0:0:
192,192,225889,1,0,0:0:0:0:
448,192,225970,1,0,0:0:0:0:
320,192,226052,1,0,0:0:0:0:
64,192,226133,1,0,0:0:0:0:
320,192,226215,1,8,0:0:0:0:
192,192,226215,1,8,0:0:0:0:
64,192,226296,1,0,0:0:0:0:
192,192,226378,1,0,0:0:0:70:hat.wav
448,192,226459,1,0,0:0:0:0:
192,192,226541,1,0,0:0:0:0:
320,192,226541,1,0,0:0:0:0:
64,192,226541,1,0,0:0:0:0:
448,192,226622,1,0,0:0:0:0:
320,192,226704,1,0,0:0:0:0:
64,192,226785,1,0,0:0:0:0:
192,192,226867,1,8,0:0:0:0:
448,192,226867,1,8,0:0:0:0:
320,192,226948,1,0,0:0:0:0:
192,192,227030,1,0,0:0:0:70:hat.wav
64,192,227030,1,0,0:0:0:0:
448,192,227111,1,0,0:0:0:0:
192,192,227193,1,0,0:0:0:0:
64,192,227193,1,0,0:0:0:0:
320,192,227193,1,0,0:0:0:0:
448,192,227274,1,0,0:0:0:0:
320,192,227356,1,0,0:0:0:0:
192,192,227356,1,0,0:0:0:0:
64,192,227437,1,0,0:0:0:0:
192,192,227519,1,8,0:0:0:0:
448,192,227519,1,8,0:0:0:0:
320,192,227519,1,0,0:0:0:0:
64,192,227601,1,0,0:0:0:0:
320,192,227682,1,0,0:0:0:0:
192,192,227764,1,0,0:0:0:0:
448,192,227845,1,8,0:0:0:0:
64,192,227845,1,8,0:0:0:0:
320,192,227845,1,0,0:0:0:0:
192,192,227927,1,0,0:0:0:0:
64,192,228008,1,0,0:0:0:0:
448,192,228008,1,8,0:0:0:0:
64,192,228090,1,0,0:0:0:0:
448,192,228090,1,8,0:0:0:0:
192,192,228171,1,8,0:0:0:0:
320,192,228171,1,8,0:0:0:0:
64,192,228253,1,0,0:0:0:0:
320,192,228334,1,8,0:0:0:0:
448,192,228334,1,0,0:0:0:0:
64,192,228416,1,0,0:0:0:0:
192,192,228416,1,8,0:0:0:0:
320,192,228497,1,8,0:0:0:0:
448,192,228497,1,0,0:0:0:0:
64,192,228579,1,0,0:0:0:0:
448,192,228660,1,8,0:0:0:0:
192,192,228660,1,0,0:0:0:0:
320,192,228742,1,0,0:0:0:0:
64,192,228823,128,0,229149:0:0:0:0:
192,192,228823,1,0,0:0:0:0:
448,192,228823,1,8,0:0:0:0:
448,192,229149,1,8,0:0:0:0:
192,192,229149,128,0,229476:0:0:0:0:
320,192,229149,1,0,0:0:0:0:
320,192,229476,128,0,229802:0:0:0:0:
64,192,229476,1,8,0:0:0:0:
448,192,229557,1,8,0:0:0:0:
64,192,229639,1,8,0:0:0:0:
192,192,229639,1,0,0:0:0:0:
448,192,229720,1,8,0:0:0:0:
192,192,229802,128,8,230128:0:0:0:0:
448,192,230128,1,8,0:0:0:0:
320,192,230128,1,8,0:0:0:0:
192,192,230209,1,0,0:0:0:0:
64,192,230291,1,0,0:0:0:70:hat.wav
448,192,230372,1,0,0:0:0:0:
320,192,230454,1,0,0:0:0:0:
64,192,230454,1,0,0:0:0:0:
192,192,230454,1,0,0:0:0:0:
448,192,230535,1,0,0:0:0:0:
320,192,230617,1,0,0:0:0:0:
64,192,230698,1,8,0:0:0:0:
448,192,230780,1,0,0:0:0:0:
192,192,230780,1,8,0:0:0:0:
320,192,230861,1,0,0:0:0:0:
64,192,230943,1,0,0:0:0:70:hat.wav
448,192,231024,1,0,0:0:0:0:
320,192,231106,1,0,0:0:0:0:
64,192,231106,1,0,0:0:0:0:
192,192,231106,1,0,0:0:0:0:
448,192,231187,1,0,0:0:0:0:
320,192,231269,1,0,0:0:0:0:
64,192,231351,1,0,0:0:0:0:
192,192,231432,1,8,0:0:0:0:
448,192,231432,1,8,0:0:0:0:
320,192,231514,1,0,0:0:0:0:
64,192,231595,1,0,0:0:0:70:hat.wav
448,192,231677,1,0,0:0:0:0:
320,192,231758,1,0,0:0:0:0:
64,192,231758,1,0,0:0:0:0:
192,192,231758,1,0,0:0:0:0:
448,192,231840,1,0,0:0:0:0:
320,192,231921,1,0,0:0:0:0:
64,192,232003,1,0,0:0:0:0:
192,192,232084,1,8,0:0:0:0:
448,192,232084,1,8,0:0:0:0:
320,192,232166,1,0,0:0:0:0:
64,192,232247,1,0,0:0:0:70:hat.wav
192,192,232247,1,0,0:0:0:0:
448,192,232329,1,0,0:0:0:0:
320,192,232410,1,0,0:0:0:0:
64,192,232410,1,0,0:0:0:0:
192,192,232410,1,0,0:0:0:0:
448,192,232492,1,0,0:0:0:0:
320,192,232573,1,0,0:0:0:0:
192,192,232573,1,0,0:0:0:0:
64,192,232655,1,0,0:0:0:0:
448,192,232736,1,8,0:0:0:0:
320,192,232736,1,8,0:0:0:0:
192,192,232736,1,0,0:0:0:0:
64,192,232818,1,0,0:0:0:0:
448,192,232899,1,0,0:0:0:70:hat.wav
64,192,232981,1,0,0:0:0:0:
320,192,233062,1,0,0:0:0:0:
448,192,233062,1,0,0:0:0:0:
192,192,233062,1,0,0:0:0:0:
64,192,233144,1,0,0:0:0:0:
192,192,233226,1,0,0:0:0:0:
448,192,233307,1,0,0:0:0:0:
64,192,233389,1,8,0:0:0:0:
320,192,233389,1,8,0:0:0:0:
192,192,233470,1,0,0:0:0:0:
448,192,233552,1,0,0:0:0:70:hat.wav
64,192,233633,1,0,0:0:0:0:
320,192,233715,1,0,0:0:0:0:
448,192,233715,1,0,0:0:0:0:
192,192,233715,1,0,0:0:0:0:
64,192,233796,1,0,0:0:0:0:
192,192,233878,1,0,0:0:0:0:
448,192,233959,1,0,0:0:0:0:
320,192,234041,1,8,0:0:0:0:
64,192,234041,1,8,0:0:0:0:
192,192,234122,1,0,0:0:0:0:
448,192,234204,1,0,0:0:0:70:hat.wav
64,192,234285,1,0,0:0:0:0:
320,192,234367,1,0,0:0:0:0:
448,192,234367,1,0,0:0:0:0:
192,192,234367,1,0,0:0:0:0:
64,192,234448,1,0,0:0:0:0:
192,192,234530,1,0,0:0:0:0:
448,192,234611,1,0,0:0:0:0:
64,192,234693,1,8,0:0:0:0:
320,192,234693,1,8,0:0:0:0:
192,192,234774,1,0,0:0:0:0:
448,192,234856,1,0,0:0:0:70:hat.wav
320,192,234856,1,0,0:0:0:0:
64,192,234937,1,0,0:0:0:0:
448,192,235019,1,0,0:0:0:0:
320,192,235019,1,0,0:0:0:0:
192,192,235019,1,0,0:0:0:0:
64,192,235101,1,0,0:0:0:0:
192,192,235182,1,0,0:0:0:0:
320,192,235182,1,0,0:0:0:0:
448,192,235264,1,0,0:0:0:0:
64,192,235345,1,8,0:0:0:0:
320,192,235345,1,8,0:0:0:0:
192,192,235345,1,0,0:0:0:0:
448,192,235427,1,0,0:0:0:0:
192,192,235508,1,0,0:0:0:70:hat.wav
64,192,235590,1,0,0:0:0:0:
448,192,235671,1,0,0:0:0:0:
320,192,235671,1,0,0:0:0:0:
192,192,235671,1,0,0:0:0:0:
64,192,235753,1,0,0:0:0:0:
448,192,235834,1,0,0:0:0:0:
320,192,235916,1,0,0:0:0:0:
192,192,235997,1,8,0:0:0:0:
64,192,235997,1,8,0:0:0:0:
320,192,236079,1,0,0:0:0:0:
448,192,236160,1,0,0:0:0:70:hat.wav
64,192,236242,1,0,0:0:0:0:
448,192,236323,1,0,0:0:0:0:
320,192,236323,1,0,0:0:0:0:
192,192,236323,1,0,0:0:0:0:
64,192,236405,1,0,0:0:0:0:
192,192,236486,1,0,0:0:0:0:
448,192,236568,1,0,0:0:0:0:
64,192,236649,1,8,0:0:0:0:
320,192,236649,1,8,0:0:0:0:
192,192,236731,1,0,0:0:0:0:
448,192,236812,1,0,0:0:0:70:hat.wav
320,192,236894,1,0,0:0:0:0:
448,192,236976,1,0,0:0:0:0:
64,192,236976,1,0,0:0:0:0:
192,192,236976,1,0,0:0:0:0:
320,192,237057,1,0,0:0:0:0:
64,192,237139,1,0,0:0:0:0:
192,192,237220,1,0,0:0:0:0:
448,192,237302,1,8,0:0:0:0:
320,192,237302,1,8,0:0:0:0:
192,192,237383,1,0,0:0:0:0:
64,192,237465,1,0,0:0:0:70:hat.wav
320,192,237546,1,0,0:0:0:0:
448,192,237628,1,0,0:0:0:0:
64,192,237628,1,0,0:0:0:0:
192,192,237628,1,0,0:0:0:0:
320,192,237709,1,0,0:0:0:0:
192,192,237791,1,0,0:0:0:0:
448,192,237872,1,0,0:0:0:0:
64,192,237954,1,8,0:0:0:0:
320,192,237954,1,0,0:0:0:0:
192,192,237954,1,8,0:0:0:0:
448,192,238035,1,0,0:0:0:0:
64,192,238117,1,0,0:0:0:0:
192,192,238198,1,8,0:0:0:0:
320,192,238198,1,8,0:0:0:0:
64,192,238280,1,0,0:0:0:0:
448,192,238280,1,8,0:0:0:0:
192,192,238361,1,0,0:0:0:0:
448,192,238443,1,0,0:0:0:0:
192,192,238524,1,8,0:0:0:0:
320,192,238524,1,8,0:0:0:0:
448,192,238606,1,0,0:0:0:0:
64,192,238606,1,8,0:0:0:0:
320,192,238687,1,0,0:0:0:0:
192,192,238769,1,0,0:0:0:0:
320,192,238851,1,0,0:0:0:0:
448,192,238932,1,0,0:0:0:0:
192,192,238932,1,8,0:0:0:0:
64,192,238932,1,8,0:0:0:0:
320,192,239014,1,0,0:0:0:0:
448,192,239095,1,0,0:0:0:0:
64,192,239095,1,8,0:0:0:0:
192,192,239095,1,8,0:0:0:0:
320,192,239177,1,0,0:0:0:0:
64,192,239258,1,8,0:0:0:0:
448,192,239258,1,0,0:0:0:0:
192,192,239258,1,8,0:0:0:0:
192,192,239421,1,8,0:0:0:0:
320,192,239421,1,8,0:0:0:0:
64,192,239584,1,0,0:0:0:0:
448,192,239584,1,8,0:0:0:0:
320,192,239584,1,8,0:0:0:0:
192,192,239747,1,0,0:0:0:0:
320,192,239829,1,0,0:0:0:0:
448,192,239910,1,0,0:0:0:0:
64,192,239910,1,8,0:0:0:0:
192,192,239910,1,8,0:0:0:0:
320,192,239992,1,0,0:0:0:0:
192,192,240073,1,0,0:0:0:0:
320,192,240155,1,0,0:0:0:0:
192,192,240236,1,8,0:0:0:0:
64,192,240236,1,8,0:0:0:0:
448,192,240236,128,0,240399:0:0:0:0:
320,192,240318,1,0,0:0:0:0:
64,192,240399,128,0,240562:0:0:0:0:
192,192,240399,1,0,0:0:0:0:
320,192,240481,1,0,0:0:0:0:
448,192,240562,1,0,0:0:0:0:
448,192,241867,128,0,249693:0:0:0:0:
64,192,241867,128,0,249693:0:0:0:0:
