osu file format v14

[General]
AudioFilename: audio.mp3
AudioLeadIn: 0
PreviewTime: 204953
Countdown: 0
SampleSet: Soft
StackLeniency: 0.2
Mode: 0
LetterboxInBreaks: 0
WidescreenStoryboard: 0

[Editor]
Bookmarks: 1985,13985,25985,37985
DistanceSpacing: 0.2
BeatDivisor: 4
GridSize: 32
TimelineZoom: 2.799999

[Metadata]
Title:Say you love me
TitleUnicode:Say you love me
Artist:Tia
ArtistUnicode:Tia
Creator:bite you death
Version:
Source:
Tags:
BeatmapID:1815691
BeatmapSetID:868694

[Difficulty]
HPDrainRate:6
CircleSize:4.2
OverallDifficulty:9
ApproachRate:9.6
SliderMultiplier:2.5
SliderTickRate:1

[Events]
//Background and Video events
0,0,"palet.jpg",0,0
//Break Periods
//Storyboard Layer 0 (Background)
//Storyboard Layer 1 (Fail)
//Storyboard Layer 2 (Pass)
//Storyboard Layer 3 (Foreground)
//Storyboard Sound Samples

[TimingPoints]
-1015,375,4,2,2,30,1,0
1047,-200,4,2,2,30,0,0
1985,-166.666666666667,4,2,2,30,0,0
7235,-100,4,2,2,50,0,0
7985,-166.666666666667,4,2,2,30,0,0
12485,-100,4,2,2,50,0,0
13985,-90.9090909090909,4,2,2,60,0,0
19610,-83.3333333333333,4,2,2,60,0,0
19703,-76.9230769230769,4,2,2,60,0,0
19797,-71.4285714285714,4,2,2,60,0,0
19891,-66.6666666666667,4,2,2,60,0,0
19985,-90.9090909090909,4,2,2,60,0,0
24672,-153.846153846153,4,2,2,60,0,0
24860,-80,4,2,2,60,0,0
25047,-125,4,2,2,60,0,0
25235,-71.4285714285714,4,2,2,60,0,0
25610,-100,4,2,2,60,0,0
25985,-200,4,2,2,40,0,0
36485,-100,4,2,2,60,0,0
37985,-125,4,2,2,60,0,0
49985,-100,4,2,2,60,0,0
61235,-200,4,2,2,60,0,0
61985,-80,4,2,2,70,0,1
71360,-133.333333333333,4,2,2,70,0,1
71735,-80,4,2,2,70,0,1
72110,-133.333333333333,4,2,2,70,0,1
72485,-80,4,2,2,70,0,1

[Colours]
Combo1 : 204,204,255
Combo2 : 191,255,191
Combo3 : 255,213,213

[HitObjects]
335,38,1047,5,0,0:0:0:0:
449,110,1235,2,0,P|419:117|383:102,1,62.5,0|0,0:0|0:0,0:0:0:0:
221,110,1610,2,0,P|251:117|287:102,1,62.5,0|0,0:0|0:0,0:0:0:0:
335,38,1985,6,0,B|327:113|312:194|312:194|365:171|423:189|440:257|428:304|395:325|351:336|321:333|290:298|290:298|269:324|225:330,1,524.999983978272,0|0,0:0|0:0,0:0:0:0:
108,358,3485,6,0,B|47:348|25:284|35:237|35:237|93:230|123:277|123:277|173:221|258:257,1,374.999988555909,0|0,0:0|0:0,0:0:0:0:
290,298,4610,1,0,0:0:0:0:
313,194,4797,1,0,0:0:0:0:
276,31,4985,6,0,B|212:42|170:104|170:104|228:100|255:116|255:116|314:81|366:114|366:114|409:75|470:97|470:97|429:116|420:164,1,524.999983978272
352,257,6485,6,0,P|394:238|356:327,1,224.999993133545,0|0,0:0|0:0,0:0:0:0:
292,318,7235,5,2,3:0:0:0:
273,322,7328,1,2,3:0:0:0:
256,327,7422,2,0,P|220:317|163:300,1,62.5,2|0,3:0|0:0,0:0:0:0:
114,319,7610,6,0,P|115:288|130:260,1,62.5,2|0,0:3|0:0,0:0:0:0:
223,171,7797,2,0,P|221:201|206:229,1,62.5,2|0,0:3|0:0,0:0:0:0:
69,108,7985,6,0,B|118:74|170:101|170:101|216:79|216:79|278:99|278:99|315:76|378:68|424:121|431:178|400:228|400:228|379:196|347:188,1,524.999983978272,0|0,0:0|0:0,0:0:0:0:
220,269,9485,6,0,B|274:288|332:264|332:264|302:307|309:351|309:351|254:359|190:343|190:343|170:362|140:365,1,374.999988555909,0|0,0:0|0:0,0:0:0:0:
40,351,10610,1,0,0:0:0:0:
129,275,10797,1,0,0:0:0:0:
14,151,10985,6,0,B|40:171|40:224|40:224|75:172|127:160|174:183|174:183|129:135|134:75|134:75|172:37|216:31|256:47|281:65|298:92,1,524.999983978272,0|0,0:0|0:0,0:0:0:0:
354,176,12485,5,0,3:2:0:0:
493,28,12672,1,8,0:0:0:0:
481,32,12766,1,8,0:0:0:0:
469,36,12860,2,0,P|439:56|416:86,1,62.5,2|0,3:0|3:0,0:0:0:0:
239,36,13047,2,0,P|269:56|292:86,1,62.5,0|0,3:0|0:0,0:0:0:0:
300,332,13235,5,2,3:2:0:0:
296,291,13328,1,0,3:0:0:0:
350,217,13422,5,10,0:2:0:0:
354,176,13516,1,8,0:0:0:0:
286,76,13610,6,0,L|277:156,1,62.5,2|0,3:2|3:0,0:0:0:0:
422,276,13797,2,0,L|431:196,1,62.5,2|0,3:2|3:0,0:0:0:0:
300,332,13985,6,0,B|219:317|253:377|120:351,1,137.500004196167,6|0,3:2|0:0,0:0:0:0:
2,294,14266,1,0,0:0:0:0:
2,294,14360,2,0,B|49:288|88:317|88:317|132:248|212:281,1,206.250006294251,8|0,0:0|0:0,0:0:0:0:
185,273,14735,2,0,P|175:223|168:175,1,68.7500020980836,0|0,3:0|0:0,0:0:0:0:
88,94,14922,1,0,3:0:0:0:
95,105,15016,1,0,3:0:0:0:
103,116,15110,6,0,P|138:129|201:108,1,68.7500020980836,8|0,0:0|0:0,0:0:0:0:
245,73,15297,2,0,P|280:60|343:81,1,68.7500020980836
444,156,15485,6,0,B|403:156|377:129|377:129|346:160|294:157,1,137.500004196167,0|0,3:2|0:0,0:0:0:0:
178,239,15766,1,0,0:0:0:0:
205,221,15860,2,0,B|283:209|253:253|339:248,1,137.500004196167,8|0,0:0|0:0,0:0:0:0:
431,223,16141,1,0,0:0:0:0:
431,223,16235,2,0,P|438:184|446:138,1,68.7500020980836,0|0,3:0|0:0,0:0:0:0:
483,26,16422,1,0,0:0:0:0:
472,35,16516,1,0,0:0:0:0:
460,43,16609,6,0,P|415:49|362:23,1,68.7500020980836,8|0,0:0|0:0,0:0:0:0:
320,104,16797,2,0,P|275:98|222:124,1,68.7500020980836
160,187,16985,5,0,3:0:0:0:
130,85,17172,1,0,0:0:0:0:
130,85,17266,1,0,0:0:0:0:
130,85,17360,2,0,B|181:46|181:46|170:114|158:206,1,206.250006294251,8|0,0:0|0:0,0:0:0:0:
90,318,17735,2,0,B|134:315|158:292|158:292|181:317|220:322,1,137.500004196167,0|0,3:2|0:0,0:0:0:0:
312,239,18016,1,0,0:0:0:0:
287,221,18110,6,0,P|246:223|214:241,1,68.7500020980836,8|0,0:0|0:0,0:0:0:0:
295,321,18297,2,0,P|336:319|368:301,1,68.7500020980836
414,241,18485,6,0,P|408:300|403:387,1,137.500004196167,0|0,3:0|0:0,0:0:0:0:
424,142,18860,1,8,0:0:0:0:
295,321,19047,1,0,0:0:0:0:
366,64,19235,5,2,3:2:0:0:
407,46,19328,1,2,3:2:0:0:
453,49,19422,1,2,3:2:0:0:
491,72,19516,1,2,3:2:0:0:
328,154,19610,6,0,P|302:140|276:107,1,37.4999988555909,2|2,3:0|3:0,0:0:0:0:
261,184,19703,6,0,P|245:159|239:117,1,40.6249981403352,2|2,3:0|3:0,0:0:0:0:
188,177,19797,6,0,P|186:147|202:108,1,43.749998664856,2|2,3:0|3:0,0:0:0:0:
128,134,19891,6,0,P|141:108|174:82,1,46.8750017881394,2|2,3:0|3:0,0:0:0:0:
74,67,19985,6,0,P|82:135|91:219,1,137.500004196167,6|0,3:2|0:0,0:0:0:0:
66,299,20266,1,0,0:0:0:0:
66,299,20360,2,0,B|111:307|142:285|142:285|193:306|193:306|230:279|286:291,1,206.250006294251,8|0,0:0|0:0,0:0:0:0:
317,381,20735,2,0,P|282:372|241:364,1,68.7500020980836,0|0,3:0|0:0,0:0:0:0:
320,229,20922,1,0,0:0:0:0:
330,238,21016,1,0,0:0:0:0:
340,247,21110,6,0,P|351:287|341:327,1,68.7500020980836,8|0,0:0|0:0,0:0:0:0:
261,184,21296,2,0,P|257:150|267:117,1,68.7500020980836
358,51,21485,5,0,3:2:0:0:
153,80,21672,1,0,0:0:0:0:
162,70,21766,1,0,0:0:0:0:
173,62,21860,2,0,B|229:47|266:89|266:89|307:37|389:57,1,206.250006294251,8|0,0:0|0:0,0:0:0:0:
462,71,22235,1,0,3:0:0:0:
407,218,22422,1,0,0:0:0:0:
407,218,22516,1,0,0:0:0:0:
407,218,22610,6,0,P|397:182|391:136,1,68.7500020980836,8|0,0:0|0:0,0:0:0:0:
337,298,22798,2,0,P|327:333|321:380,1,68.7500020980836
173,165,22985,6,0,B|256:152|228:210|333:194,1,137.500004196167,2|2,3:2|3:2,0:0:0:0:
138,17,23360,1,8,0:0:0:0:
194,247,23547,1,8,0:0:0:0:
362,101,23735,6,0,P|328:106|294:114,1,68.7500020980836,2|0,3:2|0:0,0:0:0:0:
127,233,23922,2,0,P|160:241|194:246,1,68.7500020980836,2|0,3:2|0:0,0:0:0:0:
92,85,24110,1,8,0:0:0:0:
148,315,24297,1,10,0:0:0:0:
366,197,24485,6,0,P|320:216|300:246,1,68.7500020980836,0|0,3:0|0:0,0:0:0:0:
218,362,24672,6,0,P|243:355|284:348,1,40.6249981403352,8|0,0:0|0:0,0:0:0:0:
399,120,24860,6,0,P|349:113|317:129,1,78.125,0|0,3:0|0:0,0:0:0:0:
101,300,25047,6,0,P|125:306|165:320,1,50,8|0,0:0|0:0,0:0:0:0:
69,66,25235,5,0,3:0:0:0:
64,93,25328,1,0,3:0:0:0:
116,177,25423,5,8,0:0:0:0:
121,204,25516,1,8,0:0:0:0:
214,58,25610,6,0,P|186:68|157:98,1,62.5,2|0,0:0|0:0,0:0:0:0:
49,268,25797,2,0,P|71:289|100:299,1,62.5,2|0,0:0|0:0,0:0:0:0:
245,189,25985,6,0,P|174:197|102:205,1,125,2|0,3:2|3:0,0:0:0:0:
214,58,26547,1,2,0:0:0:0:
308,69,26735,2,0,P|379:77|451:85,1,125,0|2,3:0|3:2,0:0:0:0:
432,82,27297,1,0,0:0:0:0:
378,208,27485,6,0,P|363:173|369:134,1,62.5,0|0,3:0|0:0,0:0:0:0:
491,263,27860,2,0,P|490:294|476:321,1,62.5,0|0,3:0|0:0,0:0:0:0:
295,356,28235,1,0,3:0:0:0:
315,256,28422,1,0,0:0:0:0:
415,276,28610,1,0,3:0:0:0:
395,376,28797,1,0,0:0:0:0:
195,336,28985,5,2,3:2:0:0:
89,270,29360,2,0,P|128:265|165:288,1,62.5,0|2,3:0|0:0,0:0:0:0:
195,336,29735,2,0,P|190:268|186:192,1,125,0|2,3:0|3:2,0:0:0:0:
181,76,30297,1,0,0:0:0:0:
119,138,30485,6,0,P|85:140|58:129,1,62.5,0|0,3:0|0:0,0:0:0:0:
181,76,30859,1,0,3:0:0:0:
187,211,31047,1,0,0:0:0:0:
243,138,31235,6,0,P|277:136|304:147,1,62.5,0|0,3:0|0:0,0:0:0:0:
368,216,31610,2,0,P|402:218|429:207,1,62.5,0|0,3:0|0:0,0:0:0:0:
505,28,31985,6,0,P|498:85|491:173,1,125,2|0,3:2|3:0,0:0:0:0:
463,356,32547,1,2,0:0:0:0:
396,305,32735,2,0,P|357:295|332:299,1,62.5,0|0,3:0|0:0,0:0:0:0:
243,340,33110,2,0,P|204:350|179:346,1,62.5,2|0,3:2|0:0,0:0:0:0:
106,274,33485,5,0,3:0:0:0:
69,376,33672,1,0,0:0:0:0:
65,203,33859,2,0,P|114:191|133:196,1,62.5,0|0,3:0|0:0,0:0:0:0:
227,264,34235,2,0,B|152:241|175:288|97:271,1,125,0|0,3:0|3:0,0:0:0:0:
284,208,34985,6,0,P|275:271|266:349,1,125,2|0,3:2|3:0,0:0:0:0:
364,192,35547,1,2,0:0:0:0:
309,131,35735,2,0,P|272:127|245:137,1,62.5,0|0,3:0|0:0,0:0:0:0:
381,270,36110,2,0,P|409:258|431:236,1,62.5,2|0,3:2|0:0,0:0:0:0:
417,69,36485,5,10,3:2:0:0:
424,99,36578,1,0,0:0:0:0:
371,162,36672,5,10,3:2:0:0:
364,192,36765,1,0,0:0:0:0:
300,248,36860,5,4,0:3:0:0:
280,245,36953,1,4,0:3:0:0:
259,243,37047,1,4,0:3:0:0:
238,240,37141,1,4,0:3:0:0:
210,258,37235,5,8,0:3:0:0:
195,259,37328,1,8,0:3:0:0:
180,261,37422,1,8,0:3:0:0:
163,263,37516,1,8,0:3:0:0:
147,251,37610,5,0,3:0:0:0:
136,250,37703,1,0,3:0:0:0:
125,248,37797,1,0,3:0:0:0:
113,247,37891,1,0,3:0:0:0:
28,269,37985,6,0,B|50:278|68:296|68:296|63:243|57:156,1,150,6|0,3:2|0:0,0:0:0:0:
107,132,38360,6,0,P|60:115|15:130,1,100,0|2,3:2|0:0,0:0:0:0:
20,359,38735,2,0,P|67:376|112:361,1,100,0|0,3:2|0:0,0:0:0:0:
238,240,39110,1,2,3:2:0:0:
68,296,39296,1,0,0:0:0:0:
198,330,39485,6,0,L|303:320,1,100,0|0,3:0|0:0,0:0:0:0:
280,149,39860,2,0,L|236:244,1,100,0|0,3:0|0:0,0:0:0:0:
395,310,40235,2,0,L|333:224,1,100,0|0,3:0|0:0,0:0:0:0:
143,253,40610,2,0,P|163:305|202:331,1,100,0|0,3:0|0:0,0:0:0:0:
167,171,40985,6,0,B|75:164|109:214|12:202|12:202|37:196|52:183,1,200,2|0,3:2|3:0,0:0:0:0:
240,113,41546,1,2,0:0:0:0:
240,113,41735,2,0,P|259:171|245:221,1,100,0|0,3:0|0:0,0:0:0:0:
132,348,42110,2,0,P|125:298|143:253,1,100,2|0,3:2|0:0,0:0:0:0:
252,207,42485,5,0,3:0:0:0:
143,253,42672,2,0,L|5:241,1,100,0|0,0:0|3:0,0:0:0:0:
203,124,43047,1,0,0:0:0:0:
203,124,43235,2,0,B|267:94|320:139|320:139|360:107|413:125,1,200,0|0,3:0|3:0,0:0:0:0:
378,211,43797,1,0,0:0:0:0:
492,295,43985,6,0,P|481:241|470:182,1,100,2|0,3:2|0:0,0:0:0:0:
357,335,44360,1,0,3:0:0:0:
378,211,44547,1,2,0:0:0:0:
263,321,44735,2,0,P|314:342|368:330,1,100,0|0,3:0|0:0,0:0:0:0:
472,197,45110,2,0,P|422:191|377:211,1,100,2|0,3:2|0:0,0:0:0:0:
263,321,45485,5,0,3:0:0:0:
437,287,45671,1,0,0:0:0:0:
249,222,45860,2,0,P|256:270|264:332,1,100,0|0,3:0|0:0,0:0:0:0:
106,375,46235,2,0,P|113:326|121:264,1,100,0|0,3:0|0:0,0:0:0:0:
221,116,46610,1,0,3:0:0:0:
249,222,46797,1,0,0:0:0:0:
364,91,46985,6,0,B|283:73|304:134|207:114,1,150,2|0,3:2|0:0,0:0:0:0:
137,95,47360,1,0,3:0:0:0:
241,27,47547,1,2,0:0:0:0:
161,179,47735,2,0,P|111:178|60:136,1,100,0|0,3:0|0:0,0:0:0:0:
221,116,48110,1,2,3:2:0:0:
175,292,48297,1,0,0:0:0:0:
161,179,48485,5,0,0:0:0:0:
393,282,48672,1,8,0:0:0:0:
235,381,48860,1,8,3:0:0:0:
239,344,48953,1,8,3:0:0:0:
258,312,49047,1,4,3:0:0:0:
476,262,49235,5,0,0:0:0:0:
320,171,49422,2,0,P|329:203|335:234,1,50,8|8,0:0|0:0,0:0:0:0:
394,87,49610,5,8,3:0:0:0:
350,63,49703,1,8,3:0:0:0:
300,61,49797,2,0,P|275:71|246:78,1,50,4|0,3:0|0:0,0:0:0:0:
102,33,49985,6,0,P|135:103|60:54,1,187.5,6|0,3:2|0:0,0:0:0:0:
24,29,50360,6,0,P|35:127|49:257,1,187.5,2|0,3:2|0:0,0:0:0:0:
202,277,50735,6,0,B|86:254|145:350|-27:314,1,187.5,2|0,3:2|0:0,0:0:0:0:
16,317,51110,1,0,3:0:0:0:
196,123,51297,2,0,P|189:156|186:199,1,62.5,2|0,0:0|0:0,0:0:0:0:
254,363,51485,5,0,3:0:0:0:
381,280,51672,1,2,0:0:0:0:
202,277,51860,6,0,B|268:264|268:264|314:290|314:290|380:280,1,187.5,0|0,3:0|0:0,0:0:0:0:
471,269,52235,1,2,3:2:0:0:
420,137,52422,2,0,P|417:174|414:209,1,62.5
457,50,52610,2,0,B|348:29|388:97|262:85,1,187.5,0|0,3:0|0:0,0:0:0:0:
202,15,52985,6,0,B|194:79|187:141|187:141|178:101|137:78,1,187.5,2|0,3:2|0:0,0:0:0:0:
36,148,53360,6,0,B|73:169|109:155|109:155|67:204|68:259,1,187.5,2|0,3:2|0:0,0:0:0:0:
221,336,53735,6,0,B|191:307|144:305|144:305|113:358|27:349,1,187.5,2|0,3:2|0:0,0:0:0:0:
28,346,54110,1,2,3:2:0:0:
243,188,54297,2,0,P|230:225|233:276,1,62.5,10|0,0:0|0:0,0:0:0:0:
329,358,54485,6,0,B|294:350|277:320|277:320|245:340|207:334,1,125,0|10,3:2|0:0,0:0:0:0:
266,107,54860,2,0,B|300:114|317:144|317:144|349:124|387:130,1,125,2|8,3:2|0:0,0:0:0:0:
489,299,55235,5,10,0:0:0:0:
459,307,55328,1,0,3:0:0:0:
428,305,55422,1,0,3:0:0:0:
399,292,55516,1,0,3:0:0:0:
377,270,55610,6,0,P|372:237|367:208,1,62.5,2|2,3:2|0:0,0:0:0:0:
509,62,55797,2,0,P|504:94|499:123,1,62.5,10|2,0:0|0:0,0:0:0:0:
329,41,55985,6,0,B|431:24|399:97|515:60,1,187.5,6|0,3:2|0:0,0:0:0:0:
266,107,56360,6,0,B|226:102|191:140|191:140|152:89|52:93,1,187.5,2|0,3:2|0:0,0:0:0:0:
196,27,56735,6,0,L|185:253,1,187.5,2|0,3:2|0:0,0:0:0:0:
180,308,57110,1,0,3:0:0:0:
326,256,57297,2,0,P|292:253|258:264,1,62.5,2|0,0:0|0:0,0:0:0:0:
180,308,57485,5,0,3:2:0:0:
382,354,57672,1,2,0:0:0:0:
370,185,57860,2,0,B|412:235|412:235|376:376,1,187.5,0|0,3:0|0:0,0:0:0:0:
373,382,58235,1,2,3:2:0:0:
326,256,58422,1,0,0:0:0:0:
504,211,58610,1,0,3:0:0:0:
382,354,58797,1,0,0:0:0:0:
251,201,58985,6,0,B|306:161|306:161|428:188,1,187.5,2|0,3:2|0:0,0:0:0:0:
199,279,59360,6,0,B|136:270|73:261|73:261|116:251|133:223,1,187.5,2|0,3:2|0:0,0:0:0:0:
269,319,59735,6,0,B|249:334|225:361|225:361|67:339,1,187.5,2|0,3:2|0:0,0:0:0:0:
24,329,60110,1,0,3:0:0:0:
112,93,60297,1,0,0:0:0:0:
112,93,60672,5,8,3:2:0:0:
350,384,60860,1,8,3:2:0:0:
400,12,61047,1,8,3:2:0:0:
62,177,61235,6,0,B|129:197|174:177|196:130|196:130|198:178|229:197,1,218.75,10|0,3:2|0:0,0:0:0:0:
426,283,61985,6,0,B|370:276|370:276|330:298|330:298|250:288,1,156.25,6|0,3:2|0:0,0:0:0:0:
216,187,62266,1,0,0:0:0:0:
229,190,62360,2,0,L|315:202,1,78.125,8|0,0:0|0:0,0:0:0:0:
196,274,62547,1,0,0:0:0:0:
178,119,62735,2,0,P|186:192|198:291,1,156.25,0|0,3:2|0:0,0:0:0:0:
264,119,63016,1,0,0:0:0:0:
261,104,63110,2,0,P|257:67|251:18,1,78.125,8|0,0:0|0:0,0:0:0:0:
307,201,63297,1,0,0:0:0:0:
453,190,63485,6,0,B|425:194|395:185|395:185|360:210|360:210|334:195|297:203,1,156.25,2|0,3:2|0:0,0:0:0:0:
225,279,63766,1,0,0:0:0:0:
248,296,63860,2,0,P|292:294|328:271,1,78.125,8|0,0:0|0:0,0:0:0:0:
431,108,64047,1,0,0:0:0:0:
448,263,64235,2,0,P|439:185|430:107,1,156.25,0|0,3:0|0:0,0:0:0:0:
432,28,64516,1,0,0:0:0:0:
439,14,64610,2,0,P|396:25|349:35,1,78.125,10|0,0:0|0:0,0:0:0:0:
291,93,64797,2,0,P|248:81|201:72,1,78.125,2|0,0:0|0:0,0:0:0:0:
85,36,64985,6,0,B|130:13|130:13|116:63|101:128,1,156.25,0|2,3:0|0:0,0:0:0:0:
75,197,65266,1,0,0:0:0:0:
71,212,65360,2,0,P|110:207|180:203,1,78.125,8|0,0:0|0:0,0:0:0:0:
245,260,65547,1,0,0:0:0:0:
390,216,65735,2,0,B|292:206|337:263|231:260,1,156.25,0|0,3:0|0:0,0:0:0:0:
163,211,66016,1,0,0:0:0:0:
148,204,66110,2,0,P|154:244|159:290,1,78.125,8|0,0:0|0:0,0:0:0:0:
220,125,66297,1,0,0:0:0:0:
144,99,66485,6,0,B|194:94|220:124|220:124|227:79|287:56,1,156.25,0|0,3:0|0:0,0:0:0:0:
341,37,66766,1,0,0:0:0:0:
356,38,66860,2,0,P|360:77|364:120,1,78.125,8|0,0:0|0:0,0:0:0:0:
212,203,67047,2,0,P|216:163|220:120,1,78.125,2|0,0:0|0:0,0:0:0:0:
425,184,67235,5,2,3:2:0:0:
378,205,67328,1,2,0:0:0:0:
327,198,67422,1,2,0:0:0:0:
289,164,67516,1,2,0:0:0:0:
212,203,67610,6,0,P|204:234|204:247,1,39.0625,10|2,0:2|0:0,0:0:0:0:
165,181,67703,6,0,P|173:211|180:223,1,39.0625,2|2,0:0|0:0,0:0:0:0:
114,188,67797,6,0,P|136:210|148:216,1,39.0625,2|2,0:2|0:0,0:0:0:0:
76,222,67891,6,0,P|107:230|120:230,1,39.0625,2|2,0:0|0:0,0:0:0:0:
33,292,67985,6,0,L|6:99,1,156.25,6|0,3:2|0:0,0:0:0:0:
42,52,68266,1,0,0:0:0:0:
53,41,68360,2,0,P|93:30|136:40,1,78.125,8|0,0:0|0:0,0:0:0:0:
218,125,68547,1,0,0:0:0:0:
209,276,68735,2,0,B|203:213|203:213|222:177|222:177|217:110,1,156.25,0|0,3:0|0:0,3:0:0:0:
213,43,69016,1,0,0:0:0:0:
212,27,69110,2,0,P|254:31|297:34,1,78.125,8|0,0:0|0:0,0:0:0:0:
373,106,69297,2,0,P|416:102|458:99,1,78.125
360,256,69485,6,0,B|268:238|301:292|200:275,1,156.25,2|0,3:2|0:0,0:0:0:0:
129,242,69767,1,0,0:0:0:0:
114,238,69860,2,0,P|120:280|124:325,1,78.125,8|0,0:0|0:0,0:0:0:0:
101,156,70047,1,0,0:0:0:0:
243,153,70235,2,0,B|195:150|171:179|171:179|139:146|87:158,1,156.25,0|0,3:0|0:0,0:0:0:0:
23,189,70516,1,0,0:0:0:0:
10,195,70610,2,0,P|13:151|16:101,1,78.125,10|0,0:0|0:0,0:0:0:0:
80,28,70797,1,2,0:0:0:0:
317,171,70985,6,0,P|269:166|233:144,1,78.125,0|0,3:0|0:0,0:0:0:0:
80,28,71172,2,0,P|127:32|163:54,1,78.125,0|0,3:0|0:0,0:0:0:0:
24,254,71360,6,0,B|26:194|26:194|12:169|12:169|15:115,1,140.625005364418,8|0,0:0|0:0,0:0:0:0:
166,295,71735,6,0,P|126:307|82:300,1,78.125,0|0,3:0|0:0,0:0:0:0:
316,254,71922,2,0,P|276:242|232:249,1,78.125,0|0,3:0|0:0,0:0:0:0:
423,324,72110,6,0,B|390:299|390:299|419:243|373:185,1,140.625005364418,8|0,0:0|0:0,0:0:0:0:
317,60,72485,6,0,B|303:95|303:95|314:134,1,78.125,0|0,3:0|0:0,0:0:0:0:
460,135,72672,2,0,B|473:99|473:99|462:60,1,78.125,0|0,3:0|0:0,0:0:0:0:
386,204,72860,1,8,0:0:0:0:
389,98,73047,1,0,0:0:0:0:
259,271,73235,6,0,P|300:273|348:277,1,78.125,6|0,3:2|0:0,0:0:0:0:
130,191,73422,1,2,3:2:0:0:
130,191,73516,1,0,3:0:0:0:
130,191,73610,2,0,P|171:188|219:185,1,78.125,10|8,0:0|0:0,0:0:0:0:
1,271,73797,2,0,P|42:273|90:277,1,78.125,2|0,3:2|3:0,0:0:0:0:
