osu file format v14

[General]
AudioFilename: audio.mp3
AudioLeadIn: 0
PreviewTime: 58461
Countdown: 0
SampleSet: Soft
StackLeniency: 0.3
Mode: 0
LetterboxInBreaks: 0
StoryFireInFront: 0
WidescreenStoryboard: 1

[Editor]
Bookmarks: 1100,14433,27766,41100,56100,59433,72766,86100,89433
DistanceSpacing: 1.7
BeatDivisor: 6
GridSize: 4
TimelineZoom: 1.8

[Metadata]
Title:Nirvana (TV Size)
TitleUnicode:ニルバナ (TV Size)
Artist:Tia
ArtistUnicode:Tia
Creator:Landox76
Version:Insane
Source:ノラガミ ARAGOTO
Tags:noragami season two 2 ending second 2nd ed ティア supercell ryo jpop j-pop pop anime japanese AntonOCE yato hiyori
BeatmapID:2959819
BeatmapSetID:1437993

[Difficulty]
HPDrainRate:6
CircleSize:4.5
OverallDifficulty:8
ApproachRate:8.8
SliderMultiplier:2.2
SliderTickRate:1

[Events]
//Background and Video events
0,0,"0a284899-8bf4-4921-9ccc-43117ea169d9.jpg",0,0
//Break Periods
//Storyboard Layer 0 (Background)
//Storyboard Layer 1 (Fail)
//Storyboard Layer 2 (Pass)
//Storyboard Layer 3 (Foreground)
//Storyboard Layer 4 (Overlay)
//Storyboard Sound Samples

[TimingPoints]
1100,416.6666666667,4,2,3,30,1,0
1100,-250,4,2,3,30,0,0
6934,-500,4,2,3,30,0,0
7767,-250,4,2,3,30,0,0
12767,-500,4,2,3,30,0,0
13184,-166.666666666667,4,2,3,30,0,0
14017,-500,4,2,3,30,0,0
14434,-125,4,2,3,50,0,0
15684,-166.666666666667,4,2,3,50,0,0
16100,-166.666666666667,4,2,3,50,0,0
16934,-125,4,2,3,50,0,0
19017,-166.666666666667,4,2,3,50,0,0
20267,-125,4,2,3,50,0,0
27350,-500,4,2,3,50,0,0
27767,-250,4,2,3,40,0,0
40267,-500,4,2,3,40,0,0
41100,-125,4,2,3,50,0,0
55684,-250,4,2,3,50,0,0
56100,-100,4,2,3,55,0,0
56934,-83.3333333333333,4,2,3,60,0,0
57767,-71.4285714285714,4,2,3,65,0,0
58461,-100,4,2,3,70,0,0
59433,-66.6666666666667,4,2,3,70,0,1
77489,-55.5555555555556,4,2,3,70,0,1
78184,-66.6666666666667,4,2,3,70,0,1
82767,-55.5555555555556,4,2,3,70,0,1
83184,-200,4,2,3,70,0,1
83600,-66.6666666666667,4,2,3,70,0,1
84017,-200,4,2,3,70,0,1
84434,-66.6666666666667,4,2,3,70,0,1
84850,-83.3333333333333,4,2,3,70,0,1
85267,-66.6666666666667,4,2,3,70,0,1
86100,-83.3333333333333,4,2,3,50,0,0
86934,-66.6666666666667,4,2,3,55,0,0
87767,-58.8235294117647,4,2,3,60,0,0
88600,-52.6315789473684,4,2,3,65,0,0
89017,-166.666666666667,4,2,3,35,0,0

[Colours]
Combo1 : 188,248,214
Combo2 : 250,203,152
Combo3 : 252,136,213
Combo4 : 176,203,252
Combo5 : 198,80,200
Combo6 : 133,69,209
Combo7 : 197,197,197
Combo8 : 255,59,59

[HitObjects]
33,133,1100,118,0,P|71:109|115:113,1,88,2|0,0:0|0:0,0:0:0:0:
118,119,1795,1,0,0:0:0:0:
118,119,1934,2,0,L|127:219,1,88,2|0,0:0|0:0,0:0:0:0:
125,206,2628,1,0,0:0:0:0:
72,256,2767,6,0,P|110:227|177:309,1,176,2|2,0:0|0:0,0:0:0:0:
178,304,4434,6,0,P|214:315|273:295,1,88,2|0,0:0|0:0,0:0:0:0:
269,309,5128,1,0,0:0:0:0:
269,309,5267,2,0,L|256:218,1,88,2|0,0:0|0:0,0:0:0:0:
257,222,5961,1,0,0:0:0:0:
198,178,6100,6,0,P|178:124|255:124,1,146.666666666667,2|0,0:0|0:0,0:0:0:0:
281,133,6934,2,2,B|307:86|328:135|279:133,1,73.3333333333333,0|0,0:1|0:1,0:1:0:0:
414,91,7767,70,0,P|393:113|387:166,2,58.6666666666667,2|0|0,0:0|0:0|0:0,0:0:0:0:
456,151,8600,2,0,P|477:173|483:226,2,58.6666666666667,2|0|0,0:0|0:0|0:0,0:0:0:0:
415,213,9434,2,0,P|372:216|335:193,1,88,2|0,0:0|0:0,0:0:0:0:
242,306,10267,6,0,P|212:315|195:341,1,58.6666666666667,2|0,0:0|0:0,0:0:0:0:
117,384,10684,2,0,P|124:353|110:325,1,58.6666666666667,2|0,0:0|0:0,0:0:0:0:
54,286,11100,2,0,L|64:195,1,88,2|0,0:0|0:0,0:0:0:0:
63,198,11795,1,2,0:0:0:0:
24,135,11934,6,0,P|9:131|22:136,1,58.6666666666667,2|0,0:0|0:0,0:0:0:0:
178,54,12350,2,0,P|214:34|241:49,1,58.6666666666667,2|0,0:0|0:0,0:0:0:0:
283,88,12767,2,0,L|280:119,1,29.3333333333333,2|0,0:0|0:0,0:0:0:0:
259,169,13184,6,0,L|241:140,4,21.9999993286133,8|0|0|0|0,0:0|0:0|0:0|0:0|0:0,0:0:0:0:
342,183,13600,69,8,0:2:0:0:
286,247,13739,1,0,0:0:0:0:
326,302,13878,1,0,3:0:0:0:
311,330,14017,2,0,P|314:350|317:364,1,29.3333333333333,0|0,3:0|0:0,0:0:0:0:
322,377,14434,6,0,P|347:305|187:186,1,293.333333333333,6|0,3:2|0:0,0:0:0:0:
143,134,15267,2,0,P|116:97|149:17,1,117.333333333333,10|0,0:2|0:0,0:0:0:0:
273,69,15684,2,0,P|282:44|280:13,1,43.9999986572266,2|0,0:3|0:0,0:0:0:0:
211,110,15961,5,0,0:0:0:0:
203,181,16100,2,0,B|224:209|213:238|213:238|203:268|232:304,1,131.99999597168,2|0,3:2|3:0,0:0:0:0:
194,173,16795,5,2,0:0:0:0:
125,154,16934,2,0,P|103:135|112:74,1,58.6666666666667,10|0,0:0|0:0,0:0:0:0:
246,0,17211,1,2,0:0:0:0:
292,56,17350,2,0,P|294:84|244:121,1,58.6666666666667,2|0,0:0|0:0,0:0:0:0:
164,97,17628,1,0,3:2:0:0:
164,97,17767,70,0,P|229:82|382:237,1,293.333333333333,2|0,3:2|3:0,0:0:0:0:
437,272,18600,2,0,P|405:319|349:328,1,117.333333333333,10|0,0:2|0:0,0:0:0:0:
511,285,19017,2,0,P|502:239|485:226,1,43.9999986572266,2|0,0:3|0:0,0:0:0:0:
451,201,19295,5,8,0:0:0:0:
381,221,19434,2,0,B|340:210|317:231|317:231|293:251|255:241,1,131.99999597168,2|0,0:0|3:3,0:0:0:0:
390,233,20128,5,0,0:0:0:0:
395,150,20267,2,0,L|377:1,1,117.333333333333,10|0,0:0|0:0,0:0:0:0:
279,0,20684,6,0,L|312:9,5,29.3333333333333,2|0|0|0|0|0,0:3|0:3|0:3|0:3|0:3|0:3,0:3:0:0:
267,0,21100,70,0,P|280:69|262:136,1,117.333333333333,6|0,3:2|0:0,0:0:0:0:
225,171,21517,2,0,P|214:199|225:241,1,58.6666666666667,2|0,0:3|0:0,0:0:0:0:
312,330,21795,1,0,3:0:0:0:
321,307,21934,2,0,P|277:259|157:272,1,176,10|0,0:0|3:0,0:0:0:0:
119,311,22628,5,10,0:0:0:0:
140,196,22767,2,0,B|131:136|81:176|72:106,1,117.333333333333,2|0,0:0|0:0,0:0:0:0:
3,87,23184,2,0,P|29:49|51:41,1,58.6666666666667,2|0,3:3|0:0,0:0:0:0:
226,65,23461,5,2,0:0:0:0:
241,90,23600,2,0,L|226:227,1,117.333333333333,10|0,0:0|0:0,0:0:0:0:
279,260,24017,2,0,L|290:333,1,58.6666666666667,2|0,0:0|0:0,0:0:0:0:
299,384,24295,1,2,0:0:0:0:
205,280,24434,6,0,P|152:271|144:324,1,117.333333333333,2|0,3:2|0:0,0:0:0:0:
259,327,24850,2,0,L|287:318,5,29.3333333333333,2|0|2|0|2|0,0:3|0:0|0:3|0:0|3:3|2:2,0:0:0:0:
251,337,25267,2,0,P|239:270|344:236,1,176,10|0,2:2|0:0,0:0:0:0:
448,291,25961,69,0,3:0:0:0:
468,284,26100,2,0,P|480:257|469:222,1,58.6666666666667,2|0,0:0|0:0,0:0:0:0:
403,205,26378,1,2,3:2:0:0:
393,185,26517,2,0,P|403:157|436:140,1,58.6666666666667,2|0,0:0|0:0,0:0:0:0:
314,246,26795,1,2,3:2:0:0:
323,226,26934,2,0,P|312:198|236:162,1,117.333333333333,10|0,0:2|0:0,0:0:0:0:
180,209,27350,6,0,P|163:223|145:227,1,29.3333333333333
237,161,27767,6,0,L|225:75,1,58.6666666666667,4|0,3:2|0:0,0:0:0:0:
8,77,28461,1,2,0:0:0:0:
8,77,28600,2,0,L|-4:163,1,58.6666666666667,2|0,0:0|0:0,0:0:0:0:
45,197,29017,2,0,L|55:271,1,58.6666666666667,2|0,0:0|0:0,0:0:0:0:
151,114,29434,6,0,P|211:94|274:161,1,146.666666666667,2|0,0:0|0:0,0:0:0:0:
270,143,30267,1,2,0:0:0:0:
397,155,30545,69,2,0:0:0:0:
353,215,30684,1,2,0:3:0:0:
492,156,30961,5,2,0:3:0:0:
459,95,31100,2,0,B|448:40|421:75|409:21,1,88,2|0,0:0|0:0,0:0:0:0:
330,163,31795,2,0,P|333:188|361:220,1,58.6666666666667,2|0,0:0|0:0,0:0:0:0:
307,268,32211,2,0,P|329:282|372:285,1,58.6666666666667,2|0,0:0|0:0,0:0:0:0:
418,240,32628,5,2,0:0:0:0:
330,163,32767,2,0,B|308:116|254:110|254:110|240:137|213:142,1,146.666666666667,2|0,0:0|0:0,0:0:0:0:
217,140,33600,1,0,0:0:0:0:
222,146,34434,6,0,L|211:208,2,58.6666666666667,2|0|0,0:2|0:0|0:0,0:0:0:0:
83,192,35267,2,0,L|97:258,2,58.6666666666667,2|0|0,0:2|0:0|0:0,0:0:0:0:
211,76,36100,70,0,P|183:53|148:55,1,58.6666666666667,2|0,0:0|0:0,0:0:0:0:
97,4,36517,2,0,L|85:85,1,58.6666666666667,2|0,0:0|0:0,0:0:0:0:
0,132,36934,2,0,P|0:147|6:167,1,29.3333333333333,2|0,0:0|0:0,0:0:0:0:
34,223,37211,1,2,0:0:0:0:
106,224,37350,2,0,P|106:239|100:259,1,29.3333333333333,2|0,0:0|0:0,0:0:0:0:
68,314,37627,1,2,0:0:0:0:
191,384,37767,6,0,P|178:340|189:310,1,58.6666666666667,2|0,0:0|0:0,0:0:0:0:
223,241,38184,2,0,L|230:274,1,29.3333333333333,2|0,0:0|0:0,0:0:0:0:
253,342,38461,1,2,0:0:0:0:
344,185,38600,6,0,B|370:179|370:179|395:199,1,58.6666666666667,2|2,0:0|0:0,0:0:0:0:
379,272,39017,2,0,L|350:252,1,29.3333333333333,2|0,0:0|0:0,0:0:0:0:
388,112,39295,1,2,0:0:0:0:
355,256,39434,6,0,L|346:298,1,29.3333333333333,2|0,0:0|0:0,0:0:0:0:
357,262,39711,2,0,L|348:304,1,29.3333333333333,2|0,0:0|0:0,0:0:0:0:
285,259,39989,69,2,0:0:0:0:
421,294,40128,1,2,0:0:0:0:
270,252,40267,2,2,B|223:234|269:201|271:255,1,73.3333333333333,2|2,2:3|0:3,0:3:0:0:
105,206,41100,5,4,3:2:0:0:
114,169,41239,1,2,0:0:0:0:
36,194,41378,1,2,0:0:0:0:
107,183,41517,2,0,L|186:172,1,58.6666666666667,2|0,0:0|0:0,0:0:0:0:
236,163,41795,1,2,0:0:0:0:
203,54,41934,6,0,P|189:73|191:115,1,58.6666666666667,10|0,2:2|0:0,0:0:0:0:
236,163,42211,1,2,0:0:0:0:
256,177,42350,2,0,P|270:196|268:238,1,58.6666666666667,2|0,0:0|0:0,0:0:0:0:
230,327,42628,1,2,0:0:0:0:
187,258,42767,6,0,P|230:245|296:282,1,117.333333333333,2|0,3:2|0:0,0:0:0:0:
361,254,43184,2,0,P|365:269|356:314,1,58.6666666666667,2|0,3:2|0:0,0:0:0:0:
316,368,43461,1,0,0:0:0:0:
441,384,43600,70,0,B|423:366|416:347|434:325|434:325|468:275,1,117.333333333333,10|0,0:0|0:0,0:0:0:0:
485,219,44017,2,0,L|497:301,2,58.6666666666667,0|0|2,0:0|0:0|0:0,0:0:0:0:
341,133,44434,5,2,3:2:0:0:
354,164,44572,1,2,0:0:0:0:
337,193,44711,1,2,0:0:0:0:
347,123,44850,2,0,L|333:45,1,58.6666666666667,2|0,0:0|0:0,0:0:0:0:
424,186,45128,5,2,0:0:0:0:
270,150,45267,2,0,P|224:150|185:210,1,117.333333333333,10|0,0:0|0:0,0:0:0:0:
245,306,45684,2,0,P|251:269|242:243,1,58.6666666666667,2|0,0:0|0:0,0:0:0:0:
181,278,45961,1,2,0:0:0:0:
188,384,46100,6,0,L|158:257,1,117.333333333333,2|0,3:2|0:0,0:0:0:0:
89,262,46517,2,0,P|99:230|125:208,1,58.6666666666667,2|0,3:2|0:0,0:0:0:0:
186,205,46795,1,2,0:0:0:0:
101,141,46934,70,0,B|68:84|41:134|5:71,1,117.333333333333,10|0,0:0|0:0,0:0:0:0:
130,0,47350,2,0,P|132:21|111:62,2,58.6666666666667,0|0|2,0:0|0:0|0:0,0:0:0:0:
339,184,47767,5,2,3:2:0:0:
305,91,47906,1,2,0:0:0:0:
192,74,48045,1,2,0:0:0:0:
237,133,48184,2,0,P|294:120|364:115,1,117.333333333333,2|0,0:0|0:0,0:0:0:0:
476,63,48600,6,0,P|490:35|486:1,1,58.6666666666667,10|0,0:0|0:0,0:0:0:0:
413,24,48878,1,0,0:0:0:0:
352,115,49017,2,0,P|371:135|375:171,1,58.6666666666667,2|0,0:0|0:0,0:0:0:0:
339,252,49295,1,2,0:0:0:0:
225,112,49434,6,0,B|219:143|194:155|172:151|172:151|105:137,1,117.333333333333,2|0,3:2|0:0,0:0:0:0:
0,31,49850,2,0,P|28:15|58:21,1,58.6666666666667,2|0,3:2|0:0,0:0:0:0:
156,49,50128,1,0,0:0:0:0:
129,142,50267,2,0,B|158:208|111:193|138:256,1,117.333333333333,10|0,0:0|0:0,0:0:0:0:
155,320,50684,70,0,P|149:283|86:303,1,117.333333333333
140,384,51100,6,0,P|156:339|282:313,1,176,2|0,3:2|0:0,0:0:0:0:
447,368,51795,1,0,0:0:0:0:
463,383,51934,2,0,P|497:356|486:283,1,117.333333333333,10|0,0:0|0:0,0:0:0:0:
414,247,52350,6,0,P|395:219|394:189,1,58.6666666666667,2|0,0:0|0:0,0:0:0:0:
451,132,52628,1,0,0:0:0:0:
451,132,52767,2,0,P|429:217|414:303,1,176,2|0,3:2|3:2,0:0:0:0:
446,120,53461,5,2,0:0:0:0:
385,74,53600,2,0,P|369:45|434:23,1,117.333333333333,10|0,0:0|0:0,0:0:0:0:
490,83,54017,2,0,B|454:130|500:143|467:194,1,117.333333333333
455,266,54434,70,0,P|445:211|391:197,1,117.333333333333,2|0,3:2|0:0,0:0:0:0:
251,253,54850,2,0,P|269:276|296:289,1,58.6666666666667,2|0,0:0|0:0,0:0:0:0:
283,158,55128,5,2,0:0:0:0:
314,222,55267,2,0,P|243:218|215:171,1,117.333333333333,8|0,0:0|0:0,0:0:0:0:
148,211,55684,2,0,P|116:227|99:259,1,58.6666666666667,2|0,0:0|0:0,0:0:0:0:
21,174,56100,54,0,B|32:216|71:217|92:215|92:215|162:209,1,146.666666666667,4|0,3:2|0:0,0:0:0:0:
219,185,56517,1,8,0:0:0:0:
70,111,56934,6,0,B|114:109|141:149|141:149|170:194|220:184,1,175.999994628906,4|0,3:2|0:0,0:0:0:0:
321,118,57350,1,8,0:0:0:0:
0,352,57767,6,0,B|53:350|82:308|82:308|114:252|175:254,1,205.333327067058,4|0,3:2|0:0,0:0:0:0:
356,333,58184,1,8,0:0:0:0:
162,333,58461,69,2,0:0:0:0:
135,345,58600,2,0,P|128:298|225:299,2,146.666666666667,2|2|0,0:0|0:0|0:0,0:0:0:0:
245,362,59295,1,2,0:0:0:0:
268,334,59434,6,2,B|303:281|274:226|274:226|246:166|274:121,1,220.000008392334,6|2,3:2|0:0,0:0:0:0:
451,208,59850,2,0,P|424:242|341:244,1,110.000004196167,8|0,0:0|0:0,0:0:0:0:
341,171,60128,69,2,0:0:0:0:
381,179,60267,2,0,P|404:101|285:27,1,220.000008392334,2|2,3:2|0:0,0:0:0:0:
271,124,60684,2,0,P|252:148|166:163,1,110.000004196167,8|0,0:0|0:0,0:0:0:0:
109,64,60961,1,2,0:0:0:0:
126,35,61100,22,0,B|149:173|149:173|155:211|142:233|95:241,1,220.000008392334,2|0,3:2|0:0,0:0:0:0:
0,143,61517,2,0,P|44:125|68:179,1,110.000004196167,8|0,0:0|0:0,0:0:0:0:
19,326,61795,5,2,0:0:0:0:
34,297,61934,2,0,P|157:250|248:305,1,220.000008392334,0|2,3:2|0:0,0:0:0:0:
252,384,62350,2,0,B|217:321|251:275|251:275|312:257|312:200,1,220.000008392334,8|0,0:0|0:0,0:0:0:0:
220,53,62767,70,0,P|277:171|454:76,1,330.000012588501,2|8,3:2|0:0,0:0:0:0:
130,43,63461,1,2,0:0:0:0:
138,67,63600,2,0,B|78:106|141:115|55:179,1,110.000004196167,2|0,3:2|0:0,3:0:0:0:
137,214,63878,1,2,0:0:0:0:
133,240,64017,2,0,B|193:279|130:288|216:352,1,110.000004196167,8|0,0:0|0:0,0:0:0:0:
11,371,64295,21,2,0:0:0:0:
23,346,64434,2,0,B|71:312|127:346|127:346|175:374|234:350,1,220.000008392334,2|0,3:2|0:0,0:0:0:0:
313,197,64850,2,0,P|263:217|244:267,1,110.000004196167,8|0,0:0|0:0,0:0:0:0:
391,309,65128,5,2,0:0:0:0:
421,307,65267,2,0,P|453:228|348:135,1,220.000008392334,2|0,3:2|0:0,0:0:0:0:
313,197,65684,1,10,0:0:0:0:
214,87,65823,2,0,B|144:67|144:67|168:95,1,110.000004196167
271,264,66100,70,0,B|291:97|291:97|282:133|264:145,1,220.000008392334,6|0,3:2|0:0,0:0:0:0:
188,265,66517,2,0,P|184:310|121:342,1,110.000004196167,8|0,0:0|0:0,0:0:0:0:
0,356,66795,21,2,0:0:0:0:
36,384,66934,2,0,P|34:336|54:277,1,110.000004196167,2|0,3:2|0:0,0:0:0:0:
90,212,67211,2,0,B|63:159|90:108|90:108|123:46|81:2,1,220.000008392334,2|0,0:0|0:0,0:0:0:0:
0,11,67628,6,0,B|-6:62|30:87|30:87|76:61|171:57|219:144|193:215,1,330.000012588501,2|0,0:0|0:0,0:0:0:0:
198,191,68184,1,8,0:0:0:0:
108,168,68322,69,2,0:0:0:0:
216,118,68461,1,2,0:0:0:0:
311,192,68600,22,0,B|360:161|420:218|390:252|484:279|504:230,1,220.000008392334,2|0,3:2|0:0,0:0:0:0:
458,44,69017,2,0,B|427:93|484:153|518:123|545:217|496:237,1,220.000008392334,8|2,2:2|3:2,0:0:0:0:
311,192,69434,6,0,P|246:188|264:319,1,220.000008392334,6|0,3:2|0:0,0:0:0:0:
246,326,69850,2,0,P|203:291|195:231,1,110.000004196167,8|0,0:0|0:0,0:0:0:0:
279,254,70128,69,0,3:2:0:0:
320,313,70267,22,0,P|367:362|463:251,1,220.000008392334,4|0,3:2|0:0,0:0:0:0:
481,276,70684,2,0,P|475:334|420:377,1,110.000004196167,8|0,0:0|0:0,0:0:0:0:
396,280,70961,5,0,3:2:0:0:
396,280,71100,70,0,L|272:68,1,220.000008392334,4|0,3:2|0:0,0:0:0:0:
289,345,71517,22,0,P|292:192|273:111,1,220.000008392334,4|0,3:2|0:0,0:0:0:0:
196,355,71934,6,0,P|270:248|267:148,1,220.000008392334,4|2,3:2|0:0,0:0:0:0:
123,297,72350,69,8,0:0:0:0:
183,256,72489,1,8,0:3:0:0:
172,182,72628,1,4,0:3:0:0:
36,281,72767,22,0,P|116:274|164:413,1,220.000008392334,4|0,3:2|0:0,0:0:0:0:
256,270,73184,2,0,P|283:235|358:229,1,110.000004196167,8|0,0:0|0:0,0:0:0:0:
443,265,73461,5,2,0:0:0:0:
389,177,73600,2,0,P|371:232|387:327,1,110.000004196167,2|0,3:2|0:0,0:0:0:0:
465,352,73878,2,0,P|460:228|276:146,1,330.000012588501,2|0,0:0|0:0,0:0:0:0:
164,231,74434,70,0,B|214:199|192:135|192:135|175:86|221:34,1,220.000008392334,2|0,3:2|0:0,0:0:0:0:
292,142,74850,2,0,P|237:138|194:199,1,110.000004196167,8|0,0:0|0:0,0:0:0:0:
49,384,75128,21,2,0:0:0:0:
31,369,75267,2,0,B|2:307|54:325|10:250,1,110.000004196167,2|0,3:2|0:0,0:0:0:0:
173,23,75545,2,0,B|150:141|94:61|79:214,1,220.000008392334,2|0,2:2|0:0,0:0:0:0:
16,132,75961,5,2,3:2:0:0:
38,60,76100,2,0,P|129:41|227:148,1,220.000008392334,6|0,3:2|0:0,0:0:0:0:
286,77,76517,70,0,P|331:60|323:4,1,110.000004196167,8|0,0:0|0:0,0:0:0:0:
256,10,76795,1,0,0:0:0:0:
396,92,76934,1,10,0:0:0:0:
469,114,77211,22,0,B|472:166|426:187|423:181|420:175|377:192|379:241,1,165.000006294251,4|0,3:2|0:0,0:0:0:0:
447,268,77489,6,0,B|467:209|423:163|417:168|410:174|370:127|396:91,1,197.99999395752,4|0,3:2|0:0,0:0:0:0:
448,48,77767,70,0,P|413:144|405:350,1,263.99999194336,4|0,3:2|0:0,0:0:0:0:
312,364,78184,2,0,P|286:312|234:305,1,110.000004196167,8|0,0:0|0:0,0:0:0:0:
186,360,78461,1,0,0:0:0:0:
216,384,78600,22,0,B|246:369|257:346|251:314|251:314|240:253|240:253|234:209|266:189|290:188,1,220.000008392334,2|0,3:2|0:0,0:0:0:0:
158,56,79017,2,0,P|207:103|101:157,1,220.000008392334,10|0,0:0|0:0,0:0:0:0:
18,99,79434,6,0,P|104:51|301:171,1,330.000012588501,4|8,3:2|0:0,0:0:0:0:
367,384,80128,69,2,0:0:0:0:
337,376,80267,2,0,P|333:302|376:287,1,110.000004196167,2|0,3:2|0:0,0:0:0:0:
457,220,80545,2,0,P|528:173|460:73,1,220.000008392334,2|0,0:0|0:0,0:0:0:0:
293,149,80961,2,0,B|378:-2|378:-2|401:-29|441:-27|475:11|451:56|451:56|393:168,1,440.000016784669,2|8,0:0|0:0,0:0:0:0:
457,220,81656,21,2,0:0:0:0:
393,167,81795,1,2,0:0:0:0:
293,245,81934,2,0,B|244:264|200:217|200:217|158:166|90:201,1,220.000008392334,2|0,3:2|0:0,0:0:0:0:
75,304,82350,2,0,P|112:316|127:250,1,110.000004196167,8|0,0:0|0:0,0:0:0:0:
35,242,82628,1,2,0:0:0:0:
195,346,82767,6,0,B|235:267|196:220|196:220|151:162|208:101,1,263.99999194336,2|0,3:2|3:2,0:0:0:0:
314,11,83184,1,12,0:0:0:0:
385,384,83600,70,0,B|337:327|361:283|361:283|388:229|335:186,1,220.000008392334,2|0,3:2|3:2,0:0:0:0:
249,168,84017,1,12,0:0:0:0:
325,22,84295,21,2,0:0:0:0:
423,90,84434,2,0,P|362:168|241:163,1,220.000008392334,6|0,3:2|0:0,0:0:0:0:
107,231,84850,2,0,P|60:267|53:302,1,87.9999973144532,4|0,3:2|0:0,0:0:0:0:
109,384,85128,1,0,0:2:0:0:
109,384,85267,6,0,P|91:272|45:135,1,220.000008392334,4|0,3:2|0:0,0:0:0:0:
28,105,85684,1,8,0:0:0:0:
472,192,86100,6,0,B|470:218|448:239|424:235|424:235|312:202,1,175.999994628906,4|0,3:2|0:0,0:0:0:0:
255,182,86517,1,8,0:0:0:0:
439,98,86934,6,0,B|371:79|345:135|345:135|324:183|248:183,1,220.000008392334,4|0,3:2|0:0,0:0:0:0:
175,138,87350,1,8,0:0:0:0:
512,341,87767,54,0,B|439:350|409:286|409:286|385:231|300:247,1,249.333338088989,4|0,3:2|0:0,0:0:0:0:
167,307,88184,1,8,0:0:0:0:
512,246,88600,22,0,P|448:227|177:244,1,278.666659225464,4|0,3:2|0:0,0:0:0:0:
75,249,89017,2,0,P|45:238|25:222,2,43.9999986572266,8|0|0,0:0|0:0|0:0,0:0:0:0:
