osu file format v14

[General]
AudioFilename: audio.mp3
AudioLeadIn: 0
PreviewTime: 73546
Countdown: 0
SampleSet: Soft
StackLeniency: 0.5
Mode: 0
LetterboxInBreaks: 0
WidescreenStoryboard: 0

[Editor]
DistanceSpacing: 1.2
BeatDivisor: 4
GridSize: 4
TimelineZoom: 1.9

[Metadata]
Title:Love Me Gimme
TitleUnicode:Love Me Gimme
Artist:Tia
ArtistUnicode:Tia
Creator:O-Moei
Version:Insane
Source:うーさーのその日暮らし
Tags:ryo supercell chelly koeda ending song full version wooser no sono higurashi ラブミーギミー time_capsule eclipselotus [_arika_] modem grim_rapper
BeatmapID:960346
BeatmapSetID:447272

[Difficulty]
HPDrainRate:6
CircleSize:4
OverallDifficulty:7.5
ApproachRate:9
SliderMultiplier:1.4
SliderTickRate:1

[Events]
//Background and Video events
0,0,"BG.jpg",0,0
//Break Periods
//Storyboard Layer 0 (Background)
//Storyboard Layer 1 (Fail)
//Storyboard Layer 2 (Pass)
//Storyboard Layer 3 (Foreground)
//Storyboard Sound Samples

[TimingPoints]
781,319.148936170213,4,2,1,60,1,0
2057,319.148936170213,4,2,1,60,1,0
2057,-133.333333333333,4,2,1,60,0,0
7163,-79.9999999999999,4,2,1,80,0,0
17376,-100,4,2,1,60,0,0
22482,-79.9999999999999,4,2,1,60,0,0
53120,-100,4,2,1,60,0,0
68439,-100,4,2,1,70,0,0
72987,-100,4,2,1,70,0,0
73546,-79.9999999999999,4,2,1,80,0,1
83759,-83.3333333333333,4,2,1,80,0,0
84078,-83.3333333333333,4,2,1,80,0,1
93971,-83.3333333333333,4,2,1,80,0,0
104185,-125,4,2,1,60,0,0
139929,-100,4,2,1,60,0,0
159717,-200,4,2,1,70,0,0
159796,-200,4,2,1,5,0,0
160354,-83.3333333333333,4,2,1,80,0,1
170567,-83.3333333333333,4,2,1,80,0,0
170886,-83.3333333333333,4,2,1,80,0,1
180780,-200,4,2,1,40,0,0
189717,-125,4,2,1,60,0,0
190993,-83.3333333333333,4,2,1,80,0,0
202483,-125,4,2,1,40,0,0
212695,-200,4,2,1,40,0,0
221791,-100,4,2,1,80,0,0
222908,-83.3333333333333,4,2,1,80,0,1
233120,-83.3333333333333,4,2,1,80,0,0
233439,-83.3333333333333,4,2,1,80,0,1
243333,-83.3333333333333,4,2,1,80,0,0
252273,402.684563758389,4,2,1,70,1,0
252474,288.461538461538,4,2,1,70,1,0
252618,340.909090909091,4,2,1,60,1,0
252788,392.156862745098,4,2,1,60,1,0
252984,465.116279069767,4,2,1,50,1,0
253216,483.870967741935,4,2,1,50,1,0
253457,606.060606060606,4,2,1,40,1,0
253760,588.235294117647,4,2,1,40,1,0
254055,750,4,2,1,40,1,0
254805,800,4,2,1,80,1,0
255605,845.070422535211,4,2,1,80,1,0
256450,967.741935483871,4,2,1,80,1,0
257417,1403.50877192982,4,2,1,80,1,0
258819,784.313725490196,4,2,1,80,1,0
259603,600,4,2,1,80,1,0
260203,504.201680672269,4,2,1,80,1,0
260707,480,4,2,1,80,1,0
261187,600,4,2,1,80,1,0
261787,533.333333333333,4,2,1,80,1,0
262320,960,4,2,1,80,1,0
263280,1058.20105820106,4,2,1,80,1,0
264338,1034.48275862069,4,2,1,80,1,0
265113,991.735537190083,4,2,1,80,1,0
266104,916.030534351145,4,2,1,80,1,0
267020,697.67441860465,4,2,1,80,1,0

[Colours]
Combo1 : 255,198,255
Combo2 : 158,33,133
Combo3 : 255,215,215
Combo4 : 255,128,192

[HitObjects]
256,152,2057,5,0,0:0:0:0:
256,298,2376,1,0,0:0:0:0:
330,172,2695,2,0,P|313:98|242:72,1,157.500006008148
179,110,3333,2,0,L|175:162,1,52.5000020027161
113,202,3652,2,0,L|116:254,1,52.5000020027161
156,316,3971,1,0,0:0:0:0:
156,316,4291,1,0,0:0:0:0:
223,287,4450,6,0,B|243:246|243:246|234:187,1,105.000004005432
181,135,4929,1,0,0:0:0:0:
181,135,5088,2,0,B|161:176|161:176|169:234,1,105.000004005432
223,287,5567,1,0,0:0:0:0:
365,153,5727,1,0,0:0:0:0:
365,153,5807,1,0,0:0:0:0:
365,153,5886,1,0,0:0:0:0:
147,113,6205,1,0,0:0:0:0:
365,153,6525,5,0,0:0:0:0:
256,133,6685,1,0,0:0:0:0:
147,113,6844,1,0,0:0:0:0:
255,304,7163,6,0,B|247:257|247:257|263:180|263:180|256:133,1,175
159,175,7642,1,0,0:0:0:0:
347,253,7801,1,0,0:0:0:0:
239,47,7961,2,0,L|256:133,1,87.5
229,263,8280,6,0,P|195:188|256:133,1,175
359,150,8759,1,0,0:0:0:0:
375,254,8918,1,0,0:0:0:0:
282,301,9078,1,0,0:0:0:0:
210,222,9237,2,0,B|223:90|223:90|199:125,1,175
145,274,9716,6,0,P|222:307|286:253,1,175
199,125,10195,1,0,0:0:0:0:
210,222,10354,1,0,0:0:0:0:
98,95,10514,1,0,0:0:0:0:
109,201,10674,1,0,0:0:0:0:
296,66,10833,1,0,0:0:0:0:
319,267,11152,5,0,0:0:0:0:
296,66,11312,1,0,0:0:0:0:
433,216,11471,1,0,0:0:0:0:
235,175,11631,1,0,0:0:0:0:
417,91,11791,1,0,0:0:0:0:
417,91,11870,1,0,0:0:0:0:
417,91,11950,1,0,0:0:0:0:
319,267,12110,1,0,0:0:0:0:
235,175,12269,1,0,0:0:0:0:
235,175,12588,6,0,B|248:307|248:307|224:272,1,175
154,192,13067,1,0,0:0:0:0:
203,99,13227,1,0,0:0:0:0:
302,130,13386,6,0,L|319:304,1,175
411,354,13865,1,0,0:0:0:0:
487,282,14025,1,0,0:0:0:0:
442,188,14184,1,0,0:0:0:0:
337,200,14344,2,0,B|200:213|200:213|230:190,1,175
369,122,14822,6,0,P|421:186|388:262,1,175
388,262,15301,1,0,0:0:0:0:
230,190,15461,1,0,0:0:0:0:
337,200,15620,1,0,0:0:0:0:
274,287,15780,1,0,0:0:0:0:
292,102,15939,1,0,0:0:0:0:
272,298,16258,5,0,0:0:0:0:
292,102,16418,1,0,0:0:0:0:
272,298,16578,1,0,0:0:0:0:
404,151,16737,1,0,0:0:0:0:
211,194,16896,1,0,0:0:0:0:
392,272,17056,1,0,0:0:0:0:
392,270,17376,6,0,P|399:236|392:203,1,70
305,250,17695,2,0,P|297:283|305:317,1,70
207,317,18014,2,0,P|214:283|206:249,1,70
119,203,18333,2,0,P|111:236|118:270,1,70
261,168,18652,6,0,L|191:162,1,70
174,65,18971,2,0,L|243:70,1,70
397,127,19291,2,0,L|328:122,1,70
414,224,19610,2,0,L|345:219,1,70
256,264,19929,6,0,B|263:224|263:224|249:164|249:164|256:126,1,140
167,220,20567,1,0,0:0:0:0:
350,153,20886,1,0,0:0:0:0:
173,90,21205,6,0,L|190:230,1,140
190,230,21844,2,0,L|207:231,6,17.5
231,234,22163,2,0,P|281:243|326:219,1,105
359,178,22482,6,0,P|389:146|431:136,1,87.5
440,240,22801,1,0,0:0:0:0:
265,164,22961,1,0,0:0:0:0:
265,164,23041,1,0,0:0:0:0:
265,164,23120,1,0,0:0:0:0:
352,299,23280,1,0,0:0:0:0:
376,121,23439,1,0,0:0:0:0:
351,313,23599,1,0,0:0:0:0:
135,254,23759,6,0,L|222:259,1,87.5
183,357,24078,1,0,0:0:0:0:
120,154,24237,1,0,0:0:0:0:
120,154,24317,1,0,0:0:0:0:
120,154,24397,1,0,0:0:0:0:
67,297,24557,1,0,0:0:0:0:
256,248,24716,2,0,L|169:243,1,87.5
280,327,25035,6,0,P|333:261|305:183,1,175
211,135,25514,1,0,0:0:0:0:
175,268,25674,2,0,P|219:270|256:248,1,87.5
385,162,25993,2,0,P|341:160|305:183,1,87.5
371,340,26312,5,0,0:0:0:0:
371,340,26471,2,0,L|370:253,1,87.5
470,218,26791,1,0,0:0:0:0:
383,74,26950,2,0,L|384:161,1,87.5
273,281,27269,1,0,0:0:0:0:
271,175,27429,1,0,0:0:0:0:
181,311,27588,6,0,P|195:351|229:377,1,87.5
273,281,27908,1,0,0:0:0:0:
193,213,28067,2,0,L|105:206,1,87.5
68,107,28386,1,0,0:0:0:0:
68,107,28546,2,0,L|155:113,1,87.5
255,128,28865,6,0,L|342:134,2,87.5
297,224,29344,1,0,0:0:0:0:
427,195,29503,2,0,P|448:157|443:115,1,87.5
358,54,29822,2,0,P|336:91|341:133,1,87.5
297,224,30142,6,0,B|247:205|210:223|210:223|172:239|127:221,1,175
174,127,30620,1,0,0:0:0:0:
255,299,30780,2,0,P|296:310|338:299,1,87.5
438,137,31099,1,0,0:0:0:0:
427,242,31259,1,0,0:0:0:0:
342,95,31418,5,0,0:0:0:0:
438,137,31578,1,0,0:0:0:0:
272,174,31737,1,0,0:0:0:0:
272,174,32057,1,0,0:0:0:0:
283,197,32136,1,0,0:0:0:0:
286,222,32216,1,0,0:0:0:0:
280,246,32296,1,0,0:0:0:0:
264,267,32376,2,0,P|256:287|257:308,3,43.75
289,348,32695,6,0,L|202:343,1,87.5
137,258,33014,1,0,0:0:0:0:
264,167,33174,1,0,0:0:0:0:
264,167,33253,1,0,0:0:0:0:
264,167,33333,1,0,0:0:0:0:
202,343,33493,1,0,0:0:0:0:
50,253,33652,2,0,L|137:258,1,87.5
264,167,33971,5,0,0:0:0:0:
363,200,34131,1,0,0:0:0:0:
285,269,34291,1,0,0:0:0:0:
343,98,34450,1,0,0:0:0:0:
463,217,34610,2,0,L|376:212,1,87.5
184,200,34929,2,0,L|271:205,1,87.5
386,114,35248,6,0,B|399:246|399:246|375:211,1,175
375,211,35727,1,0,0:0:0:0:
218,278,35886,1,0,0:0:0:0:
272,188,36046,1,0,0:0:0:0:
385,317,36205,1,0,0:0:0:0:
287,357,36365,1,0,0:0:0:0:
272,188,36525,5,0,0:0:0:0:
140,352,36844,2,0,P|154:311|144:269,1,87.5
57,121,37163,2,0,P|47:163|60:204,1,87.5
241,203,37482,1,0,0:0:0:0:
151,150,37642,1,0,0:0:0:0:
286,88,37801,6,0,B|333:111|387:91|387:91|420:112|415:151,1,175
362,242,38280,1,0,0:0:0:0:
362,242,38360,1,0,0:0:0:0:
362,242,38439,1,0,0:0:0:0:
286,88,38599,1,0,0:0:0:0:
275,293,38759,1,0,0:0:0:0:
271,77,38918,1,0,0:0:0:0:
45,167,39078,6,0,B|95:148|132:166|132:166|170:182|215:164,1,175
271,77,39557,1,0,0:0:0:0:
215,164,39716,2,0,B|207:202|207:202|215:249,1,87.5
316,280,40035,1,0,0:0:0:0:
215,164,40195,1,0,0:0:0:0:
133,316,40354,6,0,L|307:297,1,175
395,239,40833,1,0,0:0:0:0:
255,66,40993,2,0,P|278:148|225:214,1,175
172,124,41471,1,0,0:0:0:0:
306,297,41631,6,0,P|283:215|336:149,1,175
438,125,42110,1,0,0:0:0:0:
479,249,42269,2,0,B|446:256|446:256|395:239,1,87.5
251,138,42588,2,0,B|285:132|285:132|336:149,1,87.5
287,322,42908,6,0,L|294:234,2,87.5
187,353,43386,1,0,0:0:0:0:
187,353,43546,2,0,L|194:265,1,87.5
256,180,43865,1,0,0:0:0:0:
212,84,44025,1,0,0:0:0:0:
306,38,44184,6,0,L|394:45,2,87.5
212,84,44663,1,0,0:0:0:0:
141,159,44822,2,0,P|125:200|133:242,1,87.5
323,261,45142,1,0,0:0:0:0:
233,209,45301,1,0,0:0:0:0:
199,356,45461,6,0,B|252:348|252:348|317:364|317:364|371:355,1,175
462,305,45939,1,0,0:0:0:0:
312,177,46099,2,0,P|307:220|322:261,1,87.5
415,164,46418,2,0,P|420:121|405:81,1,87.5
405,81,46737,1,0,0:0:0:0:
195,103,47057,5,0,0:0:0:0:
319,275,47216,1,0,0:0:0:0:
319,275,47296,1,0,0:0:0:0:
319,275,47376,1,0,0:0:0:0:
405,81,47535,1,0,0:0:0:0:
195,103,47695,1,0,0:0:0:0:
319,275,47854,1,0,0:0:0:0:
304,154,48014,6,0,B|315:118|315:118|301:70,1,87.5
208,119,48333,2,0,B|197:155|197:155|210:202,1,87.5
117,153,48652,2,0,B|128:117|128:117|114:69,1,87.5
21,118,48971,2,0,B|10:154|10:154|23:201,1,87.5
84,288,49291,6,0,B|137:277|137:277|210:296|210:296|254:288,1,175
300,192,49769,2,0,P|283:274|345:331,1,175
395,149,50248,1,0,0:0:0:0:
395,149,50408,6,0,B|345:130|308:148|308:148|270:164|225:146,1,175
55,64,50886,2,0,P|97:72|131:99,1,87.5
294,97,51205,2,0,P|265:129|224:145,1,87.5
151,288,51525,2,0,P|137:246|143:203,1,87.5
337,202,51844,5,0,0:0:0:0:
241,243,52003,1,0,0:0:0:0:
406,281,52163,1,0,0:0:0:0:
337,202,52322,1,0,0:0:0:0:
337,202,52402,1,0,0:0:0:0:
337,202,52482,1,0,0:0:0:0:
241,243,52642,1,0,0:0:0:0:
250,346,52801,1,0,0:0:0:0:
351,369,52960,1,0,0:0:0:0:
406,280,53120,6,0,P|408:211|421:142,1,140
399,59,53599,2,0,P|434:58|467:71,1,70
332,110,54078,2,0,P|297:111|264:98,1,70
215,28,54397,6,0,P|230:93|185:143,1,140
185,143,54876,1,0,0:0:0:0:
118,193,55035,1,0,0:0:0:0:
118,193,55195,1,0,0:0:0:0:
170,258,55354,1,0,0:0:0:0:
170,258,55514,1,0,0:0:0:0:
106,313,55674,6,0,L|245:304,1,140
294,235,56152,2,0,P|287:270|296:303,1,70
367,194,56631,2,0,P|373:159|364:126,1,70
429,73,56950,6,0,L|289:81,1,140
289,81,57429,1,0,0:0:0:0:
233,143,57588,1,0,0:0:0:0:
233,143,57748,1,0,0:0:0:0:
160,100,57908,1,0,0:0:0:0:
160,100,58067,1,0,0:0:0:0:
92,149,58227,6,0,B|89:197|89:197|113:237|113:237|110:282,1,140
65,352,58705,2,0,L|134:358,1,70
248,262,59184,2,0,L|317:255,1,70
359,328,59503,5,0,0:0:0:0:
358,327,59663,2,0,B|339:287|352:257|352:257|367:226|354:192,1,140
312,119,60142,2,0,P|346:109|380:114,1,70
421,187,60461,2,0,P|388:197|354:192,1,70
312,119,60780,6,0,B|277:111|251:106|251:106|227:131|179:131,1,140
107,174,61259,2,0,L|108:104,1,70
29,206,61737,2,0,L|30:275,1,70
96,329,62057,5,0,0:0:0:0:
96,329,62216,2,0,L|235:316,1,140
252,304,62615,1,0,0:0:0:0:
269,292,62695,1,0,0:0:0:0:
300,214,62854,1,0,0:0:0:0:
266,136,63014,1,0,0:0:0:0:
188,105,63174,1,0,0:0:0:0:
109,138,63333,6,0,P|84:202|100:269,1,140
153,334,63812,2,0,B|104:320|104:320|86:326,1,70
204,267,64291,2,0,B|253:281|253:281|270:274,1,70
328,334,64610,6,0,L|320:195,1,140
320,195,65088,1,0,0:0:0:0:
357,119,65248,1,0,0:0:0:0:
357,119,65408,1,0,0:0:0:0:
280,82,65567,1,0,0:0:0:0:
280,82,65727,1,0,0:0:0:0:
243,159,65886,6,0,B|191:154|191:154|155:172|155:172|107:166,1,140
75,88,66365,2,0,L|144:96,1,70
211,230,66844,2,0,L|280:238,1,70
338,297,67163,6,0,P|324:229|351:166,1,140
351,166,67642,1,0,0:0:0:0:
448,245,67801,1,0,0:0:0:0:
338,297,67961,1,0,0:0:0:0:
458,226,68120,1,0,0:0:0:0:
328,316,68280,1,0,0:0:0:0:
468,207,68439,5,0,0:0:0:0:
256,192,68599,12,0,70674,0:0:0:0:
157,104,70993,5,0,0:0:0:0:
171,270,71152,1,0,0:0:0:0:
172,285,71471,5,0,0:0:0:0:
155,89,71631,1,0,0:0:0:0:
93,180,71950,5,0,0:0:0:0:
259,166,72109,1,0,0:0:0:0:
274,165,72428,5,0,0:0:0:0:
78,182,72588,1,0,0:0:0:0:
155,89,72748,1,0,0:0:0:0:
171,270,72908,6,0,B|295:247|295:247|340:263|340:315|340:315|310:323,1,245
225,337,73546,6,0,B|249:293|230:252|230:252|209:206|230:169,1,175
296,87,74025,1,0,0:0:0:0:
390,156,74184,2,0,B|351:185|309:192|309:192|280:167|229:169,1,175
229,168,74663,1,0,0:0:0:0:
139,115,74822,6,0,L|146:27,1,87.5
61,187,75142,2,0,L|53:274,1,87.5
234,321,75461,1,0,0:0:0:0:
151,256,75620,1,0,0:0:0:0:
136,360,75780,1,0,0:0:0:0:
248,213,75939,6,0,B|300:200|300:200|358:222|358:222|415:205,1,175
363,114,76418,1,0,0:0:0:0:
415,204,76578,2,0,B|427:236|427:236|413:287,1,87.5
296,339,76897,1,0,0:0:0:0:
321,236,77057,1,0,0:0:0:0:
250,158,77216,2,0,L|75:174,1,175
271,173,77695,5,0,0:0:0:0:
56,156,77854,1,0,0:0:0:0:
154,60,78014,5,0,0:0:0:0:
137,275,78173,1,0,0:0:0:0:
253,353,78333,5,0,0:0:0:0:
236,138,78492,1,0,0:0:0:0:
424,173,78652,6,0,L|249:157,1,175
209,294,79131,1,0,0:0:0:0:
209,294,79291,2,0,P|270:237|248:156,1,175
177,80,79769,1,0,0:0:0:0:
112,216,79929,6,0,P|153:229|194:213,1,87.5
303,70,80248,2,0,P|271:99|264:141,1,87.5
351,269,80567,2,0,B|337:136|337:136|365:167,1,175
296,335,81046,6,0,P|378:350|435:289,1,175
337,136,81525,1,0,0:0:0:0:
351,269,81684,1,0,0:0:0:0:
228,214,81844,1,0,0:0:0:0:
459,190,82003,1,0,0:0:0:0:
459,190,82083,1,0,0:0:0:0:
459,190,82163,1,0,0:0:0:0:
228,214,82322,2,0,L|54:234,2,175
228,214,83120,5,0,0:0:0:0:
222,319,83439,1,0,0:0:0:0:
241,110,83759,1,0,0:0:0:0:
