osu file format v14

[General]
AudioFilename: Heart Realize.mp3
AudioLeadIn: 1500
PreviewTime: 70478
Countdown: 0
SampleSet: Soft
StackLeniency: 0.7
Mode: 0
LetterboxInBreaks: 0
WidescreenStoryboard: 1

[Editor]
Bookmarks: 5007,8799,21606,32309,43264,69640,80595
DistanceSpacing: 1
BeatDivisor: 4
GridSize: 4
TimelineZoom: 1.5

[Metadata]
Title:Heart Realize (TV Size)
TitleUnicode:ハートリアライズ (TV Size)
Artist:Tia
ArtistUnicode:Tia
Creator:luGha
Version:Hard
Source:Noragami
Tags:ノラガミ supercell ryo ending
BeatmapID:1510121
BeatmapSetID:713873

[Difficulty]
HPDrainRate:3
CircleSize:4
OverallDifficulty:5
ApproachRate:8
SliderMultiplier:1.8
SliderTickRate:1

[Events]
//Background and Video events
0,0,"bg.jpg",0,0
//Break Periods
//Storyboard Layer 0 (Background)
//Storyboard Layer 1 (Fail)
//Storyboard Layer 2 (Pass)
//Storyboard Layer 3 (Foreground)
//Storyboard Sound Samples

[TimingPoints]
710,337.078651685393,4,2,2,30,1,0
710,-200,4,2,2,30,0,0
1047,-200,4,2,2,10,0,0
1721,-200,4,2,2,25,0,0
3406,-200,4,2,2,30,0,0
6440,-200,4,2,2,20,0,0
7114,-200,4,2,2,30,0,0
10148,-200,4,2,3,50,0,0
10485,-100,4,2,3,50,0,0
10822,-66.6666666666667,4,2,1,50,0,0
11490,337.078651685393,4,2,1,60,1,0
15872,-100,4,2,1,30,0,0
15956,-100,4,2,1,35,0,0
16040,-100,4,2,1,40,0,0
16124,-100,4,2,1,45,0,0
16209,-100,4,2,1,50,0,0
16377,-100,4,2,1,60,0,0
21152,-100,4,2,1,40,0,0
21377,-100,4,2,1,30,0,0
21489,-100,4,2,1,40,0,0
22276,-125,4,2,6,40,0,0
22445,-125,4,2,1,50,0,0
23540,-125,4,2,3,30,0,0
23624,-125,4,2,1,50,0,0
33063,-100,4,2,6,40,0,0
33231,-100,4,2,1,60,0,0
42501,-100,4,2,2,40,0,0
42838,-100,4,2,2,50,0,0
43849,-125,4,2,4,50,0,0
44523,-125,4,2,1,50,0,0
44860,-125,4,2,4,40,0,0
45197,-125,4,2,4,30,0,0
45534,-125,4,2,4,50,0,0
45872,-125,4,2,1,50,0,0
46209,-125,4,2,4,40,0,0
46798,-125,4,2,4,30,0,0
47051,-125,4,2,4,45,0,0
47220,-125,4,2,1,50,0,0
47557,-125,4,2,4,40,0,0
48568,-125,4,2,1,50,0,0
48905,-125,4,2,4,50,0,0
49579,-125,4,2,4,30,0,0
49916,-125,4,2,1,50,0,0
50591,-125,4,2,4,30,0,0
50759,-125,4,2,4,35,0,0
50928,-125,4,2,4,40,0,0
51265,-125,4,2,1,50,0,0
51602,-125,4,2,4,50,0,0
52276,-125,4,2,4,30,0,0
52613,-125,4,2,1,50,0,0
52782,-125,4,2,4,50,0,0
54467,-125,4,2,1,50,0,0
54636,-100,4,2,6,30,0,0
54973,-100,4,2,1,60,0,0
56152,-100,4,2,3,40,0,0
56321,-100,4,2,1,60,0,0
56827,-100,4,2,3,40,0,0
56995,-100,4,2,1,60,0,0
60534,-100,4,2,4,30,0,0
60703,-100,4,2,1,60,0,0
61883,-100,4,2,4,30,0,0
62051,-100,4,2,1,60,0,0
64074,-100,4,2,1,30,0,0
64411,-100,4,2,1,40,0,0
64748,-100,4,2,1,50,0,0
65085,-100,4,2,1,60,0,0
65422,-100,4,2,1,40,0,0
66096,-100,4,2,1,50,0,0
66770,-100,4,2,1,60,0,0
67445,-100,4,2,1,70,0,0
68119,-166.666666666667,4,2,1,30,0,0
70647,-166.666666666667,4,2,1,50,0,0
70731,-166.666666666667,4,2,1,60,0,0
70815,-100,4,2,1,70,0,1
76209,-100,4,2,1,60,0,1
76377,-100,4,2,1,70,0,1
78905,-100,4,2,1,50,0,1
79411,-100,4,2,1,55,0,1
79916,-100,4,2,1,60,0,1
81265,-100,4,2,1,50,0,0
81602,-100,4,2,1,70,0,1
92051,-100,4,2,1,40,0,1
92220,-100,4,2,2,50,0,0

[Colours]
Combo1 : 185,185,185
Combo2 : 106,181,255
Combo3 : 255,177,140
Combo4 : 122,188,188
Combo5 : 255,164,209
Combo6 : 183,111,255

[HitObjects]
168,76,710,6,0,P|352:128|352:172,1,270
353,162,1889,1,0,0:0:0:0:
336,304,3406,6,0,P|444:256|404:148,1,247.5
412,152,4530,1,0,0:0:0:0:
188,128,5429,6,0,P|324:64|324:64,1,135
310,70,6103,2,0,P|364:156|264:224,1,225
256,192,7283,12,0,9305,0:0:0:0:
92,136,9726,6,0,P|220:72|336:112,1,270
388,208,11159,1,0,0:0:0:0:
160,68,11490,6,0,L|248:88,1,90
148,140,11827,2,0,L|264:160,1,90
136,204,12164,2,0,L|256:220,1,90
456,136,12501,6,0,L|352:132,1,90
464,220,12838,2,0,L|352:216,1,90
472,308,13175,2,0,L|356:304,1,90
264,328,13512,6,0,L|264:228,1,90
184,336,13849,2,0,L|184:244,1,90
100,336,14186,2,0,L|100:236,1,90
56,40,14523,6,0,L|56:148,1,90
140,40,14860,2,0,L|140:144,1,90
220,48,15197,2,0,L|220:152,1,90
296,352,15534,6,0,L|296:248,1,90
376,348,15872,2,0,L|376:252,1,90
452,348,16209,2,0,L|452:248,1,90
480,44,16546,6,0,L|484:176,1,90
404,40,16883,2,0,L|404:152,1,90
324,32,17220,2,0,L|324:148,1,90
256,192,17557,6,0,L|360:192,1,90
256,256,17894,2,0,L|360:256,1,90
256,328,18231,2,0,L|364:328,1,90
256,328,18568,6,0,L|136:328,1,90
256,256,18905,2,0,L|140:256,1,90
256,180,19242,2,0,L|140:180,1,90
256,12,19579,6,0,L|256:104,1,90
248,100,19916,2,0,L|248:196,1,90
248,190,20254,2,0,L|248:316,1,90
248,280,20591,2,0,L|248:372,1,90
324,324,20928,6,0,L|400:320,12,45
352,240,22276,1,0,0:0:0:0:
280,160,22529,6,0,L|460:152,1,180
459,152,23231,1,0,0:0:0:0:
92,248,23624,6,0,L|176:244,2,72
88,140,24256,2,0,L|184:136,2,72
248,56,24973,2,0,P|248:176|288:168,1,192
267,175,25591,1,0,0:0:0:0:
84,40,26068,2,0,L|84:144,1,96
184,48,26770,2,0,L|184:160,1,96
124,80,28006,6,0,P|268:56|408:112,1,288
260,144,29018,2,0,L|128:224,1,144
136,218,29692,1,0,0:0:0:0:
236,284,29987,1,0,0:0:0:0:
236,284,30366,6,0,P|296:120|368:164,1,306
160,160,31546,2,0,L|240:116,1,72
400,104,32136,2,0,L|416:216,1,108
288,160,33315,6,0,P|184:240|128:208,1,202.5
100,196,34018,1,0,0:0:0:0:
268,72,34411,1,0,0:0:0:0:
236,220,34664,2,0,L|364:216,1,112.5
348,216,35085,1,0,0:0:0:0:
412,28,35422,1,0,0:0:0:0:
264,100,35759,6,0,L|220:232,1,120
96,140,36265,1,0,0:0:0:0:
124,224,36433,2,0,L|308:224,1,180
304,224,36897,1,0,0:0:0:0:
220,148,37107,6,0,L|216:300,1,135
96,240,37571,2,0,L|96:356,1,112.5
148,128,38203,6,0,L|308:92,1,135
279,98,38877,2,0,L|424:124,1,135
220,188,39509,2,0,L|156:284,3,90
456,116,40478,1,0,0:0:0:0:
188,140,40984,6,0,L|196:268,1,90
372,96,41574,2,0,L|312:264,1,135
132,68,42290,1,0,0:0:0:0:
52,176,42501,2,0,L|392:172,1,337.5
128,100,43638,6,0,L|248:112,1,112.5
376,60,44818,2,0,L|372:156,1,90
232,116,45197,6,0,L|308:128,4,72
440,60,46377,6,0,L|448:144,1,72
480,92,47515,2,0,L|488:188,1,90
416,164,47894,2,0,L|424:248,4,72
232,88,49032,6,0,L|232:292,1,198
232,286,49622,2,0,L|360:154,1,180
240,104,50422,1,0,0:0:0:0:
168,80,51602,6,0,L|168:228,1,144
168,224,52276,1,0,0:0:0:0:
352,80,52739,2,0,L|332:260,1,180
380,232,53287,6,0,L|452:256,3,72
392,116,54130,1,0,0:0:0:0:
388,216,54298,2,0,L|240:208,3,144
228,72,55563,6,0,L|224:188,1,112.5
156,92,55984,2,0,L|156:188,4,90
404,92,57122,6,0,L|408:196,1,90
304,140,57501,2,0,L|304:248,4,90
132,192,58512,1,0,0:0:0:0:
476,80,59186,6,0,L|424:308,1,225
296,268,59860,2,0,L|32:80,1,315
256,192,60577,12,0,63231,0:0:0:0:
188,72,63610,5,0,0:0:0:0:
388,180,64032,1,0,0:0:0:0:
212,224,64369,1,0,0:0:0:0:
296,64,64706,1,0,0:0:0:0:
296,244,65043,1,0,0:0:0:0:
196,124,65380,1,0,0:0:0:0:
256,192,65548,12,0,67824,0:0:0:0:
216,80,68119,6,0,L|216:116,8,26.9999991760254
324,80,69088,2,0,L|324:116,8,26.9999991760254
264,184,70141,2,0,L|264:248,1,53.9999983520508
184,220,70563,6,0,L|120:252,2,67.4999979400635
148,136,71784,6,0,L|344:188,1,202.5
336,96,72332,2,0,L|460:72,1,90
472,64,73091,6,0,L|372:208,1,135
308,156,73512,2,0,L|104:88,1,180
120,188,74186,6,0,L|320:232,1,180
295,226,74692,6,0,L|280:352,1,90
220,184,75197,1,0,0:0:0:0:
284,120,75366,2,0,L|456:56,1,180
340,76,75998,6,0,L|360:200,1,112.5
208,88,76546,2,0,L|236:288,1,202.5
364,244,77178,1,0,0:0:0:0:
324,164,77346,1,0,0:0:0:0:
436,120,77557,1,0,0:0:0:0:
280,120,77852,6,0,L|152:280,1,202.5
244,292,78400,1,0,0:0:0:0:
376,168,78737,1,0,0:0:0:0:
228,80,79832,1,0,0:0:0:0:
160,176,80127,6,0,L|384:192,1,225
392,124,80675,1,0,0:0:0:0:
380,324,81054,1,0,0:0:0:0:
296,192,81349,2,0,L|420:264,1,135
248,180,81939,5,0,0:0:0:0:
84,100,82276,1,0,0:0:0:0:
196,80,82529,2,0,L|372:64,1,157.5
328,152,82992,6,0,L|248:320,1,180
392,132,84088,6,0,L|380:236,1,90
124,84,84636,1,0,0:0:0:0:
304,84,84973,1,0,0:0:0:0:
436,108,85225,6,0,L|424:236,1,112.5
316,244,85647,2,0,L|136:156,1,180
232,52,86237,5,0,0:0:0:0:
224,220,86532,1,0,0:0:0:0:
348,44,86953,1,0,0:0:0:0:
144,224,87501,1,0,0:0:0:0:
100,92,87669,6,0,L|84:188,1,90
172,96,88006,2,0,L|152:200,1,90
244,100,88343,2,0,L|224:208,1,90
448,336,88681,6,0,L|444:236,1,90
364,336,89018,2,0,L|364:244,1,90
288,336,89355,2,0,L|288:232,1,90
340,96,89692,6,0,L|324:196,1,90
264,88,90029,2,0,L|244:188,1,90
184,76,90366,2,0,L|168:168,1,90
88,328,90703,6,0,L|88:236,1,90
176,336,91040,2,0,L|180:232,1,90
264,340,91377,2,0,L|264:232,1,90
192,188,91714,6,0,L|288:188,2,90
