osu file format v14

[General]
AudioFilename: Heart Realize.mp3
AudioLeadIn: 1500
PreviewTime: 70478
Countdown: 0
SampleSet: Soft
StackLeniency: 0.7
Mode: 0
LetterboxInBreaks: 0
WidescreenStoryboard: 1

[Editor]
Bookmarks: 5007,8799,21606,32309,43264,69640,80595
DistanceSpacing: 2
BeatDivisor: 4
GridSize: 4
TimelineZoom: 1

[Metadata]
Title:Heart Realize (TV Size)
TitleUnicode:ハートリアライズ (TV Size)
Artist:Tia
ArtistUnicode:Tia
Creator:luGha
Version:Collab Insane
Source:Noragami
Tags:ノラガミ supercell ryo ending
BeatmapID:1508732
BeatmapSetID:713873

[Difficulty]
HPDrainRate:7
CircleSize:4
OverallDifficulty:8
ApproachRate:9.5
SliderMultiplier:1.8
SliderTickRate:1

[Events]
//Background and Video events
0,0,"bg.jpg",0,0
//Break Periods
//Storyboard Layer 0 (Background)
//Storyboard Layer 1 (Fail)
//Storyboard Layer 2 (Pass)
//Storyboard Layer 3 (Foreground)
//Storyboard Sound Samples

[TimingPoints]
710,337.078651685393,4,2,2,30,1,0
710,-200,4,2,2,30,0,0
1047,-200,4,2,2,10,0,0
1721,-200,4,2,2,25,0,0
3406,-200,4,2,2,30,0,0
6440,-200,4,2,2,20,0,0
7114,-200,4,2,2,30,0,0
10148,-200,4,2,3,50,0,0
10485,-100,4,2,3,50,0,0
10822,-66.6666666666667,4,2,1,50,0,0
11490,337.078651685393,4,2,1,60,1,0
15872,-100,4,2,1,30,0,0
15956,-100,4,2,1,35,0,0
16040,-100,4,2,1,40,0,0
16124,-100,4,2,1,45,0,0
16209,-100,4,2,1,50,0,0
16377,-100,4,2,1,60,0,0
21152,-100,4,2,1,40,0,0
21377,-100,4,2,1,30,0,0
21489,-100,4,2,1,40,0,0
22276,-125,4,2,6,40,0,0
22445,-125,4,2,1,50,0,0
23540,-125,4,2,3,30,0,0
23624,-125,4,2,1,50,0,0
33063,-100,4,2,6,40,0,0
33231,-100,4,2,1,60,0,0
42501,-100,4,2,2,40,0,0
42838,-100,4,2,2,50,0,0
43849,-125,4,2,4,50,0,0
44523,-125,4,2,1,50,0,0
44860,-125,4,2,4,40,0,0
45197,-125,4,2,4,30,0,0
45534,-125,4,2,4,50,0,0
45872,-125,4,2,1,50,0,0
46209,-125,4,2,4,40,0,0
46798,-125,4,2,4,30,0,0
47051,-125,4,2,4,45,0,0
47220,-125,4,2,1,50,0,0
47557,-125,4,2,4,40,0,0
48568,-125,4,2,1,50,0,0
48905,-125,4,2,4,50,0,0
49579,-125,4,2,4,30,0,0
49916,-125,4,2,1,50,0,0
50591,-125,4,2,4,30,0,0
50759,-125,4,2,4,35,0,0
50928,-125,4,2,4,40,0,0
51265,-125,4,2,1,50,0,0
51602,-125,4,2,4,50,0,0
52276,-125,4,2,4,30,0,0
52613,-125,4,2,1,50,0,0
52782,-125,4,2,4,50,0,0
54467,-125,4,2,1,50,0,0
54636,-100,4,2,6,30,0,0
54973,-100,4,2,1,60,0,0
56152,-100,4,2,3,40,0,0
56321,-100,4,2,1,60,0,0
56827,-100,4,2,3,40,0,0
56995,-100,4,2,1,60,0,0
60534,-100,4,2,4,30,0,0
60703,-100,4,2,1,60,0,0
61883,-100,4,2,4,30,0,0
62051,-100,4,2,1,60,0,0
64074,-100,4,2,1,30,0,0
64411,-100,4,2,1,40,0,0
64748,-100,4,2,1,50,0,0
65085,-100,4,2,1,60,0,0
65422,-100,4,2,1,40,0,0
66096,-100,4,2,1,50,0,0
66770,-100,4,2,1,60,0,0
67445,-100,4,2,1,70,0,0
68119,-166.666666666667,4,2,1,30,0,0
70647,-166.666666666667,4,2,1,50,0,0
70731,-166.666666666667,4,2,1,60,0,0
70815,-100,4,2,1,70,0,1
76209,-100,4,2,1,60,0,1
76377,-100,4,2,1,70,0,1
78905,-100,4,2,1,50,0,1
79411,-100,4,2,1,55,0,1
79916,-100,4,2,1,60,0,1
81265,-100,4,2,1,50,0,0
81602,-100,4,2,1,70,0,1
92051,-100,4,2,1,40,0,1
92220,-100,4,2,2,50,0,0

[Colours]
Combo1 : 185,185,185
Combo2 : 106,181,255
Combo3 : 255,177,140
Combo4 : 122,188,188
Combo5 : 255,164,209
Combo6 : 183,111,255

[HitObjects]
96,164,710,5,0,0:0:0:0:
128,240,1721,1,0,0:0:0:0:
132,232,1889,2,0,P|232:136|292:144,1,202.5
128,136,3406,5,0,0:0:0:0:
268,120,4333,1,0,0:0:0:0:
284,104,4586,2,0,P|356:120|348:152,1,112.5
111,57,5429,6,0,L|185:93,1,67.5
314,68,5934,1,0,0:0:0:0:
336,92,6103,1,0,0:0:0:0:
300,244,6440,1,0,0:0:0:0:
272,232,6608,2,0,L|144:172,1,135
256,192,7451,12,0,8799,0:0:0:0:
184,93,9726,5,0,0:0:0:0:
403,80,9895,1,0,0:0:0:0:
168,292,10063,2,0,L|244:228,1,90
330,229,10569,1,0,0:0:0:0:
286,54,10906,1,0,0:0:0:0:
116,192,11159,1,0,0:0:0:0:
412,232,11490,5,0,0:0:0:0:
296,168,11658,1,0,0:0:0:0:
280,304,11827,1,0,0:0:0:0:
216,184,11995,5,0,0:0:0:0:
256,56,12164,1,0,0:0:0:0:
328,168,12332,1,0,0:0:0:0:
384,44,12501,5,0,0:0:0:0:
276,124,12669,1,0,0:0:0:0:
148,80,12838,1,0,0:0:0:0:
192,208,13006,5,0,0:0:0:0:
224,76,13175,1,0,0:0:0:0:
324,168,13343,1,0,0:0:0:0:
384,44,13512,5,0,0:0:0:0:
276,124,13681,1,0,0:0:0:0:
392,196,13849,1,0,0:0:0:0:
260,232,14018,5,0,0:0:0:0:
304,56,14186,1,0,0:0:0:0:
392,196,14355,1,0,0:0:0:0:
236,108,14523,5,0,0:0:0:0:
144,264,14692,1,0,0:0:0:0:
324,272,14860,1,0,0:0:0:0:
360,100,15029,1,0,0:0:0:0:
188,156,15197,5,0,0:0:0:0:
252,60,15366,1,0,0:0:0:0:
328,180,15534,1,0,0:0:0:0:
440,40,15703,5,0,0:0:0:0:
268,96,15872,1,0,0:0:0:0:
188,256,16040,1,0,0:0:0:0:
124,88,16209,5,0,0:0:0:0:
288,196,16377,1,0,0:0:0:0:
400,28,16546,1,0,0:0:0:0:
412,224,16714,1,0,0:0:0:0:
268,84,16883,5,0,0:0:0:0:
160,256,17051,1,0,0:0:0:0:
116,64,17220,1,0,0:0:0:0:
244,200,17388,5,0,0:0:0:0:
396,64,17557,1,0,0:0:0:0:
472,260,17725,1,0,0:0:0:0:
280,212,17894,1,0,0:0:0:0:
188,36,18063,5,0,0:0:0:0:
356,136,18231,1,0,0:0:0:0:
176,220,18400,1,0,0:0:0:0:
380,276,18568,5,0,0:0:0:0:
288,108,18737,1,0,0:0:0:0:
104,184,18905,1,0,0:0:0:0:
280,284,19074,5,0,0:0:0:0:
300,88,19242,1,0,0:0:0:0:
104,68,19411,1,0,0:0:0:0:
192,244,19579,5,0,0:0:0:0:
216,48,19748,1,0,0:0:0:0:
348,192,19916,1,0,0:0:0:0:
132,204,20085,5,0,0:0:0:0:
300,88,20254,1,0,0:0:0:0:
428,264,20422,1,0,0:0:0:0:
252,168,20591,5,0,0:0:0:0:
112,308,20759,1,0,0:0:0:0:
240,248,20928,5,0,0:0:0:0:
280,240,21040,1,0,0:0:0:0:
320,224,21152,1,0,0:0:0:0:
344,188,21265,1,0,0:0:0:0:
316,152,21377,1,0,0:0:0:0:
284,128,21489,1,0,0:0:0:0:
244,112,21602,1,0,0:0:0:0:
204,108,21714,1,0,0:0:0:0:
160,108,21827,1,0,0:0:0:0:
128,136,21939,1,0,0:0:0:0:
236,204,22276,6,0,L|96:280,1,144
180,296,22950,1,0,0:0:0:0:
388,236,23287,1,0,0:0:0:0:
352,104,23624,2,0,L|192:156,1,144
236,276,24298,6,0,B|412:252|408:252,1,144
208,124,24973,2,0,L|108:272,2,144
152,136,26068,5,0,0:0:0:0:
188,260,26321,6,0,P|408:260|400:260,1,216
392,116,26995,1,0,0:0:0:0:
208,160,27332,2,0,B|264:224|260:220,1,72
192,276,27669,1,0,0:0:0:0:
96,164,27838,1,0,0:0:0:0:
172,72,28006,6,0,L|340:72,2,144
280,208,29018,1,0,0:0:0:0:
152,172,29355,1,0,0:0:0:0:
256,156,29692,2,0,L|256:304,1,144
196,72,30366,2,0,L|188:288,1,216
296,252,31040,1,0,0:0:0:0:
208,120,31209,1,0,0:0:0:0:
368,188,31377,1,0,0:0:0:0:
444,48,31546,6,0,L|448:140,1,72
328,132,31883,5,0,0:0:0:0:
244,208,32051,1,0,0:0:0:0:
176,112,32220,1,0,0:0:0:0:
132,220,32388,1,0,0:0:0:0:
208,296,32557,5,0,0:0:0:0:
332,80,32725,1,0,0:0:0:0:
288,208,32894,1,0,0:0:0:0:
428,168,33063,1,0,0:0:0:0:
344,60,33400,6,0,L|356:240,1,180
120,276,34074,2,0,L|120:92,1,180
316,80,34579,6,0,L|320:208,1,90
300,200,35085,2,0,L|112:224,1,180
92,156,35759,5,0,0:0:0:0:
172,44,35928,1,0,0:0:0:0:
172,180,36096,1,0,0:0:0:0:
180,260,36209,2,0,L|312:272,1,120
364,144,36602,1,0,0:0:0:0:
200,92,36770,1,0,0:0:0:0:
256,224,36939,5,0,0:0:0:0:
400,224,37107,1,0,0:0:0:0:
416,80,37276,1,0,0:0:0:0:
272,88,37445,1,0,0:0:0:0:
148,164,37613,6,0,L|152:268,1,90
296,244,37950,1,0,0:0:0:0:
344,108,38119,1,0,0:0:0:0:
92,76,38287,1,0,0:0:0:0:
108,88,38456,6,0,L|268:212,1,180
352,256,38961,1,0,0:0:0:0:
372,120,39130,1,0,0:0:0:0:
156,268,39298,1,0,0:0:0:0:
304,284,39467,5,0,0:0:0:0:
412,188,39636,1,0,0:0:0:0:
296,100,39804,6,0,L|288:208,1,90
164,116,40141,1,0,0:0:0:0:
172,260,40310,1,0,0:0:0:0:
76,156,40478,6,0,L|252:104,1,180
396,152,40984,1,0,0:0:0:0:
252,132,41152,2,0,L|200:248,1,90
124,104,41489,5,0,0:0:0:0:
244,204,41658,1,0,0:0:0:0:
364,124,41827,5,0,0:0:0:0:
228,168,41995,1,0,0:0:0:0:
272,32,42164,1,0,0:0:0:0:
312,188,42332,1,0,0:0:0:0:
200,96,42501,5,0,0:0:0:0:
140,224,42669,1,0,0:0:0:0:
264,152,42838,1,0,0:0:0:0:
384,72,43006,2,0,L|392:176,1,90
168,60,43681,6,0,L|168:184,1,90
284,132,44018,1,0,0:0:0:0:
172,164,44186,1,0,0:0:0:0:
276,216,44355,1,0,0:0:0:0:
180,260,44523,1,0,0:0:0:0:
392,56,44776,6,0,L|396:184,1,108
395,163,45197,1,0,0:0:0:0:
292,152,45366,1,0,0:0:0:0:
368,240,45534,1,0,0:0:0:0:
448,152,45703,1,0,0:0:0:0:
356,84,45872,1,0,0:0:0:0:
200,116,46377,6,0,L|208:216,1,72
320,196,46714,1,0,0:0:0:0:
204,204,46883,1,0,0:0:0:0:
260,304,47051,1,0,0:0:0:0:
372,272,47220,1,0,0:0:0:0:
120,52,47473,6,0,B|228:120|220:112,1,108
116,176,47894,1,0,0:0:0:0:
196,92,48063,1,0,0:0:0:0:
224,204,48231,1,0,0:0:0:0:
316,116,48400,1,0,0:0:0:0:
336,196,48568,1,0,0:0:0:0:
120,240,48737,6,0,L|224:240,1,72
260,176,49242,2,0,L|180:104,1,108
416,160,49748,1,0,0:0:0:0:
196,96,50085,6,0,L|204:248,1,144
312,204,50591,1,0,0:0:0:0:
203,239,50759,1,0,0:0:0:0:
236,100,50928,1,0,0:0:0:0:
136,152,51096,1,0,0:0:0:0:
92,240,51265,1,0,0:0:0:0:
168,232,51686,6,0,L|296:240,1,108
172,112,52276,1,0,0:0:0:0:
216,220,52445,1,0,0:0:0:0:
332,216,52613,1,0,0:0:0:0:
272,56,52782,1,0,0:0:0:0:
116,140,53119,6,0,L|120:216,1,72
276,172,53456,1,0,0:0:0:0:
392,156,53624,1,0,0:0:0:0:
276,172,53793,1,0,0:0:0:0:
212,76,53961,1,0,0:0:0:0:
184,216,54130,1,0,0:0:0:0:
424,80,54383,6,0,L|400:204,1,108
276,156,54804,1,0,0:0:0:0:
356,276,54973,1,0,0:0:0:0:
388,136,55141,1,0,0:0:0:0:
284,236,55310,1,0,0:0:0:0:
68,244,55478,1,0,0:0:0:0:
208,104,55647,6,0,L|204:208,1,90
324,112,55984,1,0,0:0:0:0:
76,256,56152,1,0,0:0:0:0:
136,100,56321,1,0,0:0:0:0:
240,308,56489,1,0,0:0:0:0:
364,224,56658,1,0,0:0:0:0:
152,80,57164,6,0,L|160:188,1,90
276,84,57501,2,0,L|272:180,1,90
416,156,57838,1,0,0:0:0:0:
280,200,58006,1,0,0:0:0:0:
92,92,58175,1,0,0:0:0:0:
176,196,58343,1,0,0:0:0:0:
200,96,58512,2,0,P|328:152|376:272,1,270
152,88,59270,6,0,L|152:272,1,180
284,168,59860,1,0,0:0:0:0:
384,64,60029,1,0,0:0:0:0:
376,208,60197,2,0,L|288:288,1,90
309,268,60534,1,0,0:0:0:0:
256,192,60703,12,0,63400,0:0:0:0:
188,76,63681,6,0,L|184:292,1,210
320,320,64411,1,0,0:0:0:0:
120,112,64748,1,0,0:0:0:0:
408,144,65085,1,0,0:0:0:0:
152,276,65422,1,0,0:0:0:0:
256,192,65759,12,0,67613,0:0:0:0:
128,84,68119,5,0,0:0:0:0:
176,156,68287,1,0,0:0:0:0:
232,92,68456,1,0,0:0:0:0:
280,176,68624,1,0,0:0:0:0:
492,176,69130,5,0,0:0:0:0:
432,112,69298,1,0,0:0:0:0:
364,172,69467,1,0,0:0:0:0:
308,96,69636,1,0,0:0:0:0:
252,216,70141,5,0,0:0:0:0:
212,112,70310,1,0,0:0:0:0:
80,156,70647,2,0,P|76:120|88:116,1,53.9999983520508
288,172,70984,1,0,0:0:0:0:
176,260,71152,5,0,0:0:0:0:
376,48,71489,1,0,0:0:0:0:
96,140,71827,1,0,0:0:0:0:
248,188,71995,1,0,0:0:0:0:
180,60,72164,1,0,0:0:0:0:
308,132,72332,1,0,0:0:0:0:
452,128,72501,1,0,0:0:0:0:
332,228,72669,1,0,0:0:0:0:
164,156,72838,1,0,0:0:0:0:
348,84,73175,6,0,L|348:200,1,90
220,80,73512,1,0,0:0:0:0:
160,212,73681,1,0,0:0:0:0:
304,200,73849,1,0,0:0:0:0:
236,316,74186,1,0,0:0:0:0:
380,44,74523,1,0,0:0:0:0:
248,116,74692,5,0,0:0:0:0:
168,236,74860,1,0,0:0:0:0:
308,204,75029,1,0,0:0:0:0:
176,148,75197,1,0,0:0:0:0:
316,108,75366,1,0,0:0:0:0:
404,220,75534,1,0,0:0:0:0:
172,48,75872,6,0,L|172:236,1,180
172,228,76546,1,0,0:0:0:0:
348,144,76883,5,0,0:0:0:0:
204,96,77051,1,0,0:0:0:0:
228,240,77220,1,0,0:0:0:0:
88,216,77388,1,0,0:0:0:0:
224,168,77557,6,0,L|396:236,1,180
396,88,78063,1,0,0:0:0:0:
252,208,78568,1,0,0:0:0:0:
92,308,78737,6,0,L|216:292,1,90
164,152,79074,1,0,0:0:0:0:
300,200,79242,1,0,0:0:0:0:
252,68,79411,1,0,0:0:0:0:
164,152,79579,1,0,0:0:0:0:
52,60,79748,1,0,0:0:0:0:
80,192,79916,1,0,0:0:0:0:
156,80,80085,1,0,0:0:0:0:
308,272,80254,1,0,0:0:0:0:
196,204,80422,5,0,0:0:0:0:
328,144,80591,1,0,0:0:0:0:
196,92,80759,1,0,0:0:0:0:
280,208,80928,1,0,0:0:0:0:
276,64,81096,1,0,0:0:0:0:
160,216,81433,6,0,L|264:232,1,90
328,108,81770,1,0,0:0:0:0:
368,248,81939,1,0,0:0:0:0:
252,164,82107,1,0,0:0:0:0:
396,160,82276,1,0,0:0:0:0:
112,176,82613,5,0,0:0:0:0:
192,56,82782,1,0,0:0:0:0:
200,212,82950,1,0,0:0:0:0:
344,188,83119,1,0,0:0:0:0:
448,88,83287,2,0,L|440:208,2,90
440,284,84298,5,0,0:0:0:0:
308,252,84467,1,0,0:0:0:0:
396,148,84636,1,0,0:0:0:0:
284,184,84804,1,0,0:0:0:0:
200,104,84973,1,0,0:0:0:0:
392,80,85310,6,0,L|320:148,1,90
392,216,85647,1,0,0:0:0:0:
240,80,85815,1,0,0:0:0:0:
72,236,85984,1,0,0:0:0:0:
336,304,86321,6,0,L|336:192,1,90
244,148,86658,2,0,P|244:336|244:324,1,180
140,228,87164,1,0,0:0:0:0:
188,152,87332,5,0,0:0:0:0:
248,220,87501,5,0,0:0:0:0:
292,144,87669,1,0,0:0:0:0:
352,228,87838,5,0,0:0:0:0:
276,152,88006,1,0,0:0:0:0:
216,240,88175,1,0,0:0:0:0:
160,116,88343,1,0,0:0:0:0:
292,84,88512,1,0,0:0:0:0:
384,184,88681,5,0,0:0:0:0:
232,280,88849,1,0,0:0:0:0:
124,240,89018,1,0,0:0:0:0:
188,104,89186,1,0,0:0:0:0:
304,204,89355,1,0,0:0:0:0:
136,144,89523,5,0,0:0:0:0:
292,52,89692,1,0,0:0:0:0:
212,204,89860,1,0,0:0:0:0:
160,32,90029,1,0,0:0:0:0:
316,148,90197,1,0,0:0:0:0:
144,200,90366,1,0,0:0:0:0:
288,308,90534,1,0,0:0:0:0:
408,172,90703,5,0,0:0:0:0:
272,52,90872,1,0,0:0:0:0:
192,212,91040,1,0,0:0:0:0:
116,48,91209,1,0,0:0:0:0:
272,136,91377,1,0,0:0:0:0:
440,68,91546,1,0,0:0:0:0:
380,236,91714,5,0,0:0:0:0:
380,236,91883,2,0,L|256:232,1,90
