osu file format v14

[General]
AudioFilename: Heart Realize.mp3
AudioLeadIn: 1500
PreviewTime: 70478
Countdown: 0
SampleSet: Soft
StackLeniency: 0.4
Mode: 0
LetterboxInBreaks: 0
StoryFireInFront: 0
WidescreenStoryboard: 1

[Editor]
Bookmarks: 22276,33063,43849
DistanceSpacing: 1
BeatDivisor: 4
GridSize: 16
TimelineZoom: 1.8

[Metadata]
Title:Heart Realize (TV Size)
TitleUnicode:ハートリアライズ (TV Size)
Artist:Tia
ArtistUnicode:Tia
Creator:Nevo
Version:Airin's Normal
Source:ノラガミ
Tags:noragami supercell ryo ending AirinCat xandit kowari yukiyo
BeatmapID:1984799
BeatmapSetID:939836

[Difficulty]
HPDrainRate:3
CircleSize:3.4
OverallDifficulty:4
ApproachRate:5
SliderMultiplier:1
SliderTickRate:1

[Events]
//Background and Video events
0,0,"781117.jpg",0,0
Video,0,"ed.avi"
//Break Periods
//Storyboard Layer 0 (Background)
//Storyboard Layer 1 (Fail)
//Storyboard Layer 2 (Pass)
//Storyboard Layer 3 (Foreground)
//Storyboard Sound Samples

[TimingPoints]
710,337.0786516854,4,2,1,30,1,0
710,-111.1111111111,4,2,1,30,0,0
9811,-100,4,2,1,45,0,0
11490,337.0786516854,4,2,1,60,1,0
11490,-100,4,2,1,60,0,0
42501,-100,4,2,1,60,0,0
43849,-100,4,2,1,60,0,0
54636,-100,4,2,1,60,0,0
65422,-100,4,2,1,70,0,0
70815,-100,4,2,1,80,0,1
92220,-100,4,2,1,60,0,0

[Colours]
Combo1 : 185,185,185
Combo2 : 106,181,255
Combo3 : 255,177,140
Combo4 : 122,188,188
Combo5 : 255,164,209
Combo6 : 183,111,255

[HitObjects]
7,285,710,6,0,B|39:258|97:272|97:272|114:314|158:331|158:331|206:300|252:313,1,269.9999917603,2|2,0:0|0:0,0:0:0:0:
286,313,1889,1,2,0:0:0:0:
500,196,3406,6,0,P|500:113|486:11,2,179.9999945068,2|2|2,0:0|0:0|0:0,0:0:0:0:
445,367,5429,2,0,L|346:369,1,89.99999725342,2|0,0:0|0:0,0:0:0:0:
274,328,6103,2,0,P|264:283|277:235,1,89.99999725342,2|2,0:0|0:0,0:0:0:0:
297,202,6608,1,2,0:0:0:0:
154,28,7451,6,0,P|67:31|21:104,1,179.9999945068,2|2,0:0|0:0,0:0:0:0:
39,283,8799,1,2,0:0:0:0:
256,192,8968,12,2,10822,0:0:0:0:
210,305,11490,6,0,L|97:299,1,100,6|2,1:2|0:0,0:0:0:0:
37,230,12164,2,0,L|43:117,1,100,2|2,1:2|0:0,0:0:0:0:
122,69,12838,2,0,L|235:75,1,100,2|2,1:2|0:0,0:0:0:0:
299,137,13512,2,0,L|293:250,1,100,2|2,1:2|0:0,0:0:0:0:
352,317,14186,6,0,P|400:325|447:308,1,100,14|0,0:0|1:0,0:0:0:0:
479,269,14692,2,0,L|473:169,1,100,14|0,0:0|1:0,0:0:0:0:
467,119,15197,1,14,0:0:0:0:
391,53,15534,2,0,B|299:33|338:90|228:67,1,150,0|0,1:0|1:0,0:0:0:0:
198,54,16209,1,12,0:0:0:0:
98,52,16546,1,12,0:0:0:0:
25,120,16883,6,0,L|28:232,1,100,14|10,0:0|0:0,0:0:0:0:
79,305,17557,1,10,0:0:0:0:
178,311,17894,1,10,0:0:0:0:
259,252,18231,2,0,L|256:140,1,100,14|10,0:0|0:0,0:0:0:0:
310,67,18905,1,10,0:0:0:0:
409,65,19242,1,10,0:0:0:0:
474,140,19579,6,0,L|477:196,1,50,6|2,1:2|1:2,0:0:0:0:
480,239,19916,1,10,0:0:0:0:
428,325,20254,2,0,L|372:328,1,50,10|2,0:0|1:2,0:0:0:0:
329,331,20591,1,10,0:0:0:0:
230,316,20928,2,0,B|188:306|154:325|154:325|118:305|118:305|82:334|29:322,1,200,14|10,0:0|3:0,0:0:0:0:
55,225,21939,1,6,3:0:0:0:
117,146,22276,6,0,P|132:92|121:36,1,100,4|2,1:2|1:2,0:0:0:0:
215,5,22950,1,2,1:2:0:0:
305,48,23287,1,2,1:2:0:0:
266,140,23624,2,0,P|253:187|260:237,1,100,2|2,1:2|1:2,0:0:0:0:
324,313,24298,2,0,P|371:326|421:319,1,100,2|2,1:2|1:2,0:0:0:0:
499,256,24973,6,0,L|500:146,1,100,2|0,1:2|1:0,0:0:0:0:
481,109,25478,1,2,0:0:0:0:
481,109,25647,2,0,P|422:92|372:106,1,100,2|0,1:2|1:0,0:0:0:0:
296,144,26321,2,0,P|250:151|191:123,1,100,2|0,1:2|1:0,0:0:0:0:
158,106,26827,1,2,0:0:0:0:
158,106,26995,2,0,L|52:111,1,100,2|0,1:2|1:0,0:0:0:0:
34,207,27669,6,0,P|63:246|74:295,1,100,0|2,1:0|1:2,0:0:0:0:
129,378,28343,1,2,1:2:0:0:
229,373,28681,1,2,1:2:0:0:
274,283,29018,2,0,P|322:273|371:280,1,100,2|2,1:2|1:2,0:0:0:0:
468,253,29692,1,2,1:2:0:0:
498,157,30029,1,2,1:2:0:0:
412,104,30366,6,0,L|299:108,1,100,2|0,1:2|1:0,0:0:0:0:
263,120,30872,1,2,0:0:0:0:
263,120,31040,2,0,P|248:160|257:219,1,100,2|0,1:2|1:0,0:0:0:0:
207,303,31714,2,0,P|158:314|109:303,1,100,2|0,1:2|1:0,0:0:0:0:
66,279,32220,1,2,0:0:0:0:
66,279,32388,2,0,L|67:167,1,100,2|0,1:2|1:0,0:0:0:0:
67,78,33063,5,4,1:2:0:0:
154,30,33400,1,2,1:2:0:0:
241,79,33737,1,2,1:2:0:0:
233,178,34074,1,2,1:2:0:0:
299,252,34411,2,0,L|411:249,1,100,2|2,1:2|1:2,0:0:0:0:
486,200,35085,1,2,1:2:0:0:
489,100,35422,1,2,1:2:0:0:
399,54,35759,6,0,L|296:56,1,100,2|0,1:2|1:0,0:0:0:0:
261,88,36265,1,2,0:0:0:0:
261,88,36433,2,0,P|212:99|163:89,1,100,2|0,1:2|1:0,0:0:0:0:
65,69,37107,2,0,P|43:103|39:175,1,100,2|0,1:2|1:0,0:0:0:0:
63,203,37613,1,2,0:0:0:0:
63,203,37782,2,0,L|61:309,1,100,2|0,1:2|1:0,0:0:0:0:
149,349,38456,6,0,P|195:330|247:339,1,100,2|0,1:2|1:0,0:0:0:0:
293,342,38961,1,2,0:0:0:0:
293,342,39130,2,0,L|290:226,1,100,2|0,1:2|1:0,0:0:0:0:
309,143,39804,2,0,P|355:126|405:133,1,100,2|0,1:2|1:0,0:0:0:0:
482,196,40478,2,0,L|479:306,1,100,2|0,1:2|1:0,0:0:0:0:
392,344,41152,6,0,L|278:341,1,100,2|0,1:2|1:0,0:0:0:0:
243,328,41658,1,2,0:0:0:0:
243,328,41827,2,0,L|140:333,1,100,2|0,1:2|1:0,0:0:0:0:
43,331,42501,2,0,P|11:263|47:181,1,150,2|2,0:0|0:0,0:0:0:0:
66,158,43175,1,2,0:0:0:0:
242,63,43849,6,0,P|328:35|428:83,1,200,6|0,1:2|0:0,0:0:0:0:
488,154,44860,2,0,L|485:217,1,50,0|0,0:0|0:0,0:0:0:0:
466,250,45197,2,0,B|423:259|390:243|390:243|357:249|337:271|337:271|309:281|266:271,1,200,8|0,3:0|0:0,0:0:0:0:
85,331,46546,6,0,P|89:252|38:132,1,200,2|2,1:2|0:2,0:0:0:0:
67,43,47557,2,0,L|133:45,1,50,0|0,0:0|0:0,0:0:0:0:
166,50,47894,2,0,B|211:62|248:45|248:45|297:56|297:56|330:39|372:44,1,200,10|2,3:0|0:0,0:0:0:0:
484,207,49242,6,0,P|448:268|449:356,2,150,2|2|0,1:2|0:0|0:0,0:0:0:0:
432,120,50591,2,0,B|368:114|368:114|324:141|324:141|292:131|228:134,1,200,10|0,3:0|0:0,0:0:0:0:
163,196,51602,2,0,L|99:195,1,50,0|2,0:0|0:0,0:0:0:0:
63,201,51939,2,0,P|22:250|34:339,2,150,2|2|0,1:2|0:0|0:0,0:0:0:0:
117,285,53287,2,0,L|229:287,1,100,2|0,0:0|0:0,0:0:0:0:
266,290,53793,1,2,0:0:0:0:
346,349,54130,2,0,P|403:359|446:343,1,100,2|2,0:0|0:0,0:0:0:0:
482,317,54636,6,0,L|484:213,1,100,6|0,1:2|1:0,0:0:0:0:
483,117,55310,1,0,1:0:0:0:
407,51,55647,2,0,L|346:55,1,50,2|2,1:2|0:0,0:0:0:0:
313,29,55984,2,0,P|268:19|211:41,1,100,0|0,1:0|1:0,0:0:0:0:
184,129,56658,2,0,L|192:237,1,100,0|0,1:0|1:0,0:0:0:0:
191,278,57164,1,2,0:0:0:0:
191,278,57332,6,0,L|85:287,1,100,2|0,1:2|1:0,0:0:0:0:
10,227,58006,1,0,1:0:0:0:
32,129,58343,2,0,L|95:124,1,50,2|2,1:2|0:0,0:0:0:0:
119,92,58681,2,0,P|158:73|222:80,1,100,2|0,1:2|1:0,0:0:0:0:
310,101,59355,2,0,P|357:114|415:99,1,100,2|0,1:2|0:0,0:0:0:0:
452,85,59860,1,2,0:0:0:0:
452,85,60029,6,0,L|455:193,1,100,2|2,1:2|1:2,0:0:0:0:
422,222,60534,2,0,L|427:337,1,100,2|0,0:0|0:0,0:0:0:0:
399,364,61040,1,2,1:2:0:0:
312,313,61377,2,0,L|212:323,1,100,2|0,1:2|1:0,0:0:0:0:
128,269,62051,1,2,1:2:0:0:
128,169,62388,1,0,1:0:0:0:
208,109,62725,6,0,P|258:102|311:119,1,100,2|0,1:2|1:0,0:0:0:0:
386,174,63400,2,0,L|486:172,1,100,0|2,1:0|1:2,0:0:0:0:
510,74,64074,1,2,1:2:0:0:
421,26,64411,1,2,1:2:0:0:
341,86,64748,1,2,1:2:0:0:
386,174,65085,1,2,1:2:0:0:
342,263,65422,6,0,P|288:275|233:260,1,100,6|0,1:2|1:0,0:0:0:0:
161,210,66096,2,0,L|59:220,1,100,8|0,0:0|1:0,0:0:0:0:
15,199,66602,1,8,0:0:0:0:
15,199,66770,2,0,L|4:89,1,100,0|0,1:0|1:0,0:0:0:0:
80,32,67445,2,0,P|128:27|180:57,1,100,8|8,0:0|0:0,0:0:0:0:
202,89,67950,1,8,0:0:0:0:
202,89,68119,1,2,0:0:0:0:
202,89,70815,6,0,L|205:205,1,100,6|8,1:2|0:0,0:0:0:0:
286,242,71489,1,0,1:0:0:0:
356,170,71827,2,0,L|419:172,1,50,10|2,0:0|0:2,0:0:0:0:
455,179,72164,2,0,P|479:224|475:286,1,100,2|8,1:2|0:0,0:0:0:0:
425,356,72838,1,0,1:0:0:0:
325,349,73175,2,0,L|256:348,1,50,10|2,0:0|0:0,0:0:0:0:
230,324,73512,6,0,P|181:312|133:323,1,100,2|8,1:2|0:0,0:0:0:0:
38,356,74186,2,0,P|31:304|29:248,1,100,0|8,1:0|0:0,0:0:0:0:
64,220,74692,1,2,0:0:0:0:
64,220,74860,2,0,P|65:162|63:118,1,100,2|8,1:2|0:0,0:0:0:0:
65,20,75534,1,0,1:0:0:0:
164,29,75872,2,0,L|225:23,1,50,10|2,0:0|0:0,0:0:0:0:
263,32,76209,6,0,P|286:71|277:137,1,100,4|8,1:2|0:0,0:0:0:0:
245,216,76883,1,0,1:0:0:0:
311,290,77220,2,0,L|375:285,1,50,10|2,0:0|0:0,0:0:0:0:
400,259,77557,2,0,P|452:253|503:254,1,100,2|10,1:2|0:0,0:0:0:0:
479,155,78231,2,0,P|473:102|474:52,1,100,0|8,1:0|0:0,0:0:0:0:
375,73,78905,6,0,P|322:78|272:78,1,100,6|8,1:2|0:0,0:0:0:0:
229,57,79411,2,0,B|179:43|179:43|121:60,1,100,4|0,1:2|0:0,0:0:0:0:
87,76,79916,1,14,0:0:0:0:
38,163,80254,2,0,L|44:269,1,100,2|0,1:2|0:0,0:0:0:0:
50,310,80759,1,8,3:0:0:0:
145,339,81096,2,0,P|204:339|246:313,1,100,4|0,3:0|0:0,0:0:0:0:
254,272,81602,6,0,L|250:156,1,100,6|8,1:2|0:0,0:0:0:0:
255,72,82276,1,0,1:0:0:0:
352,51,82613,2,0,L|408:52,1,50,10|2,0:0|0:0,0:0:0:0:
450,62,82950,2,0,P|476:95|482:156,1,100,2|8,1:2|0:0,0:0:0:0:
436,239,83624,2,0,L|325:241,1,100,0|8,1:0|0:0,0:0:0:0:
291,263,84130,1,2,0:0:0:0:
291,263,84298,6,0,L|192:263,1,100,2|8,1:2|0:0,0:0:0:0:
92,279,84973,1,0,1:0:0:0:
11,221,85310,2,0,L|7:158,1,50,10|2,0:0|0:0,0:0:0:0:
13,121,85647,2,0,P|52:102|114:111,1,100,2|8,1:2|0:0,0:0:0:0:
200,142,86321,2,0,P|258:140|296:117,1,100,2|8,1:2|0:0,0:0:0:0:
367,52,86995,6,0,L|473:60,1,100,6|8,1:2|0:0,0:0:0:0:
512,72,87501,2,0,B|527:114|494:159|494:159|503:233,1,150,2|10,0:0|0:0,0:0:0:0:
413,264,88343,2,0,L|306:266,1,100,2|10,1:2|0:0,0:0:0:0:
280,171,89018,1,2,1:2:0:0:
187,133,89355,1,10,0:0:0:0:
107,193,89692,6,0,P|100:217|99:242,1,50,14|0,0:2|1:0,0:0:0:0:
110,290,90029,2,0,P|124:310|142:327,1,50,8|0,0:0|1:0,0:0:0:0:
187,350,90366,2,0,P|211:352|236:348,1,50,8|0,0:0|1:0,0:0:0:0:
279,323,90703,1,10,0:0:0:0:
340,243,91040,2,0,L|340:142,1,100,14|2,0:0|1:2,0:0:0:0:
311,101,91546,2,0,P|263:88|210:98,1,100,14|10,0:0|0:0,0:0:0:0:
161,126,92051,1,2,0:0:0:0:
