osu file format v14

[General]
AudioFilename: audio.mp3
AudioLeadIn: 0
PreviewTime: 61206
Countdown: 1
SampleSet: Soft
StackLeniency: 0.7
Mode: 0
LetterboxInBreaks: 0
WidescreenStoryboard: 0

[Editor]
Bookmarks: 2095,3714,7275,10620,15476,17311,29829,30908,37599,42886,44289,54649,56052,57886,61556,66304
DistanceSpacing: 0.3
BeatDivisor: 4
GridSize: 16
TimelineZoom: 2.399999

[Metadata]
Title:Deal with the devil(TV size)
TitleUnicode:Deal with the devil(TV size)
Artist:Tia
ArtistUnicode:Tia
Creator:Timu
Version:Completely Overmapped hot garbage
Source:Kakegurui
Tags:
BeatmapID:1929079
BeatmapSetID:923731

[Difficulty]
HPDrainRate:4
CircleSize:3.6
OverallDifficulty:7
ApproachRate:10
SliderMultiplier:2.5
SliderTickRate:2

[Events]
//Background and Video events
0,0,"kakegurui-wallpapers-25923-6533014.jpg",0,0
//Break Periods
//Storyboard Layer 0 (Background)
//Storyboard Layer 1 (Fail)
//Storyboard Layer 2 (Pass)
//Storyboard Layer 3 (Foreground)
//Storyboard Layer 4 (Overlay)
//Storyboard Sound Samples

[TimingPoints]
349,422.535211267606,4,2,0,65,1,0
349,-125,4,2,0,65,0,0
1944,-66.6666666666667,4,1,0,75,0,0
3753,422.535211267606,4,1,0,75,1,0
3753,-66.6666666666667,4,1,0,75,0,0
7157,-133.333333333333,4,1,0,75,0,0
10462,422.535211267606,4,1,0,75,1,0
17263,422.535211267606,4,1,0,75,1,0
17263,-133.333333333333,4,2,0,85,0,0
19923,-133.333333333333,4,2,0,85,0,0
20643,-399.999999999997,4,2,0,85,0,0
23706,-133.333333333333,4,2,0,85,0,0
29093,-1000,4,2,0,85,0,0
29939,-66.6666666666667,4,2,0,85,0,0
36910,-100,4,2,0,85,0,0

[HitObjects]
164,169,349,5,0,0:0:0:0:
180,160,560,6,2,L|234:123,2,50
229,272,982,6,2,L|262:207,2,50
393,291,1405,6,2,L|378:237,2,50
469,243,1827,1,0,0:0:0:0:
281,63,2039,6,0,P|328:150|370:135,2,93.7500035762788,0|0|0,0:3|0:3|0:3,0:3:0:0:
408,271,2356,2,0,P|315:204|293:215,1,93.7500035762788
311,298,2567,1,0,0:0:0:0:
452,171,2672,1,0,0:0:0:0:
170,256,2778,6,0,P|91:191|158:184,1,187.500007152558
215,188,3095,2,0,P|228:189|212:186,1,93.7500035762788
328,345,3306,2,0,P|408:341|342:351,1,375.000014305115
161,282,3858,5,0,0:0:0:0:
442,109,4069,1,0,0:0:0:0:
23,184,4386,5,0,0:0:0:0:
450,281,4492,1,0,0:0:0:0:
109,312,4703,1,0,0:0:0:0:
339,199,4809,2,0,P|244:212|331:196,1,562.500021457673
486,268,5548,1,0,0:0:0:0:
118,216,5760,1,0,0:0:0:0:
353,85,6076,5,0,0:0:0:0:
80,283,6182,1,0,0:0:0:0:
454,157,6393,1,0,0:0:0:0:
242,259,6710,6,0,P|265:165|248:184,1,375.000014305115
161,199,7238,2,0,P|111:213|57:180,2,93.7500035762788
388,118,7872,2,0,P|360:82|317:67,2,93.7500035762788
150,242,8400,2,0,L|129:300,1,46.8750017881394
273,261,8612,2,0,B|299:238|299:238|345:285,1,93.7500035762788,0|4,0:0|0:0,0:0:0:0:
237,81,10462,6,0,P|170:95|131:158,1,125
356,171,10884,1,0,0:0:0:0:
278,146,10990,1,0,0:0:0:0:
224,208,11095,1,0,0:0:0:0:
401,50,11202,2,0,P|456:96|455:133,1,62.5
112,208,11413,5,0,0:0:0:0:
174,265,11518,1,0,0:0:0:0:
247,226,11624,1,0,0:0:0:0:
383,186,11730,2,0,P|369:247|332:245,1,62.5
378,77,11941,1,0,0:0:0:0:
309,296,12047,1,0,0:0:0:0:
326,118,12152,1,0,0:0:0:0:
397,313,12258,1,0,0:0:0:0:
89,109,12363,6,0,P|118:47|101:31,1,62.5
43,47,12574,1,0,0:0:0:0:
171,147,12679,1,0,0:0:0:0:
10,98,12785,1,0,0:0:0:0:
219,46,12891,1,0,0:0:0:0:
73,200,12996,1,0,0:0:0:0:
366,118,13102,2,0,P|380:156|362:186,2,62.5
204,285,13419,5,0,0:0:0:0:
279,150,13524,1,0,0:0:0:0:
141,230,13630,5,0,0:0:0:0:
364,225,13736,1,0,0:0:0:0:
171,80,13841,5,0,0:0:0:0:
278,336,13947,2,0,P|289:252|275:231,1,62.5
97,149,14158,1,0,0:0:0:0:
100,236,14264,1,0,0:0:0:0:
174,271,14370,1,0,0:0:0:0:
243,240,14475,1,0,0:0:0:0:
292,182,14581,1,0,0:0:0:0:
361,141,14686,1,0,0:0:0:0:
194,108,14792,6,0,P|258:73|292:75,3,62.5
322,285,15321,1,0,0:0:0:0:
175,278,15426,1,0,0:0:0:0:
441,251,15532,5,0,0:0:0:0:
389,50,15637,1,0,0:0:0:0:
214,192,15743,1,0,0:0:0:0:
382,160,15849,1,0,0:0:0:0:
78,222,15954,5,0,0:0:0:0:
165,27,16060,1,0,0:0:0:0:
16,113,16166,5,0,0:0:0:0:
350,71,16271,1,0,0:0:0:0:
266,292,16483,5,0,0:0:0:0:
191,80,16694,1,0,0:0:0:0:
358,34,16800,6,0,B|346:54|346:54|341:66,13,20.8333333333333
177,146,17685,2,0,P|181:115|152:54,2,93.7500035762788
374,168,18319,2,0,P|303:224|306:251,1,93.7500035762788
128,256,18741,2,0,P|172:294|224:283,2,93.7500035762788
363,87,19375,2,0,P|277:60|277:40,1,93.7500035762788
101,148,19798,2,0,P|144:180|190:156,1,93.7500035762788
372,49,20220,2,0,P|321:91|275:68,1,93.7500035762788
90,284,20643,2,0,P|88:307|96:310,1,31.25
190,215,21065,2,0,P|197:201|188:189,1,31.25
34,184,21488,6,0,P|20:202|25:209,1,31.25
222,166,21910,2,0,P|235:158|233:143,1,31.25
50,30,22333,6,0,P|27:36|27:44,1,31.25
286,175,22755,2,0,P|300:177|308:164,1,31.25
233,108,23178,1,0,1:0:0:0:
270,101,23284,1,0,1:0:0:0:
229,332,23495,5,0,1:0:0:0:
105,226,23601,1,0,1:0:0:0:
255,189,23706,6,0,L|285:181,6,23.4375008940697
109,101,24234,5,0,0:0:0:0:
270,101,24445,2,0,P|222:73|178:80,1,93.7500035762788
197,211,24868,1,0,0:0:0:0:
353,175,25079,1,0,0:0:0:0:
145,302,25291,2,0,P|203:316|276:292,1,93.7500035762788
401,232,25713,6,0,P|332:258|284:238,1,93.7500035762788
81,261,26136,2,0,P|135:235|202:243,1,93.7500035762788
380,141,26558,2,0,P|325:174|267:167,1,93.7500035762788
43,170,26981,2,0,P|98:124|153:127,1,93.7500035762788
249,350,27403,6,0,L|222:258,1,93.7500035762788
263,34,27826,2,0,L|290:126,1,93.7500035762788
223,374,28248,2,0,L|196:282,1,93.7500035762788
286,10,28671,2,0,L|313:101,1,93.7500035762788
246,202,29093,6,0,L|218:161,1,50
325,172,30044,6,0,L|306:127,1,46.8750017881394
353,137,30150,2,0,L|311:115,1,46.8750017881394
366,93,30255,2,0,L|319:96,1,46.8750017881394
353,36,30361,2,0,L|309:97,1,46.8750017881394
261,22,30467,2,0,L|312:77,1,46.8750017881394
189,106,30572,2,0,L|265:104,1,46.8750017881394
209,208,30678,2,0,L|252:173,1,46.8750017881394
305,263,30784,1,0,0:0:0:0:
147,54,30995,6,0,B|156:160|156:160|167:122,2,93.7500035762788
197,295,31312,2,0,L|212:194,1,93.7500035762788
304,80,31523,2,0,L|289:181,1,93.7500035762788
320,256,31734,1,0,0:0:0:0:
384,176,31840,1,0,0:0:0:0:
17,199,32051,5,0,0:0:0:0:
64,277,32156,1,0,0:0:0:0:
152,300,32262,1,0,0:0:0:0:
232,255,32367,1,0,0:0:0:0:
257,24,32473,6,0,B|262:76|262:76|297:102|297:102|219:195,1,187.500007152558
130,80,32790,1,0,0:0:0:0:
364,188,32896,1,0,0:0:0:0:
75,237,33108,2,0,B|178:222|178:222|114:156,1,187.500007152558
223,293,33424,5,0,0:0:0:0:
266,230,33530,1,0,0:0:0:0:
253,154,33636,1,0,0:0:0:0:
258,75,33741,1,0,0:0:0:0:
320,24,33847,1,0,0:0:0:0:
392,50,33953,1,0,0:0:0:0:
344,296,34164,6,0,B|358:191|358:191|287:276,1,187.500007152558
226,236,34481,1,0,0:0:0:0:
154,186,34586,1,0,0:0:0:0:
187,105,34692,1,0,0:0:0:0:
290,88,34798,2,0,B|400:71|400:71|281:164,1,187.500007152558
314,144,35220,1,0,0:0:0:0:
322,226,35326,1,0,0:0:0:0:
354,306,35432,5,0,0:0:0:0:
261,318,35643,2,0,P|224:233|224:140,1,187.500007152558
348,83,36065,2,0,B|250:83|250:83|294:163,1,187.500007152558
358,227,36488,1,0,0:0:0:0:
358,227,36699,1,0,0:0:0:0:
64,118,36910,5,0,0:0:0:0:
83,75,37016,1,0,0:0:0:0:
155,42,37122,1,0,0:0:0:0:
233,48,37228,1,0,0:0:0:0:
184,161,37333,2,0,P|197:163|217:154,6,20.8333333333333
