osu file format v14

[General]
AudioFilename: audio.mp3
AudioLeadIn: 0
PreviewTime: 0
Countdown: 0
SampleSet: Soft
StackLeniency: 0.4
Mode: 0
LetterboxInBreaks: 0
WidescreenStoryboard: 1

[Editor]
Bookmarks: 10476,17236,44304,57825
DistanceSpacing: 0.7
BeatDivisor: 4
GridSize: 32
TimelineZoom: 2.52

[Metadata]
Title:Deal with the devil
TitleUnicode:Deal with the devil
Artist:Tia
ArtistUnicode:Tia
Creator:UndeadCapulet
Version:Normal
Source:賭ケグルイ
Tags:ryo(supercell) kakegurui compulsive gambler opening tv size kwk foxygrandpa xilver mir aeril sdafsf air imbor meat inspector 102335 _83 bor borborygmos pyroflayer shanipika shiguma dwtd
BeatmapID:1438725
BeatmapSetID:659328

[Difficulty]
HPDrainRate:2
CircleSize:3
OverallDifficulty:4
ApproachRate:5.5
SliderMultiplier:1.29999990463256
SliderTickRate:1

[Events]
//Background and Video events
0,0,"compulsive gambling.png",0,0
//Break Periods
//Storyboard Layer 0 (Background)
//Storyboard Layer 1 (Fail)
//Storyboard Layer 2 (Pass)
//Storyboard Layer 3 (Foreground)
//Storyboard Sound Samples

[TimingPoints]
322,425.531914893617,4,2,1,50,1,0
3727,425.531914893617,4,2,1,60,1,0
4790,-100,4,2,1,50,0,0
5429,-100,4,2,1,60,0,0
7131,413.793103448276,4,2,1,50,1,0
8268,-100,4,2,1,40,0,0
8786,422.535211267606,4,2,1,50,1,0
10476,422.535211267606,4,2,1,70,1,0
15546,431.654676258993,4,2,1,80,1,0
16840,425.531914893617,4,2,1,60,1,0
16840,-100,4,2,1,60,0,0
17183,-100,4,2,1,5,0,0
17236,-100,4,2,1,35,0,0
17265,421.052631578947,4,2,1,35,1,0
20633,422.535211267606,4,2,1,35,1,0
23292,-100,4,2,1,50,0,0
24013,422.535211267606,4,2,1,35,1,0
24013,-100,4,2,1,35,0,0
28872,390.879478827362,4,2,1,35,1,0
29067,431.654676258993,4,2,1,30,1,0
29876,-100,4,2,1,5,0,0
29930,-100,4,2,1,50,0,0
30361,422.535211267606,4,2,1,50,1,0
30783,422.535211267606,4,2,1,60,1,0
33846,-100,4,2,1,65,0,0
34163,-100,4,2,1,70,0,0
34585,-100,4,2,1,60,0,0
36804,-100,4,2,1,50,0,0
37543,424.028268551237,4,2,1,60,1,0
37543,-100,4,2,1,60,0,0
40606,-100,4,2,1,65,0,0
40935,419.58041958042,4,2,1,70,1,0
40935,-100,4,2,1,70,0,0
41135,-100,4,2,1,60,0,0
41346,-100,4,2,1,50,0,0
41768,-100,4,2,1,55,0,0
42191,-100,4,2,1,60,0,0
42402,-100,4,2,1,70,0,0
42613,422.535211267606,4,2,1,75,1,0
42613,-100,4,2,1,75,0,0
43881,-100,4,2,1,50,0,0
44251,-100,4,2,1,5,0,0
44303,422.535211267606,4,2,1,40,1,0
44303,-100,4,2,1,40,0,0
47472,-100,4,2,1,50,0,0
51063,-100,4,2,1,60,0,0
51433,-100,4,2,1,5,0,0
51486,-100,4,2,1,40,0,0
54443,-100,4,2,1,50,0,0
54866,-100,4,2,1,55,0,0
55289,-100,4,2,1,60,0,0
55711,-100,4,2,1,65,0,0
56133,-100,4,2,1,80,0,0
57401,-100,4,2,1,60,0,0
59514,-100,4,2,1,70,0,0
61151,-100,4,2,1,5,0,0
61204,-100,4,2,1,50,0,0
61362,-100,4,2,1,5,0,0
61415,-90.9090909090909,4,2,1,85,0,1
64796,-90.9090909090909,4,2,1,90,0,1
66204,-90.9090909090909,4,2,1,80,0,1
67014,-90.9090909090909,4,2,1,85,0,1
67331,-90.9090909090909,4,2,1,60,0,1
67912,-90.9090909090909,4,2,1,5,0,1
67965,-90.9090909090909,4,2,1,30,0,1
68176,-90.9090909090909,4,2,1,100,0,1
68387,-90.9090909090909,4,2,1,85,0,1
70359,-90.9090909090909,4,2,1,80,0,1
70500,-90.9090909090909,4,2,1,75,0,1
71345,-90.9090909090909,4,2,1,60,0,1
71556,-90.9090909090909,4,2,1,70,0,1
72824,-90.9090909090909,4,2,1,50,0,1
73035,-90.9090909090909,4,2,1,90,0,1
73880,-90.9090909090909,4,2,1,70,0,1
74091,-90.9090909090909,4,2,1,60,0,1
74884,-90.9090909090909,4,2,1,5,0,1
74936,-90.9090909090909,4,2,1,85,0,1
78317,-90.9090909090909,4,2,1,90,0,1
79690,-90.9090909090909,4,2,1,80,0,1
80535,-90.9090909090909,4,2,1,85,0,1
80852,-90.9090909090909,4,2,1,60,0,1
81433,-90.9090909090909,4,2,1,5,0,1
81486,-90.9090909090909,4,2,1,30,0,1
81697,-90.9090909090909,4,2,1,100,0,1
81908,-90.9090909090909,4,2,1,85,0,1
84866,-90.9090909090909,4,2,1,60,0,1
85077,-90.9090909090909,4,2,1,70,0,1
86345,-90.9090909090909,4,2,1,50,0,1
86556,431.654676258993,4,2,1,90,1,1
86556,-90.9090909090909,4,2,1,90,0,1
87402,-90.9090909090909,4,2,1,70,0,1
87635,408.163265306122,4,2,1,60,1,1
88194,-90.9090909090909,4,2,1,5,0,1
88247,384.615384615385,4,2,1,80,1,0
88439,454.545454545455,4,2,1,80,1,0
89007,410.958904109589,4,2,1,80,1,0
89828,428.571428571429,4,2,1,80,1,0
91113,521.739130434783,4,2,1,80,1,0
91569,-100,4,2,1,5,0,0
91634,422.535211267606,4,2,1,80,1,0
93271,-100,4,2,1,5,0,0
93324,-100,4,2,1,100,0,0
94169,-100,4,2,1,50,0,0
94195,-100,4,2,1,5,0,0

[Colours]
Combo1 : 214,171,171
Combo2 : 208,100,103

[HitObjects]
122,35,2024,6,0,B|188:38|227:93|227:93|158:109|112:162|112:162|178:188|198:263,1,389.999971389768,2|4,0:0|1:3,0:0:0:0:
226,339,3727,6,0,B|237:177|237:177|274:159,2,194.999985694884,0|0|0,3:0|3:0|3:0,0:0:0:0:
312,366,5429,2,0,B|314:228|314:228|387:197,2,194.999985694884,0|0|0,3:0|3:0|3:0,0:0:0:0:
405,366,7131,6,0,B|449:338|497:247|465:183|398:188|340:168|327:145|322:83|348:28|398:21|460:34|468:83,1,454.999966621396,2|0,1:2|3:0,0:0:0:0:
481,90,8786,1,4,1:3:0:0:
481,90,10476,6,0,P|445:98|354:67,1,129.999990463256,4|0,1:0|1:0,0:0:0:0:
330,106,11109,2,0,P|276:66|143:54,1,194.999985694884,2|2,0:0|1:3,0:0:0:0:
83,111,12166,2,0,P|95:161|92:252,1,129.999990463256,4|2,3:0|1:2,0:0:0:0:
131,265,12799,2,0,P|130:310|139:343,1,64.999995231628,0|0,0:0|0:0,0:0:0:0:
220,359,13433,2,0,P|237:312|207:218,1,129.999990463256,0|4,1:0|1:0,0:0:0:0:
204,146,14278,5,0,1:0:0:0:
204,146,14490,2,0,P|278:144|377:224,1,194.999985694884,2|2,0:0|1:3,0:0:0:0:
415,293,15546,6,0,B|402:247|402:247|410:190|410:190|396:131|396:131|406:80,2,194.999985694884,4|0|2,1:3|3:0|3:2,0:0:0:0:
336,338,17265,6,0,L|202:329,1,129.999990463256,4|2,0:0|0:0,0:0:0:0:
233,242,18107,2,0,L|99:251,1,129.999990463256,0|2,0:0|0:0,0:0:0:0:
34,190,18949,2,0,L|163:198,1,129.999990463256,0|2,0:0|0:0,0:0:0:0:
137,112,19791,2,0,L|266:103,1,129.999990463256,0|2,0:0|0:0,0:0:0:0:
318,27,20633,6,0,L|283:233,1,194.999985694884,2|0,0:3|0:0,0:0:0:0:
351,339,21900,2,0,L|383:146,2,194.999985694884,2|0|0,0:0|0:0|0:0,0:0:0:0:
397,162,24013,6,0,L|389:18,1,129.999990463256,4|2,3:2|0:0,0:0:0:0:
309,76,24858,2,0,L|301:220,1,129.999990463256,0|2,0:0|0:0,0:0:0:0:
216,237,25703,2,0,L|208:107,1,129.999990463256,0|2,0:0|0:0,0:0:0:0:
128,64,26548,2,0,L|120:193,1,129.999990463256,0|2,0:0|0:0,0:0:0:0:
30,181,27393,6,0,L|222:249,1,194.999985694884,2|0,0:3|0:0,0:0:0:0:
269,371,28660,2,0,L|137:324,1,125.3791469,2|4,0:0|0:3,0:0:0:0:
58,328,29930,2,0,P|30:288|85:246,1,129.999990463256,0|0,1:0|3:0,0:0:0:0:
76,154,30783,6,0,P|127:175|223:176,1,129.999990463256,4|0,1:0|1:0,0:0:0:0:
225,91,31628,2,0,P|276:70|372:69,1,129.999990463256,0|0,0:0|1:0,0:0:0:0:
411,132,32473,2,0,P|360:153|264:154,1,129.999990463256,4|0,1:3|1:0,0:0:0:0:
262,69,33318,2,0,P|211:48|115:47,1,129.999990463256,0|0,1:0|1:0,0:0:0:0:
74,109,34163,6,0,P|59:196|30:246,1,129.999990463256,4|0,1:3|1:0,0:0:0:0:
83,246,34797,2,0,P|150:302|179:352,1,129.999990463256,2|0,0:0|0:0,0:0:0:0:
206,306,35430,2,0,P|287:275|345:275,2,129.999990463256,0|0|0,1:0|1:0|1:0,0:0:0:0:
278,361,36698,2,0,B|392:372|345:315|489:336,1,194.999985694884,0|0,1:0|3:0,0:0:0:0:
500,365,37543,6,0,P|455:286|448:242,1,129.999990463256,4|0,1:0|1:0,0:0:0:0:
393,175,38391,2,0,P|438:96|445:52,1,129.999990463256,0|0,0:0|1:0,0:0:0:0:
357,30,39239,2,0,P|312:109|305:153,1,129.999990463256,4|0,1:3|1:0,0:0:0:0:
250,220,40087,2,0,P|295:299|302:343,1,129.999990463256,0|0,1:0|1:0,0:0:0:0:
211,349,40935,6,0,P|139:280|125:243,1,129.999990463256,4|0,1:3|3:0,0:0:0:0:
135,208,41564,2,0,P|103:157|103:143,1,64.999995231628,0|0,0:0|3:0,0:0:0:0:
123,113,41983,2,0,P|91:62|91:48,1,64.999995231628,0|0,0:0|3:0,0:0:0:0:
167,10,42613,6,0,B|196:52|196:52|243:29|243:29|287:53|287:53|353:54|353:54,2,194.999985694884,4|0|2,1:3|3:0|3:2,0:0:0:0:
78,33,44303,5,4,1:2:0:0:
104,119,44725,2,0,L|85:247,1,129.999990463256,2|0,0:0|0:0,0:0:0:0:
218,371,45993,1,0,0:0:0:0:
164,297,46415,2,0,L|183:169,2,129.999990463256,2|0|2,0:0|0:0|0:3,0:0:0:0:
218,371,47683,5,0,1:0:0:0:
303,339,48105,2,0,L|290:182,1,129.999990463256,2|0,0:0|0:0,0:0:0:0:
434,95,49373,2,0,P|479:91|505:95,2,64.999995231628,0|0|0,1:0|3:0|3:0,0:0:0:0:
402,62,50007,2,0,P|344:73|266:62,1,129.999990463256,2|0,0:0|0:0,0:0:0:0:
247,27,50641,1,2,3:2:0:0:
205,107,51063,6,0,P|158:93|176:11,1,129.999990463256,4|4,1:3|0:0,0:0:0:0:
247,27,51908,2,0,P|342:38|403:55,2,129.999990463256,0|2|0,0:0|0:0|1:0,0:0:0:0:
205,107,53176,2,0,P|110:118|49:135,2,129.999990463256,2|0|2,0:0|0:0|0:0,0:0:0:0:
294,119,54443,5,0,1:0:0:0:
334,200,54866,1,0,1:0:0:0:
253,240,55289,1,0,1:0:0:0:
213,159,55711,1,0,1:0:0:0:
302,141,56134,6,0,B|255:148|255:148|209:113|209:113|173:124|173:124|98:122,2,194.999985694884,4|0|2,1:3|3:0|3:2,0:0:0:0:
256,192,57824,12,0,59514,1:0:0:0:
309,81,60781,6,0,L|284:232,1,129.999990463256,0|0,1:0|1:0,0:0:0:0:
254,246,61415,6,0,P|234:191|211:87,1,142.999993873595,4|0,1:1|0:0,0:0:0:0:
178,73,62049,1,0,1:0:0:0:
137,102,62260,2,0,L|124:245,1,142.999993873595,2|0,0:0|1:0,0:0:0:0:
91,282,62894,1,2,1:3:0:0:
89,331,63105,6,0,B|225:325|149:369|309:356,2,214.499990810393,4|0|2,1:2|1:0|3:2,0:0:0:0:
13,264,64796,2,0,B|127:190|83:266|216:175,2,214.499990810393,4|0|8,1:2|1:0|1:2,0:0:0:0:
52,294,66274,2,0,P|97:286|46:117,1,285.99998774719,0|2,0:0|3:0,0:0:0:0:
45,163,67331,1,4,1:3:0:0:
254,42,68176,6,0,P|257:109|275:187,1,142.999993873595,4|0,1:0|3:0,0:0:0:0:
316,208,68810,1,0,1:0:0:0:
359,184,69021,2,0,L|344:39,1,142.999993873595,2|0,0:0|1:0,0:0:0:0:
392,26,69655,1,4,3:0:0:0:
436,48,69866,2,0,P|432:113|516:257,1,214.499990810393,0|4,1:0|1:3,0:0:0:0:
448,329,70922,6,0,P|392:289|290:286,1,142.999993873595,0|0,0:0|3:0,0:0:0:0:
279,309,71556,2,0,P|228:277|70:218,2,214.499990810393,0|0|0,1:0|1:0|0:0,0:0:0:0:
300,354,73035,6,0,B|338:312|378:305|378:305|380:257|325:238|325:238|371:212|379:159|379:159|356:132|353:87,1,357.499984683988,0|0,1:0|1:0,0:0:0:0:
353,93,74936,6,0,P|347:165|285:223,1,142.999993873595,4|0,1:1|0:0,0:0:0:0:
255,194,75570,1,0,1:0:0:0:
209,171,75782,2,0,L|275:38,1,142.999993873595,2|0,0:0|1:0,0:0:0:0:
224,28,76415,1,2,1:3:0:0:
174,35,76627,6,0,B|94:140|159:125|60:243,2,214.499990810393,4|0|2,1:2|1:0|3:2,0:0:0:0:
226,120,78317,2,0,B|209:250|258:205|231:357,2,214.499990810393,4|0|8,1:2|1:0|1:2,0:0:0:0:
268,93,79796,2,0,P|313:141|165:223,1,285.99998774719,0|2,0:0|3:0,0:0:0:0:
225,213,80852,1,4,1:3:0:0:
58,346,81697,6,0,P|61:297|54:174,1,142.999993873595,4|0,1:0|3:0,0:0:0:0:
76,156,82331,1,0,1:0:0:0:
125,155,82542,2,0,L|202:290,1,142.999993873595,2|0,0:0|1:0,0:0:0:0:
242,296,83176,1,4,3:0:0:0:
291,289,83387,2,0,P|289:207|411:129,1,214.499990810393,0|4,1:0|1:3,0:0:0:0:
450,52,84443,6,0,P|386:25|296:37,1,142.999993873595,0|0,0:0|3:0,0:0:0:0:
289,73,85077,2,0,P|223:73|70:26,2,214.499990810393,0|0|0,1:0|1:0|0:0,0:0:0:0:
259,113,86556,6,0,B|317:137|337:162|337:162|339:210|284:229|284:229|330:255|338:308|338:308|276:303|249:346,1,357.499984683988,0|0,1:0|1:0,0:0:0:0:
123,288,88247,5,4,1:0:0:0:
123,288,89007,1,4,1:2:0:0:
123,288,89828,1,4,1:2:0:0:
308,157,90899,2,0,L|310:84,1,64.999995231628,0|0,1:0|1:0,0:0:0:0:
419,69,91634,5,4,1:0:0:0:
419,69,92373,1,4,1:2:0:0:
419,69,93324,6,0,B|384:43|384:43|345:62|345:62|310:36|310:36|272:65|272:65|238:46,1,216.666650772093,4|0,1:0|1:0,0:0:0:0:
