osu file format v14

[General]
AudioFilename: audio.mp3
AudioLeadIn: 0
PreviewTime: 0
Countdown: 0
SampleSet: Soft
StackLeniency: 0.2
Mode: 0
LetterboxInBreaks: 0
WidescreenStoryboard: 1

[Editor]
Bookmarks: 2026,3728,7132,10476,13856,17236,27377,30783,42825
DistanceSpacing: 0.3
BeatDivisor: 6
GridSize: 16
TimelineZoom: 2.2

[Metadata]
Title:Deal with the devil
TitleUnicode:Deal with the devil
Artist:Tia
ArtistUnicode:Tia
Creator:UndeadCapulet
Version:Expert
Source:賭ケグルイ
Tags:ryo(supercell) kakegurui compulsive gambler opening tv size kwk foxygrandpa xilver mir aeril sdafsf air imbor meat inspector 102335 _83 bor borborygmos pyroflayer shanipika shiguma dwtd
BeatmapID:1396342
BeatmapSetID:659328

[Difficulty]
HPDrainRate:5
CircleSize:4
OverallDifficulty:9
ApproachRate:10
SliderMultiplier:3.59999990463257
SliderTickRate:1

[Events]
//Background and Video events
0,0,"compulsive gambling.png",0,0
//Break Periods
//Storyboard Layer 0 (Background)
//Storyboard Layer 1 (Fail)
//Storyboard Layer 2 (Pass)
//Storyboard Layer 3 (Foreground)
//Storyboard Sound Samples

[TimingPoints]
322,425.531914893617,4,2,1,50,1,0
2449,-117.647058823529,4,2,1,50,0,0
2875,-142.857142857143,4,2,1,50,0,0
3300,-50,4,2,1,50,0,0
3727,425.531914893617,4,2,1,60,1,0
3727,-57.1428571428571,4,2,1,60,0,0
4790,-200,4,2,1,50,0,0
5429,-57.1428571428571,4,2,1,60,0,0
6812,-133.333333333333,4,2,1,60,0,0
7131,413.793103448276,4,2,1,50,1,0
7131,-66.6666666666667,4,2,1,50,0,0
8268,-100,4,2,1,40,0,0
8579,-66.6666666666667,4,2,1,40,0,0
8786,422.535211267606,4,2,1,50,1,0
10476,422.535211267606,4,2,1,70,1,0
10476,-50,4,2,1,70,0,0
13574,-66.6666666666667,4,2,1,70,0,0
13856,-50,4,2,1,70,0,0
15546,431.654676258993,4,2,1,80,1,0
15546,-40,4,2,1,80,0,0
16840,425.531914893617,4,2,1,60,1,0
16840,-57.1428571428571,4,2,1,60,0,0
17183,-57.1428571428571,4,2,1,5,0,0
17265,421.052631578947,4,2,1,35,1,0
17265,-200,4,2,1,35,0,0
20633,422.535211267606,4,2,1,35,1,0
23292,-66.6666666666667,4,2,1,50,0,0
24013,422.535211267606,4,2,1,35,1,0
24013,-200,4,2,1,35,0,0
28872,390.879478827362,4,2,1,35,1,0
29067,431.654676258993,4,2,1,30,1,0
29067,-1000,4,2,1,30,0,0
29876,-1000,4,2,1,5,0,0
29930,-66.6666666666667,4,2,1,50,0,0
30361,422.535211267606,4,2,1,50,1,0
30783,422.535211267606,4,2,1,60,1,0
30783,-66.6666666666667,4,2,1,60,0,0
33846,-57.1428571428571,4,2,1,65,0,0
34163,-50,4,2,1,70,0,0
34585,-66.6666666666667,4,2,1,60,0,0
36804,-57.1428571428571,4,2,1,50,0,0
37543,424.028268551237,4,2,1,60,1,0
37543,-66.6666666666667,4,2,1,60,0,0
40606,-57.1428571428571,4,2,1,65,0,0
40935,419.58041958042,4,2,1,70,1,0
40935,-50,4,2,1,70,0,0
41135,-66.6666666666667,4,2,1,60,0,0
41346,-100,4,2,1,50,0,0
41768,-80,4,2,1,55,0,0
42191,-66.6666666666667,4,2,1,60,0,0
42402,-57.1428571428571,4,2,1,70,0,0
42613,422.535211267606,4,2,1,75,1,0
42613,-40,4,2,1,75,0,0
43880,-57.1428571428571,4,2,1,50,0,0
44250,-57.1428571428571,4,2,1,5,0,0
44303,422.535211267606,4,2,1,40,1,0
44303,-200,4,2,1,40,0,0
47472,-100,4,2,1,50,0,0
47683,-200,4,2,1,50,0,0
49373,-100,4,2,1,50,0,0
50112,-133.333333333333,4,2,1,50,0,0
51063,-66.6666666666667,4,2,1,60,0,0
51433,-66.6666666666667,4,2,1,5,0,0
51486,-200,4,2,1,40,0,0
54443,-285.714285714286,4,2,1,50,0,0
54866,-200,4,2,1,55,0,0
55288,-153.846153846154,4,2,1,60,0,0
55711,-125,4,2,1,65,0,0
56133,-40,4,2,1,80,0,0
57401,-57.1428571428571,4,2,1,60,0,0
59514,-50,4,2,1,70,0,0
60781,-200,4,2,1,70,0,0
61151,-200,4,2,1,5,0,0
61204,-100,4,2,1,50,0,0
61362,-100,4,2,1,5,0,0
61415,-40,4,2,1,85,0,1
63422,-37.7358490566038,4,2,1,85,0,1
63739,-35.7142857142857,4,2,1,85,0,1
64056,-33.3333333333333,4,2,1,85,0,1
64584,-400,4,2,1,85,0,1
64795,-33.3333333333333,4,2,1,90,0,1
65112,-31.7460317460317,4,2,1,90,0,1
65429,-30.3030303030303,4,2,1,90,0,1
65746,-28.5714285714286,4,2,1,90,0,1
65993,-25,4,2,1,90,0,1
66204,-66.6666666666667,4,2,1,80,0,1
67014,-40,4,2,1,85,0,1
67331,-57.1428571428571,4,2,1,60,0,1
67912,-57.1428571428571,4,2,1,5,0,1
67964,-133.333333333333,4,2,1,30,0,0
68176,-25,4,2,1,100,0,1
68387,-25,4,2,1,85,0,1
68598,-40,4,2,1,85,0,1
70359,-66.6666666666667,4,2,1,80,0,1
70500,-40,4,2,1,75,0,1
71345,-400,4,2,1,60,0,1
71556,-50,4,2,1,70,0,1
72824,-200,4,2,1,50,0,1
73035,-33.3333333333333,4,2,1,90,0,1
73880,-25,4,2,1,70,0,0
74091,-57.1428571428571,4,2,1,60,0,1
74883,-57.1428571428571,4,2,1,5,0,0
74936,-40,4,2,1,85,0,1
76943,-37.7358490566038,4,2,1,85,0,1
77260,-35.7142857142857,4,2,1,85,0,1
77577,-33.3333333333333,4,2,1,85,0,1
78105,-400,4,2,1,85,0,1
78317,-33.3333333333333,4,2,1,90,0,1
78633,-31.7460317460317,4,2,1,90,0,1
78950,-30.3030303030303,4,2,1,90,0,1
79267,-28.5714285714286,4,2,1,90,0,1
79514,-25,4,2,1,90,0,1
79690,-66.6666666666667,4,2,1,80,0,1
80535,-40,4,2,1,85,0,1
80852,-57.1428571428571,4,2,1,60,0,1
81433,-57.1428571428571,4,2,1,5,0,1
81486,-133.333333333333,4,2,1,30,0,0
81697,-25,4,2,1,100,0,1
81908,-40,4,2,1,85,0,1
84866,-400,4,2,1,60,0,1
85077,-50,4,2,1,70,0,1
86345,-200,4,2,1,50,0,1
86556,431.654676258993,4,2,1,90,1,1
86556,-33.3333333333333,4,2,1,90,0,1
87419,-25,4,2,1,70,0,0
87635,408.163265306122,4,2,1,60,1,1
87635,-57.1428571428571,4,2,1,60,0,1
88196,-57.1428571428571,4,2,1,5,0,0
88247,384.615384615385,4,2,1,80,1,0
88247,-40,4,2,1,80,0,0
88439,454.545454545455,4,2,1,80,1,0
88439,-40,4,2,1,80,0,0
88779,-200,4,2,1,80,0,0
89007,410.958904109589,4,2,1,80,1,0
89007,-40,4,2,1,80,0,0
89623,-200,4,2,1,80,0,0
89828,428.571428571429,4,2,1,80,1,0
89828,-40,4,2,1,80,0,0
90470,-200,4,2,1,80,0,0
90899,-33.3333333333333,4,2,1,80,0,0
91113,521.739130434783,4,2,1,80,1,0
91113,-50,4,2,1,80,0,0
91569,-50,4,2,1,5,0,0
91634,422.535211267606,4,2,1,80,1,0
91634,-40,4,2,1,80,0,0
92162,-200,4,2,1,80,0,0
92373,-40,4,2,1,80,0,0
93007,-200,4,2,1,80,0,0
93271,-200,4,2,1,5,0,0
93324,-20,4,2,1,100,0,1
94169,-20,4,2,1,50,0,0
94195,-20,4,2,1,5,0,0

[Colours]
Combo1 : 214,171,171
Combo2 : 208,100,103

[HitObjects]
96,112,2024,6,0,L|172:64,1,59.9999984105428,2|0,0:0|0:0,0:0:0:0:
234,92,2165,2,0,L|310:140,1,59.9999984105428
372,112,2307,2,0,L|448:64,1,59.9999984105428
138,164,2449,6,0,L|178:109,1,50.9999996217092,2|0,0:0|0:0,0:0:0:0:
244,124,2591,2,0,L|284:179,1,50.9999996217092
350,164,2733,2,0,L|390:109,1,50.9999996217092
218,216,2875,6,0,L|230:169,1,41.9999976056418,2|0,0:0|0:0,0:0:0:0:
250,177,3017,2,0,L|262:224,1,41.9999976056418
282,216,3158,2,0,L|294:169,1,41.9999976056418
262,252,3300,6,0,B|242:331|242:331|111:297|66:138|156:22|288:-2|392:60|418:175,1,629.9999833107,4|0,1:3|0:0,0:0:0:0:
314,363,3727,5,0,3:0:0:0:
250,299,3833,1,0,3:0:0:0:
160,295,3939,1,0,0:0:0:0:
137,207,4046,1,0,3:0:0:0:
63,155,4152,2,0,P|90:106|30:27,1,157.499997329712,2|0,0:0|0:0,0:0:0:0:
198,363,4365,5,0,3:0:0:0:
262,299,4471,1,0,3:0:0:0:
352,295,4577,1,0,0:0:0:0:
375,207,4684,1,0,3:0:0:0:
449,155,4790,2,0,L|461:122,2,29.9999992052714,2|0|0,0:0|0:0|0:0,0:0:0:0:
441,4,5003,6,0,L|428:31,3,29.9999992052714,0|0|0|0,3:0|0:0|0:0|0:0,0:0:0:0:
337,18,5429,5,0,3:0:0:0:
411,68,5535,1,0,3:0:0:0:
409,157,5642,1,0,0:0:0:0:
475,219,5748,1,0,3:0:0:0:
403,274,5854,2,0,P|377:272|351:373,1,157.499997329712,2|0,0:0|0:0,0:0:0:0:
175,18,6067,5,0,3:0:0:0:
101,68,6173,1,0,3:0:0:0:
103,157,6280,1,0,0:0:0:0:
37,219,6386,1,0,3:0:0:0:
109,274,6493,2,0,P|135:272|161:373,1,157.499997329712,2|0,0:0|0:0,0:0:0:0:
52,323,6705,5,0,3:0:0:0:
247,158,6812,2,2,B|301:92|300:27|300:27|279:40,1,168.750001966953,0|0,1:0|0:0,0:1:0:0:
280,40,7131,6,0,P|323:57|367:94,1,67.5000007867814,2|0,1:2|0:0,0:0:0:0:
465,186,7268,1,2,0:0:0:0:
432,296,7475,5,2,0:0:0:0:
358,227,7682,5,2,0:0:0:0:
282,275,7889,5,2,0:0:0:0:
226,214,8096,5,2,0:0:0:0:
218,224,8268,6,0,P|214:262|176:239,1,89.9999976158143,2|0,0:0|3:0,0:0:0:0:
167,245,8579,2,0,L|97:-15,1,270.000003147125,0|4,3:0|1:3,0:0:0:0:
131,347,10053,5,0,3:0:0:0:
131,347,10124,1,0,3:0:0:0:
131,347,10194,1,0,3:0:0:0:
131,347,10264,1,0,3:0:0:0:
131,347,10335,1,0,3:0:0:0:
131,347,10405,1,0,3:0:0:0:
131,347,10476,6,0,P|160:252|43:226,1,239.999993642171,4|0,1:0|0:0,0:0:0:0:
23,301,10687,1,0,3:0:0:0:
292,315,10828,5,0,0:0:0:0:
292,315,10898,2,0,B|361:217|361:217|453:321,1,239.999993642171,0|0,1:0|0:0,0:0:0:0:
227,376,11109,1,2,0:0:0:0:
301,175,11250,5,0,0:0:0:0:
301,175,11321,1,0,3:0:0:0:
199,285,11461,2,0,P|227:158|206:38,1,239.999993642171,2|0,0:0|0:0,0:0:0:0:
107,36,11673,5,0,0:0:0:0:
107,36,11743,2,2,P|241:72|363:24,1,239.999993642171,2|0,1:3|0:0,0:1:0:0:
334,43,11954,2,0,P|200:7|78:55,1,239.999993642171,0|0,3:0|0:0,0:0:0:0:
359,22,12166,5,4,3:0:0:0:
512,165,12307,1,0,0:0:0:0:
512,165,12377,1,0,3:0:0:0:
386,119,12518,5,0,0:0:0:0:
386,119,12588,2,0,P|332:103|172:177,1,239.999993642171,2|0,1:2|0:0,0:0:0:0:
38,105,12799,5,0,0:0:0:0:
173,175,12940,2,0,P|119:218|23:101,1,239.999993642171,2|0,0:0|0:0,0:0:0:0:
65,371,13152,2,0,P|22:330|0:275,1,119.999996821086,0|0,0:0|3:0,0:0:0:0:
99,302,13292,5,0,0:0:0:0:
99,302,13363,1,0,3:0:0:0:
99,302,13433,1,0,1:0:0:0:
380,337,13574,1,4,3:0:0:0:
407,340,13645,2,0,B|471:296|457:219|457:219|432:200|366:250,1,180.000002098084,0|0,3:0|0:0,0:0:0:0:
457,223,13856,6,0,P|382:169|475:49,1,239.999993642171,4|0,1:0|0:0,0:0:0:0:
512,76,14067,1,0,0:0:0:0:
246,189,14208,5,0,0:0:0:0:
246,189,14278,2,0,B|126:186|126:186|164:44,1,239.999993642171,0|0,1:0|0:0,0:0:0:0:
328,179,14490,1,2,0:0:0:0:
236,25,14630,5,0,0:0:0:0:
236,25,14701,1,0,3:0:0:0:
290,255,14842,2,0,P|402:333|507:365,1,239.999993642171,2|0,0:0|0:0,0:0:0:0:
480,288,15053,5,0,0:0:0:0:
479,287,15123,2,2,P|364:257|247:279,1,239.999993642171,2|0,1:3|0:0,0:1:0:0:
248,279,15335,2,0,P|376:234|340:155,1,179.999995231629,0|0,3:0|0:0,0:0:0:0:
116,4,15546,6,0,B|8:32|8:32|119:92,1,224.999994039536,4|0,1:3|0:0,0:0:0:0:
396,4,15761,2,0,B|504:32|504:32|393:92,1,224.999994039536,0|0,1:0|0:0,0:0:0:0:
206,0,15977,6,0,L|202:111,1,112.499997019768,0|0,1:0|0:0,0:0:0:0:
273,125,16085,2,0,L|253:235,1,112.499997019768,0|0,3:0|0:0,0:0:0:0:
311,278,16193,2,0,L|275:385,1,112.499997019768,0|0,3:0|0:0,0:0:0:0:
96,329,16301,6,0,B|20:367|20:367|167:385,1,224.999994039536,2|0,1:3|0:0,0:0:0:0:
416,329,16517,2,0,B|492:367|492:367|345:385,1,224.999994039536,0|0,1:0|0:0,0:0:0:0:
115,253,16733,6,0,L|221:288,1,112.499997019768,0|0,1:0|0:0,0:0:0:0:
269,346,16840,2,0,B|158:251|133:49|255:0|255:0|270:75|349:91|401:35,1,551.249990653992,2|0,3:2|0:0,3:0:0:0:
372,51,17265,5,4,0:0:0:0:
456,28,17475,1,0,0:0:0:0:
466,154,17686,5,2,0:0:0:0:
383,146,17896,1,0,0:0:0:0:
308,177,18036,5,0,0:0:0:0:
308,177,18107,1,0,0:0:0:0:
422,213,18317,1,0,0:0:0:0:
383,146,18457,5,0,0:0:0:0:
383,146,18528,1,2,0:0:0:0:
369,274,18738,1,0,0:0:0:0:
436,326,18879,5,0,0:0:0:0:
436,326,18949,1,0,0:0:0:0:
422,213,19159,1,0,0:0:0:0:
369,274,19300,5,0,0:0:0:0:
369,274,19370,1,2,0:0:0:0:
374,381,19580,1,0,0:0:0:0:
315,332,19721,5,0,0:0:0:0:
315,332,19791,1,0,0:0:0:0:
436,326,20001,1,0,0:0:0:0:
315,332,20142,5,0,0:0:0:0:
315,332,20212,1,2,0:0:0:0:
224,340,20422,2,0,L|163:329,1,59.9999984105428,0|0,3:0|0:0,0:0:0:0:
91,353,20633,5,2,0:3:0:0:
16,323,20844,1,0,0:0:0:0:
26,241,20985,5,0,0:0:0:0:
26,241,21055,1,2,0:0:0:0:
91,353,21266,1,0,0:0:0:0:
110,269,21407,5,0,0:0:0:0:
110,269,21478,1,0,0:0:0:0:
13,159,21689,1,0,0:0:0:0:
94,178,21830,5,0,0:0:0:0:
94,178,21900,1,2,0:0:0:0:
11,79,22111,1,0,0:0:0:0:
13,159,22252,5,0,0:0:0:0:
13,159,22323,1,0,0:0:0:0:
76,28,22534,1,0,0:0:0:0:
125,101,22675,5,0,0:0:0:0:
125,101,22745,1,2,0:0:0:0:
192,16,22956,1,0,0:0:0:0:
125,101,23097,5,0,0:0:0:0:
125,101,23168,1,0,0:0:0:0:
235,83,23309,2,2,B|310:83|345:63|345:63|374:87|419:98,1,180.000002098084,0|0,1:0|0:0,0:1:0:0:
485,102,23520,1,0,0:0:0:0:
502,131,23590,5,0,3:0:0:0:
502,131,23661,1,0,3:0:0:0:
502,131,23731,1,0,3:0:0:0:
502,131,23802,1,0,3:0:0:0:
502,131,23872,1,0,3:0:0:0:
502,131,23942,1,0,3:0:0:0:
502,131,24013,5,4,3:2:0:0:
466,206,24224,1,0,0:0:0:0:
407,147,24365,5,0,0:0:0:0:
407,147,24435,1,2,0:0:0:0:
408,265,24646,1,0,0:0:0:0:
466,206,24787,5,0,0:0:0:0:
466,206,24858,1,0,0:0:0:0:
336,176,25069,1,0,0:0:0:0:
277,230,25210,5,0,0:0:0:0:
277,230,25280,1,2,0:0:0:0:
408,265,25491,1,0,0:0:0:0:
398,345,25632,5,0,0:0:0:0:
398,345,25703,1,0,0:0:0:0:
507,285,25914,1,0,0:0:0:0:
477,360,26055,5,0,0:0:0:0:
477,360,26125,1,2,0:0:0:0:
320,357,26336,1,0,0:0:0:0:
334,281,26477,5,0,0:0:0:0:
334,281,26548,1,0,0:0:0:0:
212,263,26759,1,0,0:0:0:0:
334,281,26900,5,0,0:0:0:0:
334,281,26970,1,2,0:0:0:0:
289,198,27182,2,0,L|204:178,1,59.9999984105428,0|0,3:0|0:0,0:0:0:0:
150,203,27393,5,2,0:3:0:0:
98,136,27604,1,0,0:0:0:0:
32,195,27745,5,0,0:0:0:0:
32,195,27815,1,2,0:0:0:0:
150,203,28027,1,0,0:0:0:0:
98,136,28167,5,0,0:0:0:0:
98,136,28238,1,0,0:0:0:0:
144,16,28449,1,0,0:0:0:0:
174,96,28590,5,0,0:0:0:0:
174,96,28660,1,2,0:0:0:0:
150,203,28872,1,0,0:0:0:0:
146,293,28969,5,0,0:0:0:0:
177,368,29067,2,0,L|170:300,1,68.9999981721243,4|0,0:3|0:0,3:0:0:0:
274,347,29930,5,0,1:0:0:0:
355,350,30038,2,0,B|416:368|416:368|436:296|382:260|338:258|286:285|267:334|290:391,1,315.000003671646,0|0,0:0|0:0,0:0:0:0:
498,357,30361,2,0,L|490:294,5,59.9999984105428,0|0|0|0|0|0,3:0|3:0|3:0|3:0|3:0|3:0,0:0:0:0:
478,203,30783,6,0,P|498:124|359:96,1,202.500002360344,4|0,1:0|0:0,0:0:0:0:
394,188,30994,2,0,P|329:187|239:145,1,135.000001573563,0|0,3:0|0:0,0:0:0:0:
84,44,31205,2,0,B|97:6|97:6|54:32|39:81,1,135.000001573563,0|0,1:0|0:0,0:0:0:0:
30,158,31416,5,2,0:0:0:0:
164,257,31522,2,0,L|186:105,1,135.000001573563,0|0,3:0|0:0,0:0:0:0:
285,290,31733,2,0,P|308:233|254:206,1,135.000001573563,0|0,3:0|0:0,0:0:0:0:
95,356,31944,5,0,3:0:0:0:
191,267,32050,1,0,1:0:0:0:
285,289,32156,1,0,0:0:0:0:
388,216,32261,2,0,L|251:205,1,135.000001573563,2|2,0:0|0:3,0:0:0:0:
435,343,32473,5,4,1:3:0:0:
472,185,32578,1,0,0:0:0:0:
410,127,32684,2,0,P|381:47|503:31,1,202.500002360344,0|0,3:0|0:0,0:0:0:0:
321,20,32895,6,0,L|293:289,1,270.000003147125,0|0,1:0|0:0,0:0:0:0:
344,235,33212,5,0,3:0:0:0:
188,316,33318,1,0,1:0:0:0:
146,250,33423,2,0,P|168:189|232:174,1,135.000001573563,0|0,0:0|0:0,0:0:0:0:
75,306,33635,5,0,3:0:0:0:
31,139,33740,1,0,1:0:0:0:
95,78,33846,2,0,B|135:65|157:86|157:86|177:60|196:54|196:54|288:82,2,157.499997329712,2|0|2,0:0|0:0|0:3,0:0:0:0:
78,111,34163,6,0,B|183:136|252:93|252:93|301:126|350:133|350:133|394:78|464:87,1,359.999990463257,4|0,1:3|0:0,0:0:0:0:
374,16,34480,1,0,3:0:0:0:
223,4,34585,2,0,P|159:38|86:30,1,135.000001573563,0|0,1:0|0:0,0:0:0:0:
11,56,34797,5,2,0:0:0:0:
52,200,34902,2,0,P|107:202|137:305,1,135.000001573563,0|0,3:0|0:0,0:0:0:0:
291,111,35113,2,0,P|234:142|226:207,1,135.000001573563,0|0,3:0|0:0,0:0:0:0:
211,313,35325,5,0,3:0:0:0:
378,213,35430,1,0,1:0:0:0:
360,141,35536,1,0,0:0:0:0:
289,35,35642,2,0,L|423:43,1,135.000001573563,2|0,0:0|0:0,0:0:0:0:
423,43,35800,5,0,0:0:0:0:
423,43,35853,1,0,1:0:0:0:
495,106,35959,1,0,0:0:0:0:
400,238,36064,2,0,B|438:289|438:289|506:270,1,135.000001573563,0|0,3:0|0:0,0:0:0:0:
272,129,36275,2,0,P|127:124|171:244,1,270.000003147125,0|0,1:0|0:0,0:0:0:0:
322,198,36592,5,0,3:0:0:0:
315,348,36698,1,0,1:0:0:0:
233,357,36804,2,0,B|195:329|154:332|154:332|105:351|64:341,2,157.499997329712,2|0|0,0:0|0:0|0:0,0:0:0:0:
14,298,37121,5,0,3:0:0:0:
6,267,37191,1,0,3:0:0:0:
4,235,37261,1,0,3:0:0:0:
8,203,37332,1,0,3:0:0:0:
22,174,37402,1,0,3:0:0:0:
41,149,37473,1,0,3:0:0:0:
64,128,37543,6,0,P|143:194|266:138,1,202.500002360344,4|0,1:0|0:0,0:0:0:0:
105,37,37755,2,0,P|220:18|292:54,1,135.000001573563,0|0,3:0|0:0,0:0:0:0:
462,106,37967,2,0,B|454:92|474:126|474:126|426:135|382:88,1,135.000001573563,0|0,1:0|0:0,0:0:0:0:
327,23,38179,5,2,0:0:0:0:
309,177,38285,2,0,L|470:218,1,135.000001573563,0|0,3:0|0:0,0:0:0:0:
249,260,38497,2,0,P|288:310|351:296,1,135.000001573563,0|0,3:0|0:0,0:0:0:0:
233,174,38709,5,0,3:0:0:0:
87,198,38815,1,0,1:0:0:0:
20,137,38921,1,0,0:0:0:0:
151,83,39027,2,0,L|286:83,1,135.000001573563,2|2,0:0|0:3,0:0:0:0:
14,36,39239,5,4,1:3:0:0:
119,172,39345,1,0,0:0:0:0:
65,234,39451,2,0,P|118:307|44:385,1,202.500002360344,0|0,3:0|0:0,0:0:0:0:
164,384,39663,2,0,L|191:116,1,270.000003147125,0|0,1:0|0:0,0:0:0:0:
210,235,39981,5,0,3:0:0:0:
413,337,40087,1,0,1:0:0:0:
445,263,40193,2,0,P|358:246|334:318,1,135.000001573563
512,316,40405,5,0,3:0:0:0:
487,99,40511,1,0,1:0:0:0:
420,52,40617,2,0,B|371:44|338:70|338:70|303:46|266:40,2,157.499997329712,2|0|2,0:0|0:0|0:3,0:0:0:0:
417,82,40935,6,0,B|343:135|258:73|258:73|209:148|109:140,1,239.999993642171,4|0,1:3|0:0,0:0:0:0:
121,128,41144,2,0,P|97:92|114:45,1,90.0000010490418
196,227,41284,5,0,0:0:0:0:
196,227,41354,2,0,P|163:315|77:313,1,179.999995231629,0|0,3:0|0:0,0:0:0:0:
276,225,41704,5,0,0:0:0:0:
276,225,41774,2,0,P|396:236|396:357,1,224.999994039536,0|0,3:0|0:0,0:0:0:0:
225,156,42123,5,0,0:0:0:0:
225,156,42193,2,0,P|183:72|267:27,1,202.500002360344,0|0,3:0|0:0,0:0:0:0:
355,145,42403,2,0,P|358:255|276:177,1,236.249995994568,0|0,3:0|0:0,0:0:0:0:
388,0,42613,6,0,B|513:37|513:37|474:122,1,224.999994039536,4|0,1:3|0:0,0:0:0:0:
124,0,42825,2,0,B|-1:37|-1:37|38:122,1,224.999994039536,0|0,1:0|0:0,0:0:0:0:
294,2,43035,6,0,L|311:113,1,112.499997019768,0|0,1:0|0:0,0:0:0:0:
239,141,43141,2,0,L|271:249,1,112.499997019768,0|0,3:0|0:0,0:0:0:0:
197,281,43246,2,0,L|245:384,1,112.499997019768,0|0,3:0|0:0,0:0:0:0:
382,326,43352,6,0,B|513:338|513:338|431:384,1,224.999994039536,2|0,1:3|0:0,0:0:0:0:
129,326,43563,2,0,B|-1:338|-1:338|81:384,1,224.999994039536,0|0,1:0|0:0,0:0:0:0:
363,213,43774,6,0,L|208:183,1,112.499997019768,0|0,1:0|0:0,0:0:0:0:
187,140,43880,2,0,B|128:145|98:183|98:183|182:281|335:266|408:204|408:204|388:154|330:135,1,551.249990653992,2|0,3:2|0:0,3:0:0:0:
256,102,44303,6,0,L|95:119,1,149.999996026357,4|0,1:2|0:0,0:0:0:0:
357,27,44725,6,0,P|316:34|207:7,1,149.999996026357,2|0,0:0|0:0,0:0:0:0:
428,40,45148,2,0,B|416:91|470:172|568:167|616:61|469:4|412:94|423:159|447:182,1,329.999991257986
478,339,45994,2,0,P|461:290|468:249,1,89.9999976158143
398,373,46345,1,0,0:0:0:0:
398,373,46415,2,0,B|361:354|343:336|343:336|320:355|301:369|263:372,1,149.999996026357,2|0,0:0|0:0,0:0:0:0:
225,284,46838,2,0,P|158:289|69:360,1,179.999995231629,0|2,0:0|0:3,0:0:0:0:
0,172,47401,5,0,0:0:0:0:
21,155,47472,2,0,L|2:87,1,59.9999984105428,0|0,3:0|0:0,0:0:0:0:
10,255,47683,5,0,1:0:0:0:
104,234,47894,2,0,P|136:223|172:223,1,59.9999984105428
161,221,48105,2,0,P|206:195|316:204,1,149.999996026357,2|0,0:0|0:0,0:0:0:0:
80,154,48528,2,0,P|83:88|133:45,2,134.999996423721
226,24,49373,6,0,L|352:37,1,89.9999976158143,0|0,1:0|0:0,0:0:0:0:
283,170,49584,2,0,L|381:90,1,89.9999976158143,0|0,3:0|0:0,0:0:0:0:
426,232,49795,2,0,L|439:105,1,89.9999976158143,0|0,3:0|0:0,0:0:0:0:
414,51,50007,5,2,0:0:0:0:
342,261,50112,2,0,B|356:299|392:332|392:332|364:324|343:341,2,135.000001573563,0|0|0,3:0|0:0|0:0,0:0:0:0:
346,338,50641,2,0,P|429:314|377:253,1,135.000001573563,2|2,3:2|0:3,0:0:0:0:
279,380,51063,6,2,B|235:375|210:350|210:350|165:391|98:376|101:235|166:348|-39:266|-5:429|222:506|218:219|46:197,1,472.50000550747,4|0,1:3|0:0,0:1:0:0:
32,184,51486,6,0,P|41:115|-13:115,1,134.999996423721,4|0,0:0|0:0,0:0:0:0:
169,84,52014,2,0,L|176:24,1,44.9999988079071,2|0,0:0|0:0,0:0:0:0:
251,54,52331,2,0,L|266:-4,1,44.9999988079071,2|0,0:0|0:0,0:0:0:0:
343,20,52542,1,0,3:0:0:0:
271,149,52753,2,0,P|302:114|346:100,1,89.9999976158143,0|0,1:0|0:0,0:0:0:0:
214,208,53176,6,0,P|177:212|181:135,1,134.999996423721,2|0,0:0|0:0,0:0:0:0:
296,262,53704,2,0,L|286:312,1,44.9999988079071,2|0,0:0|0:0,0:0:0:0:
206,299,54021,2,0,L|189:347,1,44.9999988079071,2|0,0:0|0:0,0:0:0:0:
112,355,54232,1,0,3:0:0:0:
391,370,54443,6,0,P|376:319|365:249,1,104.999994014104,0|0,1:0|0:0,0:0:0:0:
446,312,54866,2,0,P|392:249|350:180,1,149.999996026357,0|0,1:0|0:0,0:0:0:0:
480,233,55288,2,0,P|390:193|312:107,1,194.999985907873,0|0,1:0|0:0,0:0:0:0:
499,142,55711,2,0,P|418:126|261:55,1,239.999993642171,0|0,1:0|0:0,0:0:0:0:
13,7,56133,6,0,B|121:-5|121:-5|89:172,1,224.999994039536,4|0,1:3|0:0,0:0:0:0:
499,7,56345,2,0,B|391:-5|391:-5|423:172,1,224.999994039536,0|0,1:0|0:0,0:0:0:0:
202,0,56556,6,0,L|198:112,1,112.499997019768,0|0,1:0|0:0,0:0:0:0:
268,142,56662,2,0,L|249:253,1,112.499997019768,0|0,3:0|0:0,0:0:0:0:
324,270,56767,2,0,L|288:378,1,112.499997019768,0|0,3:0|0:0,0:0:0:0:
63,384,56873,6,0,B|1:349|1:349|85:298|85:298|162:377,1,224.999994039536,2|0,1:3|0:0,0:0:0:0:
449,384,57084,2,0,B|511:349|511:349|427:298|427:298|350:377,1,224.999994039536,0|0,1:0|0:0,0:0:0:0:
94,186,57295,6,0,L|227:212,1,112.499997019768,0|0,1:0|0:0,0:0:0:0:
246,283,57401,2,0,B|351:307|394:199|340:144|296:127|296:127|383:148|432:134|514:61|451:-38|387:-52|293:6|345:83,1,629.999989318848,2|2,3:2|3:0,3:0:0:0:
332,47,59514,6,0,L|205:71,1,89.9999976158143,0|0,1:0|0:0,0:0:0:0:
8,76,59619,1,0,1:0:0:0:
406,97,60148,6,0,L|277:87,1,89.9999976158143,0|0,1:0|0:0,0:0:0:0:
0,73,60253,1,0,1:0:0:0:
482,146,60781,6,0,L|325:124,1,157.499995827675,0|0,1:0|0:0,0:0:0:0:
502,215,61204,2,0,P|480:200|376:163,1,134.999996423721,0|0,1:0|0:0,0:0:0:0:
482,284,61415,6,0,P|423:182|227:270,1,337.499991059303,4|0,1:1|0:0,0:0:0:0:
285,384,61626,1,2,0:0:0:0:
96,331,61732,2,0,P|118:214|227:150,1,224.999994039536,0|0,3:0|0:0,0:0:0:0:
176,320,61943,5,0,0:0:0:0:
46,152,62049,2,0,B|129:43|129:43|245:92,1,224.999994039536,0|0,1:0|0:0,0:0:0:0:
433,97,62260,5,2,0:0:0:0:
512,84,62366,2,0,P|432:17|327:73,1,224.999994039536,0|0,3:0|0:0,0:0:0:0:
304,208,62577,5,0,0:0:0:0:
498,297,62683,2,0,P|418:362|342:293,1,224.999994039536,0|0,1:0|0:0,0:0:0:0:
40,317,62894,2,0,B|184:336|184:336|169:193,1,224.999994039536,2|0,1:3|0:0,0:0:0:0:
73,156,63105,6,0,B|165:87|231:145|236:145|242:145|314:202|449:110,1,337.499991059303,4|0,1:2|0:0,0:0:0:0:
491,134,63317,5,0,3:0:0:0:
71,164,63422,2,0,B|169:215|224:137|231:137|237:137|312:78|414:126,1,357.750005534649,0|0,1:0|0:0,0:0:0:0:
490,114,63633,5,0,3:0:0:0:
70,174,63739,2,0,B|152:63|237:137|242:137|247:137|353:214|429:137,1,377.999978450776,0|0,1:0|0:0,0:0:0:0:
485,94,63950,5,0,3:0:0:0:
69,182,64056,2,0,B|97:308|310:269|245:139|251:140|257:140|289:39|392:-2|496:28|533:202|389:232,1,630.000007343293,0|0,1:0|0:0,0:0:0:0:
283,366,64373,5,2,3:2:0:0:
190,52,64514,1,0,3:0:0:0:
247,4,64584,2,0,P|258:16|271:33,1,29.9999992052714,0|2,3:0|0:3,0:0:0:0:
447,250,64795,6,0,B|384:156|253:226|248:224|242:222|150:295|30:181,1,405.000004720688,4|0,1:2|0:0,0:0:0:0:
0,142,65007,5,0,3:0:0:0:
449,267,65112,2,0,B|349:323|265:228|260:227|255:226|178:112|59:194,1,425.250001306772,0|0,1:0|0:0,0:0:0:0:
12,130,65324,5,0,3:0:0:0:
452,281,65429,2,0,B|385:123|254:225|249:223|246:221|88:332|65:147,1,445.4999924469,0|0,1:0|0:0,0:0:0:0:
20,119,65641,5,0,3:0:0:0:
458,301,65746,2,0,B|307:350|268:227|263:225|258:224|250:-18|41:55|-92:162|-2:332|128:311,1,629.999989318848,0|0,1:0|0:0,0:0:0:0:
103,239,65993,2,0,P|120:169|35:8,1,239.999993642171,0|8,0:0|1:2,0:0:0:0:
39,11,66204,6,0,L|224:222,1,270.000003147125,4|0,1:0|0:0,0:0:0:0:
200,142,66486,1,0,0:0:0:0:
381,39,66591,5,0,3:0:0:0:
381,39,66644,1,0,3:0:0:0:
381,39,66697,1,0,3:0:0:0:
494,134,66803,1,0,3:0:0:0:
295,35,66908,1,0,3:0:0:0:
90,224,67014,6,0,B|67:387,1,112.499997019768,0|0,1:0|0:0,0:0:0:0:
9,384,67119,1,2,3:0:0:0:
31,382,67331,6,2,B|92:351|108:298|96:261|96:261|146:279|146:279|108:216|143:164|143:164|194:217|229:234|229:234|207:170|207:170|294:231|399:194|445:104|390:-12|302:-12|272:18,1,866.249985313416,4|0,1:3|0:0,0:1:0:0:
285,68,67964,2,0,P|331:90|365:88,2,44.9999988079071,8|0|8,0:3|0:0|0:3,0:0:0:0:
332,0,68176,6,0,P|506:131|369:397,1,539.999985694885,4|0,1:0|0:0,0:0:0:0:
342,339,68387,5,0,3:0:0:0:
17,299,68493,1,0,3:0:0:0:
46,167,68598,2,0,P|141:119|133:13,1,224.999994039536,0|0,3:0|0:0,0:0:0:0:
315,38,68810,2,0,B|345:142|280:222|275:223|269:224|221:279|244:355,1,337.499991059303,0|0,1:0|0:0,0:0:0:0:
394,132,69021,5,2,0:0:0:0:
460,76,69126,2,0,B|518:165|518:165|461:320,1,224.999994039536,0|0,3:0|0:0,0:0:0:0:
225,49,69338,5,0,0:0:0:0:
157,104,69443,2,0,P|81:87|33:217,1,224.999994039536,0|0,1:0|0:0,0:0:0:0:
87,253,69602,1,0,0:0:0:0:
87,253,69655,2,0,P|180:205|157:104,1,224.999994039536,4|0,3:0|0:0,0:0:0:0:
375,7,69866,6,0,P|396:147|456:270,1,224.999994039536,0|0,1:0|0:0,0:0:0:0:
497,384,70077,5,2,0:0:0:0:
482,203,70183,2,0,P|416:111|375:7,1,224.999994039536,0|0,3:0|0:0,0:0:0:0:
191,37,70359,6,0,P|255:43|341:-1,1,90.0000010490418
39,84,70500,2,0,B|91:23|201:0|280:38|280:38|266:70|223:84,1,337.499991059303,4|0,1:3|0:0,0:0:0:0:
121,126,70711,5,2,0:0:0:0:
45,266,70817,2,0,B|158:261|158:261|118:396,1,224.999994039536,0|0,3:0|0:0,0:0:0:0:
416,281,71063,5,0,0:0:0:0:
384,271,71133,2,0,P|391:181|489:214,1,112.499997019768,0|0,1:0|0:0,0:0:0:0:
505,127,71239,1,0,3:0:0:0:
447,24,71345,2,0,L|444:-2,1,22.4999994039536,0|2,3:0|0:3,0:0:0:0:
177,57,71556,6,0,P|264:36|352:55,1,179.999995231629,0|0,1:0|0:0,0:0:0:0:
256,251,71767,5,0,0:0:0:0:
372,98,71873,2,0,P|287:56|185:59,1,179.999995231629,0|0,3:0|0:0,0:0:0:0:
255,277,72084,5,0,0:0:0:0:
132,81,72190,2,0,B|209:150|246:88|250:89|255:90|319:41|392:125,1,269.999992847443,0|0,1:0|0:0,0:0:0:0:
380,192,72401,5,2,0:0:0:0:
139,277,72507,2,0,P|80:215|0:243,1,179.999995231629,0|0,3:0|0:0,0:0:0:0:
296,384,72718,5,0,0:0:0:0:
408,379,72824,2,0,L|487:365,1,67.4999982118607
465,182,73035,6,0,L|497:-21,1,180.000002098084,0|0,1:0|0:0,0:0:0:0:
426,29,73176,2,0,L|455:207,1,180.000002098084,0|0,3:0|0:0,0:0:0:0:
58,223,73317,6,0,L|26:20,1,180.000002098084,0|0,1:0|0:0,0:0:0:0:
96,70,73457,2,0,L|68:248,1,180.000002098084,0|0,3:0|0:0,0:0:0:0:
88,337,73598,6,0,L|265:372,1,180.000002098084,0|0,1:0|0:0,0:0:0:0:
443,345,73739,2,0,L|267:380,1,180.000002098084,0|0,3:0|0:0,0:0:0:0:
270,37,73880,6,0,B|174:120|256:224|262:229|266:234|386:293|327:429|171:424|180:290,1,479.999987284343,2|0,3:3|0:0,0:0:0:0:
242,322,74091,6,0,B|248:300|267:289|267:289|222:282|222:282|254:233|351:210|351:210|250:226|134:209|90:162|90:162|264:161|287:35|218:-61|142:-66|3:44|67:183|280:174|346:148|373:23,1,1181.24997997284,0|0,1:0|0:0,3:0:0:0:
298,14,74936,6,0,P|389:142|487:35,1,337.499991059303,4|0,1:1|0:0,0:0:0:0:
370,38,75148,1,2,0:0:0:0:
240,127,75253,2,0,P|152:40|24:33,1,224.999994039536,0|0,3:0|0:0,0:0:0:0:
105,214,75464,5,0,0:0:0:0:
248,275,75570,2,0,B|384:236|384:236|333:357,1,224.999994039536,0|0,1:0|0:0,0:0:0:0:
270,359,75729,5,0,0:0:0:0:
270,359,75781,1,2,0:0:0:0:
180,370,75887,2,0,P|123:284|250:196,1,224.999994039536,0|0,3:0|0:0,0:0:0:0:
19,121,76098,5,0,0:0:0:0:
186,195,76204,2,0,P|255:117|141:12,1,224.999994039536,0|0,1:0|0:0,0:0:0:0:
469,0,76415,2,0,B|376:67|376:67|473:119,1,224.999994039536,2|0,1:3|0:0,0:0:0:0:
467,261,76626,6,0,B|385:227|327:286|321:290|316:293|248:350|147:311,1,337.499991059303,4|0,1:2|0:0,0:0:0:0:
42,350,76838,5,0,3:0:0:0:
472,275,76943,2,0,B|397:365|313:289|306:288|300:288|220:207|112:317,1,357.750005534649,0|0,1:0|0:0,0:0:0:0:
45,360,77155,5,0,3:0:0:0:
475,285,77260,2,0,B|379:187|290:290|285:289|280:289|225:380|109:293,1,377.999978450776,0|0,1:0|0:0,0:0:0:0:
47,370,77472,5,0,3:0:0:0:
478,295,77577,2,0,B|458:376|337:384|298:287|289:284|279:281|237:154|114:109|-7:223|7:330|87:394,1,630.000007343293,0|0,1:0|0:0,0:0:0:0:
246,376,77894,5,2,3:2:0:0:
321,58,78035,1,0,3:0:0:0:
263,0,78105,2,0,P|251:10|241:31,1,29.9999992052714,0|2,3:0|0:3,0:0:0:0:
18,184,78317,6,0,B|125:107|219:175|223:176|229:178|304:245|436:135,1,405.000004720688,4|0,1:2|0:0,0:0:0:0:
470,114,78528,5,0,3:0:0:0:
14,200,78633,2,0,B|118:270|211:179|218:180|225:182|308:54|433:166,1,425.250001306772,0|0,1:0|0:0,0:0:0:0:
478,107,78845,5,0,3:0:0:0:
10,212,78950,2,0,B|99:67|235:173|240:171|246:171|352:280|437:124,1,445.4999924469,0|0,1:0|0:0,0:0:0:0:
485,101,79162,5,0,3:0:0:0:
9,223,79267,2,0,B|98:294|189:248|207:165|215:164|221:162|274:-1|465:5|527:126|506:250|407:285,1,629.999989318848,0|0,1:0|0:0,0:0:0:0:
395,246,79514,2,0,P|412:119|487:-7,1,239.999993642171,0|8,0:0|1:2,0:0:0:0:
477,10,79690,6,0,L|288:265,1,270.000003147125,4|0,1:0|0:0,0:0:0:0:
332,136,80007,1,0,0:0:0:0:
126,46,80112,5,0,3:0:0:0:
126,46,80165,1,0,3:0:0:0:
126,46,80218,1,0,3:0:0:0:
0,60,80324,1,0,3:0:0:0:
206,15,80429,1,0,3:0:0:0:
431,194,80535,6,0,L|468:372,1,112.499997019768,0|0,1:0|0:0,0:0:0:0:
503,367,80641,1,2,3:0:0:0:
487,384,80852,6,2,B|480:329|451:285|403:270|403:270|367:305|328:310|328:310|339:264|318:227|318:227|285:264|236:293|194:292|194:292|252:252|303:164|245:37|139:-11|13:73,1,866.249985313416,4|0,1:3|0:0,0:1:0:0:
53,117,81486,2,0,P|86:126|133:110,2,44.9999988079071,8|0|8,0:3|0:0|0:3,0:0:0:0:
67,24,81697,6,0,P|280:170|95:380,1,539.999985694885,4|0,1:0|0:0,0:0:0:0:
82,384,81908,5,0,3:0:0:0:
0,71,82014,1,0,3:0:0:0:
95,38,82119,2,0,P|178:56|324:3,1,224.999994039536,0|0,3:0|0:0,0:0:0:0:
470,174,82331,2,0,B|412:135|349:180|345:179|337:180|290:259|180:255|102:144,1,337.499991059303,0|0,1:0|0:0,0:0:0:0:
503,290,82542,5,2,0:0:0:0:
485,186,82648,2,0,B|523:98|523:98|417:-26,1,224.999994039536,0|0,3:0|0:0,0:0:0:0:
494,279,82859,5,0,0:0:0:0:
486,359,82964,2,0,P|378:389|272:356,1,224.999994039536,0|0,1:0|0:0,0:0:0:0:
60,250,83176,2,0,B|143:190|143:190|101:75,1,224.999994039536,4|0,3:0|0:0,0:0:0:0:
269,19,83387,6,0,P|309:123|311:236,1,224.999994039536,0|0,1:0|0:0,0:0:0:0:
421,308,83598,5,2,0:0:0:0:
413,185,83704,2,0,P|326:114|269:19,1,224.999994039536,0|0,3:0|0:0,0:0:0:0:
404,80,83915,5,0,0:0:0:0:
185,265,84021,2,0,B|84:156|128:38|128:38|183:58|232:184,1,337.499991059303,4|0,1:3|0:0,0:0:0:0:
213,172,84232,5,2,0:0:0:0:
78,206,84338,2,0,P|136:288|53:346,1,224.999994039536,0|0,3:0|0:0,0:0:0:0:
468,357,84584,5,0,0:0:0:0:
502,345,84655,2,0,P|498:262|443:248,1,112.499997019768,0|0,1:0|0:0,0:0:0:0:
259,187,84760,1,0,3:0:0:0:
267,30,84866,2,0,L|272:2,1,22.4999994039536,0|2,3:0|0:3,0:0:0:0:
322,144,85077,6,0,P|216:147|137:205,1,179.999995231629,0|0,1:0|0:0,0:0:0:0:
314,331,85288,5,0,0:0:0:0:
152,234,85394,2,0,P|229:161|325:146,1,179.999995231629,0|0,3:0|0:0,0:0:0:0:
323,341,85605,5,0,0:0:0:0:
332,172,85711,2,0,B|248:145|218:214|212:215|208:217|180:305|63:253,1,269.999992847443,0|0,1:0|0:0,0:0:0:0:
64,183,85922,5,2,0:0:0:0:
326,68,86028,2,0,P|404:97|494:179,1,179.999995231629,0|0,3:0|0:0,0:0:0:0:
250,371,86239,5,0,0:0:0:0:
177,348,86345,2,0,P|186:308|208:267,1,67.4999982118607
47,182,86556,6,0,L|15:-21,1,180.000002098084,0|0,1:0|0:0,0:0:0:0:
86,29,86699,2,0,L|57:207,1,180.000002098084,0|0,3:0|0:0,0:0:0:0:
454,223,86843,6,0,L|486:20,1,180.000002098084,0|0,1:0|0:0,0:0:0:0:
416,70,86987,2,0,L|444:248,1,180.000002098084,0|0,3:0|0:0,0:0:0:0:
424,337,87131,6,0,L|247:372,1,180.000002098084,0|0,1:0|0:0,0:0:0:0:
69,345,87275,2,0,L|245:380,1,180.000002098084,0|0,3:0|0:0,0:0:0:0:
203,56,87419,6,0,B|268:90|274:217|202:247|197:253|194:256|147:332|178:459|379:424|354:296,1,539.999985694885,2|0,3:3|0:0,0:0:0:0:
314,305,87635,6,0,B|329:359|269:391|226:371|184:308|265:252|265:252|232:241|232:241|340:225|409:137|345:48|297:35|297:35|279:106|210:167|81:126|114:6,1,866.249985313416,0|0,1:0|0:0,3:0:0:0:
181,4,88247,6,0,P|255:119|146:314,1,337.499991059303,4|0,1:0|0:0,0:0:0:0:
101,272,88439,2,0,B|145:167|145:167|34:306,1,224.999994039536,0|0,3:0|0:0,0:0:0:0:
216,374,88666,5,2,0:0:0:0:
478,363,88779,2,0,P|471:320|481:291,1,67.4999982118607,0|0,3:0|0:0,0:0:0:0:
379,246,89007,6,0,P|473:191|235:86,1,562.499985098839,4|0,1:2|0:0,0:0:0:0:
293,222,89315,2,0,B|227:147|227:147|391:131,1,224.999994039536,0|0,3:0|0:0,0:0:0:0:
321,364,89520,5,2,0:0:0:0:
24,285,89623,2,0,P|19:246|11:224,1,44.9999988079071,0|0,3:0|0:0,0:0:0:0:
48,352,89828,6,0,P|228:346|140:60,1,562.499985098839,4|0,1:2|0:0,0:0:0:0:
160,184,90149,2,0,B|104:274|104:274|62:163,1,224.999994039536,0|0,3:0|0:0,0:0:0:0:
275,17,90363,5,2,0:0:0:0:
394,300,90470,2,0,P|408:324|459:360,1,89.9999976158143,0|0,3:0|0:0,0:0:0:0:
485,358,90792,5,2,0:0:0:0:
205,367,90899,2,0,P|177:207|366:89,1,405.000004720688,0|0,1:0|0:0,0:0:0:0:
387,157,91113,2,0,B|334:212|227:169|226:75|226:75|189:164|120:169|120:169|119:90|66:81|66:81|74:115|63:181|-19:138|-12:79|55:75,1,629.999989318848,0|0,1:0|0:0,3:0:0:0:
17,89,91634,6,0,P|27:178|287:167,1,337.499991059303,4|0,1:0|0:0,0:0:0:0:
300,118,91845,2,0,B|189:148|189:148|233:-4,1,224.999994039536,0|0,3:0|0:0,0:0:0:0:
366,32,92056,5,2,0:0:0:0:
468,295,92162,2,0,P|432:313|394:342,1,67.4999982118607,0|0,3:0|0:0,0:0:0:0:
495,199,92373,6,0,P|321:253|30:30,1,562.499985098839,4|0,1:2|0:0,0:0:0:0:
119,12,92690,2,0,B|189:96|189:96|280:5,1,224.999994039536,0|0,3:0|0:0,0:0:0:0:
234,162,92901,5,2,0:0:0:0:
498,110,93007,2,0,P|512:61|475:18,1,112.499997019768,0|0,3:0|0:0,0:0:0:0:
512,0,93324,6,0,P|390:14|138:6,1,299.999992052714,4|0,1:0|0:0,0:0:0:0:
0,81,93464,2,0,P|149:88|299:86,1,299.999992052714,0|0,1:0|0:0,0:0:0:0:
512,164,93605,2,0,P|408:155|159:175,1,299.999992052714,0|0,1:0|0:0,0:0:0:0:
0,246,93746,2,0,P|172:246|414:195,1,299.999992052714,4|0,1:0|0:0,0:0:0:0:
512,328,93887,2,0,P|385:294|202:340,1,299.999992052714,0|0,1:0|0:0,0:0:0:0:
0,384,94028,2,0,P|146:354|291:388,1,299.999992052714,0|0,1:0|0:0,0:0:0:0:
256,192,94169,12,0,95014,0:0:0:0:
