osu file format v14

[General]
AudioFilename: audio.mp3
AudioLeadIn: 0
PreviewTime: 61098
Countdown: 0
SampleSet: Soft
StackLeniency: 0.2
Mode: 0
LetterboxInBreaks: 0
WidescreenStoryboard: 1

[Editor]
DistanceSpacing: 0.3
BeatDivisor: 4
GridSize: 32
TimelineZoom: 2.999999

[Metadata]
Title:Deal with the devil (TV Size)
TitleUnicode:Deal with the devil (TV Size)
Artist:Tia
ArtistUnicode:Tia
Creator:lcfc
Version:Insane
Source:賭ケグルイ
Tags:kakegurui dwtd compulsive gambler jabami yumeko lowcombofc trynna dashyy-
BeatmapID:1605510
BeatmapSetID:762301

[Difficulty]
HPDrainRate:6
CircleSize:3
OverallDifficulty:7.5
ApproachRate:9
SliderMultiplier:2.09999990463257
SliderTickRate:1

[Events]
//Background and Video events
0,0,"BG.jpg",0,0
//Break Periods
2,58024,58914
//Storyboard Layer 0 (Background)
//Storyboard Layer 1 (Fail)
//Storyboard Layer 2 (Pass)
//Storyboard Layer 3 (Foreground)
//Storyboard Sound Samples

[TimingPoints]
351,425.531914893617,4,2,1,46,1,0
747,425.531914893617,4,2,1,46,1,0
1598,-133.333333333333,4,2,1,46,0,0
2024,-100,4,2,1,56,0,0
3300,-133.333333333333,4,2,1,66,0,0
3727,425.531914893617,4,2,1,66,1,0
7131,413.793103448276,4,2,1,56,1,0
8786,422.535211267606,4,2,1,66,1,0
10476,422.535211267606,4,2,1,66,1,0
10476,-83.3333333333333,4,2,1,66,0,0
15546,431.654676258993,4,2,1,66,1,0
15546,-83.3333333333333,4,2,1,66,0,0
16840,425.531914893617,4,2,1,66,1,0
16840,-83.3333333333333,4,2,1,66,0,0
17265,421.052631578947,4,2,1,46,1,0
17265,-133.333333333333,4,2,1,46,0,0
20633,422.535211267606,4,2,1,46,1,0
20633,-133.333333333333,4,2,1,46,0,0
23168,-100,4,2,1,56,0,0
24013,422.535211267606,4,2,1,46,1,0
24013,-133.333333333333,4,2,1,46,0,0
28872,390.879478827362,4,2,1,46,1,0
29067,431.654676258993,4,2,1,66,1,0
30361,422.535211267606,4,2,1,66,1,0
30783,422.535211267606,4,2,1,66,1,0
37543,424.028268551237,4,2,1,66,1,0
40935,419.58041958042,4,2,1,66,1,0
42613,422.535211267606,4,2,1,66,1,0
42613,-83.3333333333333,4,2,1,66,0,0
44303,422.535211267606,4,2,1,56,1,0
44303,-133.333333333333,4,2,1,56,0,0
51063,-133.333333333333,4,2,1,66,0,0
54866,-111.111111111111,4,2,1,66,0,0
55288,-95.2380952380952,4,2,1,66,0,0
55711,-83.3333333333333,4,2,1,66,0,0
59514,-100,4,2,1,66,0,0
61415,-83.3333333333333,4,2,1,76,0,1
86556,431.654676258993,4,2,1,66,1,0
86556,-83.3333333333333,4,2,1,76,0,1
87635,408.163265306122,4,2,1,66,1,0
87635,-83.3333333333333,4,2,1,76,0,1
88247,384.615384615385,4,2,1,66,1,0
88439,454.545454545455,4,2,1,66,1,0
89007,410.958904109589,4,2,1,66,1,0
89828,428.571428571429,4,2,1,66,1,0
91113,521.739130434783,4,2,1,66,1,0
91634,422.535211267606,4,2,1,66,1,0

[Colours]
Combo1 : 210,191,151
Combo2 : 255,106,106
Combo3 : 192,213,149
Combo4 : 181,106,255

[HitObjects]
256,96,351,1,0,0:0:0:0:
256,96,747,1,0,0:0:0:0:
256,192,1172,5,0,0:0:0:0:
256,192,1598,2,0,L|256:320,1,118.124999141693,2|0,0:0|0:0,0:0:0:0:
180,365,2024,6,0,P|145:365|113:351,1,69.9999968210857,2|0,0:0|0:0,0:0:0:0:
57,214,2307,1,0,0:0:0:0:
180,365,2449,6,0,P|149:348|129:320,1,69.9999968210857,2|0,0:0|0:0,0:0:0:0:
143,204,2733,1,0,0:0:0:0:
180,365,2875,6,0,P|161:335|158:300,1,69.9999968210857,2|0,0:0|0:0,0:0:0:0:
220,243,3158,1,0,0:0:0:0:
220,243,3300,6,0,P|268:281|348:275,1,118.124999141693,4|0,0:3|0:0,0:0:0:0:
392,224,3727,5,8,0:3:0:0:
378,211,3833,2,0,L|388:159,1,52.4999976158143,2|0,0:0|0:0,0:0:0:0:
428,62,4046,1,8,0:3:0:0:
442,75,4152,1,2,0:0:0:0:
282,182,4365,5,8,0:3:0:0:
268,169,4471,2,0,L|278:117,1,52.4999976158143,2|0,0:0|0:0,0:0:0:0:
318,20,4684,1,8,0:3:0:0:
332,33,4790,6,0,L|321:84,2,52.4999976158143,2|0|2,0:0|0:0|0:0,0:0:0:0:
211,22,5109,1,0,0:0:0:0:
225,35,5216,1,2,0:0:0:0:
56,305,5429,5,8,0:3:0:0:
70,292,5535,2,0,L|59:240,1,52.4999976158143,2|0,0:0|0:0,0:0:0:0:
20,143,5748,1,8,0:3:0:0:
6,156,5854,1,2,0:0:0:0:
166,263,6067,5,8,0:3:0:0:
180,250,6173,2,0,L|169:198,1,52.4999976158143,2|0,0:0|0:0,0:0:0:0:
130,101,6386,1,8,0:3:0:0:
116,114,6492,1,2,0:0:0:0:
276,221,6705,5,8,0:3:0:0:
290,208,6812,2,0,L|268:105,1,104.999995231629,4|0,3:0|0:0,0:0:0:0:
207,39,7131,1,2,0:0:0:0:
256,192,7234,12,8,8786,0:3:0:0:
378,93,10053,6,0,L|370:58,5,34.9999984105428,8|0|0|0|0|0,3:3|3:0|3:0|3:0|3:0|0:0,0:0:0:0:
325,171,10476,6,0,P|263:173|215:134,1,125.99999043274,8|2,0:3|0:0,0:0:0:0:
86,2,10828,1,0,0:0:0:0:
73,20,10898,2,0,L|84:127,1,83.9999936218264,2|0,0:0|0:0,0:0:0:0:
120,179,11109,2,0,L|131:72,1,83.9999936218264,2|0,0:0|0:0,0:0:0:0:
207,50,11321,5,0,0:0:0:0:
325,171,11461,2,0,P|358:222|347:283,1,125.99999043274,2|2,0:0|0:0,0:0:0:0:
256,298,11743,2,0,P|221:272|181:266,1,83.9999936218264,2|0,0:0|0:0,0:0:0:0:
78,322,11954,2,0,P|113:296|153:290,1,83.9999936218264,2|0,0:0|0:0,0:0:0:0:
184,371,12166,5,2,0:0:0:0:
21,241,12306,1,0,0:0:0:0:
8,220,12377,2,0,L|19:113,1,83.9999936218264,2|0,0:0|0:0,0:0:0:0:
23,34,12588,2,0,L|110:97,1,83.9999936218264,2|0,0:0|0:0,0:0:0:0:
176,139,12799,2,0,L|77:182,1,83.9999936218264,2|0,0:0|0:0,0:0:0:0:
8,220,13011,1,2,0:0:0:0:
48,366,13152,6,0,P|110:368|158:329,1,125.99999043274,2|0,0:0|0:0,0:0:0:0:
166,238,13433,1,8,0:3:0:0:
178,339,13574,2,0,P|240:337|288:376,1,125.99999043274,4|0,0:3|0:0,0:0:0:0:
417,239,13856,6,0,P|355:237|307:276,1,125.99999043274,8|2,0:3|0:0,0:0:0:0:
494,292,14208,1,0,0:0:0:0:
507,272,14278,2,0,L|498:188,1,83.9999936218264,2|0,0:0|0:0,0:0:0:0:
488,96,14490,2,0,L|479:179,1,83.9999936218264,2|0,0:0|0:0,0:0:0:0:
417,239,14701,5,0,0:0:0:0:
257,118,14842,2,0,P|254:56|293:8,1,125.99999043274,2|2,0:0|0:0,0:0:0:0:
339,86,15123,2,0,P|365:121|371:161,1,83.9999936218264,2|0,0:0|0:0,0:0:0:0:
321,234,15335,2,0,L|281:220,2,41.9999968109132
417,239,15546,5,4,0:3:0:0:
256,320,15761,1,8,0:3:0:0:
95,239,15977,1,4,0:3:0:0:
100,220,16085,1,8,0:3:0:0:
105,201,16193,1,4,0:3:0:0:
110,183,16301,1,8,0:3:0:0:
0,288,16517,1,4,0:3:0:0:
146,331,16733,1,8,0:3:0:0:
165,325,16840,2,0,P|225:254|215:163,1,188.999985649109,4|0,0:3|0:0,0:0:0:0:
150,86,17265,6,0,P|113:98|74:104,1,78.7499994277954,4|2,0:0|0:0,0:0:0:0:
11,178,17686,2,0,P|48:190|87:196,1,78.7499994277954,0|2,0:0|0:0,0:0:0:0:
150,269,18107,2,0,P|112:281|73:287,1,78.7499994277954,0|2,0:0|0:0,0:0:0:0:
11,360,18528,2,0,P|48:372|87:378,1,78.7499994277954,0|2,0:0|0:0,0:0:0:0:
244,301,18949,6,0,L|221:146,2,157.499998855591
386,362,20001,1,2,0:0:0:0:
340,271,20212,2,0,L|356:165,1,78.7499994277954,0|2,0:0|0:0,0:0:0:0:
463,47,20633,6,0,P|387:34|329:82,1,157.499998855591
233,222,21266,2,0,P|157:236|98:187,1,157.499998855591,2|2,0:0|0:0,0:0:0:0:
272,141,21900,2,0,P|276:213|289:297,1,157.499998855591
116,343,22534,2,0,P|112:271|98:186,1,157.499998855591,2|2,0:0|0:0,0:0:0:0:
32,104,23168,5,2,0:0:0:0:
32,85,23273,2,0,P|66:46|117:41,1,104.999995231629,2|0,0:0|0:0,0:0:0:0:
186,97,23590,2,0,P|220:135|271:140,1,104.999995231629,2|0,0:0|0:0,0:0:0:0:
329,71,23907,1,0,3:0:0:0:
339,86,24013,6,0,L|324:163,1,78.7499994277954,4|2,0:0|0:0,0:0:0:0:
362,275,24435,2,0,L|284:260,1,78.7499994277954,0|2,0:0|0:0,0:0:0:0:
173,298,24858,2,0,L|187:220,1,78.7499994277954,0|2,0:0|0:0,0:0:0:0:
150,109,25280,2,0,L|227:123,1,78.7499994277954,0|2,0:0|0:0,0:0:0:0:
431,155,25703,6,0,P|452:109|425:10,2,157.499998855591
339,86,26759,1,2,0:0:0:0:
370,233,26970,2,0,P|417:249|459:250,1,78.7499994277954,0|2,0:0|0:0,0:0:0:0:
245,125,27393,6,0,L|90:154,1,157.499998855591
210,374,28027,2,0,L|261:225,1,157.499998855591,2|2,0:0|0:0,0:0:0:0:
11,219,28660,2,0,L|73:291,1,78.7499994277954,0|2,0:0|0:0,0:0:0:0:
120,344,29067,5,8,0:3:0:0:
120,344,29930,1,8,0:3:0:0:
137,364,30038,2,0,P|175:330|177:278,1,104.999995231629,4|0,0:3|0:0,0:0:0:0:
99,237,30361,2,0,P|60:203|58:151,1,104.999995231629,8|0,0:3|0:0,0:0:0:0:
145,85,30677,1,0,3:0:0:0:
129,97,30783,6,0,P|186:149|261:137,1,157.499992847443,4|0,0:0|0:0,0:0:0:0:
314,56,31205,2,0,P|365:43|417:42,1,104.999995231629,0|2,0:0|0:0,0:0:0:0:
325,220,31628,2,0,P|289:181|261:137,1,104.999995231629,0|2,0:0|0:0,0:0:0:0:
462,127,32050,2,0,P|446:177|421:223,1,104.999995231629,0|2,0:0|0:0,0:0:0:0:
248,293,32473,6,0,L|24:256,2,209.999990463257,0|2|8,0:0|0:0|0:3,0:0:0:0:
261,313,33423,1,4,0:3:0:0:
462,127,33740,1,8,0:3:0:0:
444,139,33846,2,0,P|437:190|460:236,1,104.999995231629,4|0,0:3|0:0,0:0:0:0:
393,313,34163,6,0,P|320:299|275:173,1,209.999990463257,4|0,0:0|0:0,0:0:0:0:
324,13,34797,2,0,P|348:83|261:185,1,209.999990463257,2|2,0:0|0:0,0:0:0:0:
99,223,35430,2,0,P|147:166|279:190,1,209.999990463257,0|2,0:0|0:0,0:0:0:0:
279,209,35959,5,2,0:0:0:0:
78,326,36275,2,0,P|70:229|47:118,1,209.999990463257,2|8,0:0|0:3,0:0:0:0:
34,100,36804,1,4,0:3:0:0:
215,32,37121,2,0,P|251:67|303:70,1,104.999995231629,8|0,0:3|0:0,0:0:0:0:
399,22,37437,1,0,3:0:0:0:
381,14,37543,6,0,L|397:117,1,104.999995231629,4|2,0:0|0:0,0:0:0:0:
434,317,37967,2,0,L|330:333,1,104.999995231629,0|2,0:0|0:0,0:0:0:0:
131,370,38391,2,0,L|114:266,1,104.999995231629,0|2,0:0|0:0,0:0:0:0:
78,67,38815,2,0,L|181:50,1,104.999995231629,0|2,0:0|0:0,0:0:0:0:
401,207,39239,6,0,P|337:231|235:146,2,209.999990463257,0|2|8,0:0|0:0|0:3,0:0:0:0:
413,186,40193,1,4,0:3:0:0:
151,156,40511,1,8,0:3:0:0:
143,179,40617,2,0,P|101:206|34:198,1,104.999995231629,4|0,0:3|0:0,0:0:0:0:
8,124,40935,6,0,P|24:227|29:332,1,209.999990463257,6|2,0:0|0:0,0:0:0:0:
238,290,41564,2,0,P|139:252|46:204,1,209.999990463257
29,332,42193,2,0,P|69:298|113:270,1,104.999995231629,2|0,0:0|0:0,0:0:0:0:
303,353,42613,5,4,0:3:0:0:
384,192,42824,1,8,0:3:0:0:
303,31,43035,1,4,0:3:0:0:
284,36,43141,1,8,0:3:0:0:
265,41,43246,1,4,0:3:0:0:
247,46,43352,1,8,0:3:0:0:
381,94,43563,1,4,0:3:0:0:
272,186,43774,1,8,0:3:0:0:
257,199,43880,2,0,P|165:208|95:148,1,188.999985649109,4|0,0:3|0:0,0:0:0:0:
83,52,44303,5,4,0:0:0:0:
83,52,44725,2,0,L|200:39,1,118.124999141693,2|0,0:0|0:0,0:0:0:0:
229,19,45148,2,0,L|241:136,2,118.124999141693,2|0|0,0:0|0:0|0:0,0:0:0:0:
251,232,46204,1,0,0:0:0:0:
329,179,46415,2,0,L|407:170,1,78.7499994277954,2|0,0:0|0:0,0:0:0:0:
494,214,46838,1,2,0:0:0:0:
340,339,47049,2,0,L|261:330,1,78.7499994277954
245,342,47366,1,0,0:0:0:0:
229,353,47472,1,4,0:3:0:0:
420,283,47683,5,8,0:3:0:0:
407,169,47894,1,0,0:0:0:0:
251,232,48105,2,0,L|172:240,1,78.7499994277954,2|0,0:0|0:0,0:0:0:0:
12,141,48528,2,0,L|129:153,2,118.124999141693,2|0|0,0:0|0:0|0:0,0:0:0:0:
81,55,49373,5,2,0:0:0:0:
293,100,49584,1,2,0:0:0:0:
129,153,49795,1,2,0:0:0:0:
269,199,50007,1,2,0:0:0:0:
269,199,50112,2,0,L|392:178,1,118.124999141693,2|0,0:0|0:0,0:0:0:0:
475,99,50641,1,8,0:3:0:0:
257,27,50852,1,4,0:3:0:0:
365,62,51063,6,0,L|386:185,1,118.124999141693,4|0,0:0|0:0,0:0:0:0:
392,213,51486,2,0,L|314:226,1,78.7499994277954,2|0,0:0|0:0,0:0:0:0:
215,326,51908,1,0,0:0:0:0:
200,340,52014,2,0,L|122:327,1,78.7499994277954,2|0,0:0|0:0,0:0:0:0:
80,320,52331,2,0,L|93:242,1,78.7499994277954,2|0,0:0|0:0,0:0:0:0:
127,47,52753,5,0,0:0:0:0:
65,138,52964,1,0,0:0:0:0:
198,237,53176,2,0,L|321:216,1,118.124999141693,2|0,0:0|0:0,0:0:0:0:
372,141,53598,1,0,0:0:0:0:
387,161,53704,2,0,L|465:174,1,78.7499994277954,2|0,0:0|0:0,0:0:0:0:
499,184,54021,2,0,L|512:106,1,78.7499994277954,2|0,0:0|0:0,0:0:0:0:
280,32,54443,6,0,P|223:22|176:55,1,118.124999141693,2|0,0:0|0:0,0:0:0:0:
174,72,54866,6,0,P|236:100|264:164,1,141.749989236832,2|0,0:0|0:0,0:0:0:0:
255,183,55288,6,0,P|175:174|117:229,1,165.374987442971,2|0,0:0|0:0,0:0:0:0:
115,247,55711,6,0,P|203:267|234:352,1,188.999985649109,2|0,0:0|0:0,0:0:0:0:
223,366,56133,5,4,0:3:0:0:
352,192,56345,1,8,0:3:0:0:
223,18,56556,1,4,0:3:0:0:
204,23,56662,1,8,0:3:0:0:
185,28,56767,1,4,0:3:0:0:
167,33,56873,1,8,0:3:0:0:
329,77,57084,1,4,0:3:0:0:
209,195,57295,1,8,0:3:0:0:
190,205,57401,2,0,P|98:206|33:140,1,188.999985649109,4|0,0:3|0:0,0:0:0:0:
75,57,57824,5,8,0:3:0:0:
75,57,59514,5,8,0:3:0:0:
87,72,59619,2,0,L|59:241,1,157.499992847443,4|0,0:3|0:0,0:0:0:0:
190,356,60148,5,8,0:3:0:0:
202,341,60253,2,0,L|174:172,1,157.499992847443,4|0,0:3|0:0,0:0:0:0:
305,57,60781,6,0,L|297:104,6,26.2499988079071,8|0|0|0|0|0|0,3:0|3:0|3:0|3:0|3:0|3:0|3:0,0:0:0:0:
227,8,61204,5,2,0:0:0:0:
227,8,61415,2,0,P|192:32|160:32,1,62.9999952163698,12|0,0:0|0:0,0:0:0:0:
38,4,61626,1,4,0:3:0:0:
59,17,61732,2,0,P|62:59|46:87,1,62.9999952163698,0|8,0:0|0:0,0:0:0:0:
0,255,61943,6,0,P|51:220|113:220,1,125.99999043274,2|0,0:0|0:0,0:0:0:0:
173,291,62260,2,0,L|161:352,1,62.9999952163698,8|0,0:0|0:0,0:0:0:0:
313,227,62472,1,4,0:3:0:0:
331,217,62577,2,0,L|343:156,1,62.9999952163698,0|8,0:0|0:0,0:0:0:0:
217,0,62788,6,0,L|238:128,1,125.99999043274,2|0,0:0|0:0,0:0:0:0:
172,205,63105,6,0,P|144:219|112:220,1,62.9999952163698,8|0,0:0|0:0,0:0:0:0:
35,175,63317,1,4,0:3:0:0:
104,226,63422,6,0,P|131:240|162:242,1,62.9999952163698,0|8,0:0|0:0,0:0:0:0:
428,242,63633,1,0,0:0:0:0:
381,318,63739,6,0,P|353:332|321:333,1,62.9999952163698,4|0,0:3|0:0,0:0:0:0:
244,288,63950,1,8,0:0:0:0:
313,339,64056,6,0,P|340:353|371:355,1,62.9999952163698,0|4,0:0|0:3,0:0:0:0:
480,164,64267,2,0,P|452:149|421:147,1,62.9999952163698,0|8,0:0|0:0,0:0:0:0:
241,199,64479,6,0,P|211:144|215:82,1,125.99999043274,2|0,0:0|0:0,0:0:0:0:
313,10,64795,6,0,L|300:71,1,62.9999952163698,8|0,0:0|0:0,0:0:0:0:
326,248,65007,1,4,0:3:0:0:
352,162,65112,6,0,L|339:100,1,62.9999952163698,0|8,0:0|0:0,0:0:0:0:
171,20,65324,1,0,0:0:0:0:
100,81,65429,6,0,L|87:142,1,62.9999952163698,4|0,0:3|0:0,0:0:0:0:
113,319,65641,1,8,0:0:0:0:
139,233,65746,6,0,L|126:171,1,62.9999952163698,0|4,0:0|0:3,0:0:0:0:
0,14,65957,2,0,L|12:75,1,62.9999952163698,0|8,0:0|0:0,0:0:0:0:
199,306,66169,6,0,B|271:270|271:270|301:101,1,251.999980865479,4|0,0:0|0:0,0:0:0:0:
244,29,66697,5,4,0:3:0:0:
305,88,66803,2,0,L|366:74,1,62.9999952163698,0|8,0:0|0:0,0:0:0:0:
505,47,67014,5,2,0:0:0:0:
483,133,67119,1,0,0:0:0:0:
483,133,67331,6,0,P|436:158|445:7,1,314.999976081849,12|0,0:0|0:0,0:0:0:0:
505,47,67964,5,4,0:3:0:0:
505,46,68176,2,0,P|474:51|444:42,1,62.9999952163698,12|0,0:0|0:0,0:0:0:0:
288,0,68387,1,4,0:3:0:0:
298,22,68493,2,0,P|286:51|263:72,1,62.9999952163698,0|8,0:0|0:0,0:0:0:0:
99,191,68704,6,0,P|149:155|211:156,1,125.99999043274,2|0,0:0|0:0,0:0:0:0:
269,233,69021,2,0,L|259:297,1,62.9999952163698,8|0,0:0|0:0,0:0:0:0:
387,372,69232,1,4,0:3:0:0:
372,360,69338,2,0,L|362:297,1,62.9999952163698,0|8,0:0|0:0,0:0:0:0:
462,124,69549,6,0,L|440:248,1,125.99999043274,2|0,0:0|0:0,0:0:0:0:
362,297,69866,2,0,P|331:307|299:306,1,62.9999952163698,8|0,0:0|0:0,0:0:0:0:
94,209,70077,1,4,0:3:0:0:
113,192,70183,2,0,P|144:192|174:201,1,62.9999952163698,0|8,0:0|0:0,0:0:0:0:
222,359,70394,6,0,P|217:310|176:245,1,125.99999043274,2|0,0:0|0:0,0:0:0:0:
56,290,70711,2,0,L|69:354,1,62.9999952163698,8|0,0:0|0:0,0:0:0:0:
255,201,70922,1,4,0:3:0:0:
270,217,71028,2,0,L|257:281,2,62.9999952163698,0|8|0,0:0|0:0|0:0,0:0:0:0:
212,122,71345,5,4,0:3:0:0:
212,122,71556,2,0,P|249:71|308:52,1,125.99999043274,8|4,0:0|0:3,0:0:0:0:
176,244,71873,2,0,P|151:188|163:127,1,125.99999043274
265,337,72190,2,0,P|203:330|157:288,1,125.99999043274,4|8,0:3|0:0,0:0:0:0:
387,306,72507,2,0,P|351:355|292:374,1,125.99999043274
422,183,72824,1,8,0:0:0:0:
422,183,73035,6,0,P|388:157|336:154,1,83.9999936218264,4|8,0:3|0:3,0:0:0:0:
262,210,73317,1,4,0:3:0:0:
388,106,73457,6,0,P|345:111|306:146,1,83.9999936218264,8|4,0:3|0:3,0:0:0:0:
270,227,73739,1,8,0:3:0:0:
356,285,73880,5,4,0:3:0:0:
356,285,74091,2,0,L|148:255,1,188.999985649109,12|0,0:0|0:0,0:0:0:0:
150,272,74514,1,0,0:0:0:0:
6,265,74725,5,4,0:3:0:0:
6,265,74936,2,0,P|32:234|37:202,1,62.9999952163698,12|0,0:0|0:0,0:0:0:0:
11,54,75148,1,4,0:3:0:0:
3,69,75253,2,0,P|16:107|42:127,1,62.9999952163698,0|8,0:0|0:0,0:0:0:0:
188,153,75464,6,0,P|230:108|291:100,1,125.99999043274,2|0,0:0|0:0,0:0:0:0:
363,173,75781,2,0,L|345:242,1,62.9999952163698,8|0,0:0|0:0,0:0:0:0:
189,330,75993,1,4,0:3:0:0:
179,309,76098,2,0,L|194:248,1,62.9999952163698,0|8,0:0|0:0,0:0:0:0:
372,64,76310,6,0,L|403:193,1,125.99999043274,2|0,0:0|0:0,0:0:0:0:
372,274,76626,6,0,P|403:300|435:305,1,62.9999952163698,8|0,0:0|0:0,0:0:0:0:
495,244,76838,1,4,0:3:0:0:
440,306,76943,6,0,P|409:332|377:337,1,62.9999952163698,0|8,0:0|0:0,0:0:0:0:
132,194,77155,1,0,0:0:0:0:
163,279,77260,6,0,P|194:305|226:310,1,62.9999952163698,4|0,0:3|0:0,0:0:0:0:
286,249,77472,1,8,0:0:0:0:
231,311,77577,6,0,P|200:337|168:342,1,62.9999952163698,0|4,0:0|0:3,0:0:0:0:
0,188,77788,2,0,P|31:162|63:157,1,62.9999952163698,0|8,0:0|0:0,0:0:0:0:
228,128,78000,6,0,P|179:89|117:79,1,125.99999043274,2|0,0:0|0:0,0:0:0:0:
52,157,78317,6,0,L|39:229,1,62.9999952163698,8|0,0:0|0:0,0:0:0:0:
153,372,78528,1,4,0:3:0:0:
81,312,78633,6,0,L|70:250,1,62.9999952163698,0|8,0:0|0:0,0:0:0:0:
300,68,78845,1,0,0:0:0:0:
228,128,78950,6,0,L|216:190,1,62.9999952163698,4|0,0:3|0:0,0:0:0:0:
329,349,79162,1,8,0:0:0:0:
257,289,79267,6,0,L|246:227,1,62.9999952163698,0|4,0:0|0:3,0:0:0:0:
426,35,79479,2,0,L|414:96,1,62.9999952163698,0|8,0:0|0:0,0:0:0:0:
401,186,79690,6,0,B|365:114|365:114|196:84,1,251.999980865479,4|0,0:0|0:0,0:0:0:0:
91,69,80218,1,4,0:3:0:0:
177,81,80324,2,0,L|196:159,1,62.9999952163698,0|8,0:0|0:0,0:0:0:0:
103,314,80535,5,2,0:0:0:0:
121,229,80641,1,0,0:0:0:0:
121,229,80852,6,0,P|176:192|165:339,1,314.999976081849,12|0,0:0|0:0,0:0:0:0:
103,314,81486,5,4,0:3:0:0:
103,314,81697,2,0,P|69:291|29:293,1,62.9999952163698,12|0,0:0|0:0,0:0:0:0:
2,164,81908,1,4,0:3:0:0:
20,179,82014,2,0,P|50:173|75:153,1,62.9999952163698,0|8,0:0|0:0,0:0:0:0:
172,36,82225,6,0,P|233:29|282:66,1,125.99999043274,2|0,0:0|0:0,0:0:0:0:
250,151,82542,2,0,L|269:229,1,62.9999952163698,8|0,0:0|0:0,0:0:0:0:
389,333,82753,1,4,0:3:0:0:
407,321,82859,2,0,L|421:259,1,62.9999952163698,0|8,0:0|0:0,0:0:0:0:
466,106,83070,6,0,L|343:135,1,125.99999043274,2|0,0:0|0:0,0:0:0:0:
250,151,83387,2,0,P|222:135|191:133,1,62.9999952163698,8|0,0:0|0:0,0:0:0:0:
66,222,83598,1,4,0:3:0:0:
82,237,83704,2,0,P|113:235|140:219,1,62.9999952163698,0|8,0:0|0:0,0:0:0:0:
167,41,83915,6,0,P|116:76|99:135,1,125.99999043274,2|0,0:0|0:0,0:0:0:0:
231,250,84232,2,0,L|311:264,1,62.9999952163698,8|0,0:0|0:0,0:0:0:0:
369,120,84443,1,4,0:3:0:0:
384,107,84549,2,0,L|446:96,2,62.9999952163698,0|8|0,0:0|0:0|0:0,0:0:0:0:
305,176,84866,5,4,0:3:0:0:
305,176,85077,2,0,P|259:133|198:128,1,125.99999043274,8|4,0:0|0:3,0:0:0:0:
210,337,85394,2,0,P|236:281|221:221,1,125.99999043274
26,297,85711,2,0,P|87:304|140:272,1,125.99999043274,4|8,0:3|0:0,0:0:0:0:
8,108,86028,2,0,P|19:169|66:209,1,125.99999043274
181,33,86345,1,8,0:0:0:0:
181,33,86556,6,0,P|223:37|266:60,1,83.9999936218264,4|8,0:3|0:3,0:0:0:0:
321,160,86843,1,4,0:3:0:0:
276,4,86987,6,0,P|302:37|317:83,1,83.9999936218264,8|4,0:3|0:3,0:0:0:0:
305,176,87275,1,8,0:3:0:0:
215,237,87419,5,4,0:3:0:0:
215,237,87635,2,0,L|401:208,1,188.999985649109,12|0,0:0|0:0,0:0:0:0:
419,220,88043,1,0,0:0:0:0:
271,351,88247,5,4,0:3:0:0:
271,351,88439,2,0,L|196:331,1,52.4999976158143,2|0,0:0|0:0,0:0:0:0:
66,302,88666,1,2,0:0:0:0:
83,296,88779,1,2,0:0:0:0:
305,176,89007,6,0,L|189:193,1,104.999995231629,4|0,0:3|0:0,0:0:0:0:
97,207,89315,2,0,L|117:132,1,52.4999976158143,2|0,0:0|0:0,0:0:0:0:
146,2,89520,1,2,0:0:0:0:
152,19,89623,1,2,0:0:0:0:
201,191,89828,6,0,L|317:174,1,104.999995231629,4|0,0:3|0:0,0:0:0:0:
409,160,90149,2,0,L|389:235,1,52.4999976158143,2|0,0:0|0:0,0:0:0:0:
360,365,90363,1,4,0:3:0:0:
354,348,90470,1,8,0:3:0:0:
494,248,90685,5,0,0:0:0:0:
494,248,90899,2,0,L|507:197,1,52.4999976158143,4|0,0:3|0:0,0:0:0:0:
394,52,91113,2,0,P|321:32|269:87,1,157.499992847443,4|0,0:3|3:0,0:0:0:0:
304,175,91634,5,4,0:3:0:0:
304,175,91845,2,0,L|284:250,1,52.4999976158143,2|0,0:0|0:0,0:0:0:0:
255,380,92056,1,2,0:0:0:0:
249,363,92162,1,2,0:0:0:0:
176,145,92373,6,0,L|203:263,1,104.999995231629,4|0,0:3|0:0,0:0:0:0:
249,363,92690,2,0,L|174:343,1,52.4999976158143,2|0,0:0|0:0,0:0:0:0:
44,314,92901,1,2,0:0:0:0:
61,308,93007,1,0,0:0:0:0:
355,244,93324,6,0,P|374:213|381:177,1,69.9999968210857,4|8,0:3|0:3,0:0:0:0:
261,94,93605,1,4,0:3:0:0:
407,151,93746,6,0,P|389:119|361:94,1,69.9999968210857,8|4,0:3|0:3,0:0:0:0:
176,48,94028,1,8,0:3:0:0:
