osu file format v14

[General]
AudioFilename: audio.mp3
AudioLeadIn: 0
PreviewTime: 61098
Countdown: 0
SampleSet: Soft
StackLeniency: 0.4
Mode: 0
LetterboxInBreaks: 0
WidescreenStoryboard: 1

[Editor]
DistanceSpacing: 0.3
BeatDivisor: 4
GridSize: 32
TimelineZoom: 2.899999

[Metadata]
Title:Deal with the devil (TV Size)
TitleUnicode:Deal with the devil (TV Size)
Artist:Tia
ArtistUnicode:Tia
Creator:lcfc
Version:Extra
Source:賭ケグルイ
Tags:kakegurui dwtd compulsive gambler jabami yumeko lowcombofc trynna dashyy-
BeatmapID:1602801
BeatmapSetID:762301

[Difficulty]
HPDrainRate:6
CircleSize:4
OverallDifficulty:8.3
ApproachRate:9.3
SliderMultiplier:2.59999990463257
SliderTickRate:1

[Events]
//Background and Video events
0,0,"BG.jpg",0,0
//Break Periods
2,58024,58960
//Storyboard Layer 0 (Background)
//Storyboard Layer 1 (Fail)
//Storyboard Layer 2 (Pass)
//Storyboard Layer 3 (Foreground)
//Storyboard Sound Samples

[TimingPoints]
351,425.531914893617,4,2,1,46,1,0
747,425.531914893617,4,2,1,46,1,0
2024,-100,4,2,1,56,0,0
3300,-100,4,2,1,66,0,0
3727,425.531914893617,4,2,1,66,1,0
3727,-66.6666666666667,4,2,1,66,0,0
7131,413.793103448276,4,2,1,56,1,0
8786,422.535211267606,4,2,1,66,1,0
10476,422.535211267606,4,2,1,66,1,0
10476,-66.6666666666667,4,2,1,66,0,0
10687,-100,4,2,1,66,0,0
13856,-66.6666666666667,4,2,1,66,0,0
14067,-100,4,2,1,66,0,0
15546,431.654676258993,4,2,1,66,1,0
16840,425.531914893617,4,2,1,66,1,0
17265,421.052631578947,4,2,1,46,1,0
17265,-142.857142857143,4,2,1,46,0,0
20633,422.535211267606,4,2,1,46,1,0
20633,-142.857142857143,4,2,1,46,0,0
23168,-100,4,2,1,56,0,0
23590,-66.6666666666667,4,2,1,56,0,0
24013,422.535211267606,4,2,1,46,1,0
24013,-142.857142857143,4,2,1,46,0,0
28872,390.879478827362,4,2,1,46,1,0
29067,431.654676258993,4,2,1,66,1,0
29067,-200,4,2,1,66,0,0
29930,-100,4,2,1,66,0,0
30361,422.535211267606,4,2,1,66,1,0
30361,-66.6666666666667,4,2,1,66,0,0
30783,422.535211267606,4,2,1,66,1,0
33740,-66.6666666666667,4,2,1,66,0,0
34163,-100,4,2,1,66,0,0
37121,-66.6666666666667,4,2,1,66,0,0
37543,424.028268551237,4,2,1,66,1,0
37543,-100,4,2,1,66,0,0
40652,-66.6666666666667,4,2,1,66,0,0
40935,419.58041958042,4,2,1,66,1,0
40938,-100,4,2,1,66,0,0
41354,-86.9565217391304,4,2,1,66,0,0
41774,-76.9230769230769,4,2,1,66,0,0
42193,-68.9655172413793,4,2,1,66,0,0
42613,422.535211267606,4,2,1,66,1,0
42613,-100,4,2,1,66,0,0
44303,422.535211267606,4,2,1,66,1,0
44303,-142.857142857143,4,2,1,66,0,0
49373,-142.857142857143,4,2,1,56,0,0
51063,-100,4,2,1,56,0,0
51486,-142.857142857143,4,2,1,66,0,0
54866,-117.647058823529,4,2,1,66,0,0
55288,-100,4,2,1,66,0,0
55711,-86.9565217391304,4,2,1,66,0,0
56133,-100,4,2,1,66,0,0
60781,-200,4,2,1,66,0,0
61204,-100,4,2,1,66,0,0
61415,-66.6666666666667,4,2,1,76,0,1
63422,-60.6060606060606,4,2,1,76,0,1
63739,-55.5555555555556,4,2,1,76,0,1
64056,-51.2820512820513,4,2,1,76,0,1
64479,-66.6666666666667,4,2,1,76,0,1
64795,-66.6666666666667,4,2,1,76,0,1
65112,-60.6060606060606,4,2,1,76,0,1
65429,-55.5555555555556,4,2,1,76,0,1
65746,-51.2820512820513,4,2,1,76,0,1
66486,-66.6666666666667,4,2,1,76,0,1
66697,-66.6666666666667,4,2,1,76,0,1
67014,-100,4,2,1,76,0,1
67331,-51.2820512820513,4,2,1,76,0,1
68176,-66.6666666666667,4,2,1,76,0,1
73880,-100,4,2,1,76,0,1
74091,-51.2820512820513,4,2,1,76,0,1
74725,-100,4,2,1,76,0,1
74936,-66.6666666666667,4,2,1,76,0,1
76943,-60.6060606060606,4,2,1,76,0,1
77260,-55.5555555555556,4,2,1,76,0,1
77577,-51.2820512820513,4,2,1,76,0,1
78000,-66.6666666666667,4,2,1,76,0,1
78633,-60.6060606060606,4,2,1,76,0,1
78950,-55.5555555555556,4,2,1,76,0,1
79267,-51.2820512820513,4,2,1,76,0,1
80007,-66.6666666666667,4,2,1,76,0,1
80535,-100,4,2,1,76,0,1
80852,-51.2820512820513,4,2,1,76,0,1
81697,-66.6666666666667,4,2,1,76,0,1
85077,-66.6666666666667,4,2,1,76,0,1
86556,431.654676258993,4,2,1,76,1,1
87419,-100,4,2,1,76,0,1
87635,408.163265306122,4,2,1,76,1,1
87635,-51.2820512820513,4,2,1,76,0,1
88247,384.615384615385,4,2,1,66,1,0
88247,-100,4,2,1,66,0,0
88439,454.545454545455,4,2,1,66,1,0
89007,410.958904109589,4,2,1,66,1,0
89828,428.571428571429,4,2,1,66,1,0
91113,521.739130434783,4,2,1,66,1,0
91634,422.535211267606,4,2,1,66,1,0

[Colours]
Combo1 : 210,191,151
Combo2 : 255,106,106
Combo3 : 192,213,149
Combo4 : 181,106,255

[HitObjects]
35,377,351,5,2,0:0:0:0:
106,362,747,1,2,0:0:0:0:
177,347,1172,5,2,0:0:0:0:
248,332,1598,1,2,0:0:0:0:
359,187,2024,5,2,0:0:0:0:
304,120,2165,1,0,0:0:0:0:
221,144,2307,1,0,0:0:0:0:
342,195,2449,5,2,0:0:0:0:
304,120,2591,1,0,0:0:0:0:
229,158,2733,1,0,0:0:0:0:
324,203,2875,5,2,0:0:0:0:
304,120,3017,1,0,0:0:0:0:
238,173,3158,1,0,0:0:0:0:
255,263,3300,6,0,L|445:221,1,194.999992847443,4|0,0:3|0:0,0:0:0:0:
391,376,3726,5,8,0:3:0:0:
469,355,3833,2,0,P|502:319|491:253,1,97.5000001430512,2|0,0:0|0:0,0:0:0:0:
320,113,4046,1,8,0:3:0:0:
341,191,4152,1,2,0:0:0:0:
357,191,4365,5,8,0:3:0:0:
336,113,4471,2,0,P|299:80|234:90,1,97.5000001430512,2|0,0:0|0:0,0:0:0:0:
94,262,4684,1,8,0:3:0:0:
172,241,4790,6,0,L|224:253,1,48.7500000715256,2|0,0:0|0:0,0:0:0:0:
179,262,4897,2,0,L|231:274,1,48.7500000715256
156,294,5003,6,0,L|104:306,1,48.7500000715256,2|0,0:0|0:0,0:0:0:0:
149,315,5109,2,0,L|97:327,1,48.7500000715256
172,347,5216,5,2,0:0:0:0:
189,131,5429,5,8,0:3:0:0:
253,79,5535,2,0,P|300:80|336:113,1,97.5000001430512,2|0,0:0|0:0,0:0:0:0:
374,295,5748,1,8,0:3:0:0:
322,231,5854,1,2,0:0:0:0:
340,227,6067,5,8,0:3:0:0:
391,290,6173,2,0,P|389:337|357:372,1,97.5000001430512,2|0,0:0|0:0,0:0:0:0:
192,232,6386,1,8,0:3:0:0:
255,181,6492,1,2,0:0:0:0:
259,197,6705,5,8,0:3:0:0:
196,248,6812,2,0,B|91:269|121:184|23:207|23:207|39:261,1,243.750000357628,4|0,3:0|0:0,0:0:0:0:
60,341,7131,5,2,0:0:0:0:
256,192,7234,12,8,8786,0:3:0:0:
45,281,10053,6,0,L|38:327,5,43.3333317438762,8|0|0|0|0|0,3:3|3:0|3:0|3:0|0:0|0:0,0:0:0:0:
117,240,10476,6,0,P|117:170|65:133,1,130.000000190735,8|0,0:3|0:0,0:0:0:0:
49,142,10687,6,0,L|61:56,1,86.6666634877523,2|0,0:0|0:0,0:0:0:0:
126,10,10898,1,2,0:0:0:0:
207,141,11039,1,0,0:0:0:0:
220,154,11109,2,0,P|262:156|297:131,1,86.6666634877523,2|0,0:0|0:0,0:0:0:0:
294,51,11321,5,0,0:0:0:0:
348,196,11461,2,0,P|402:228|463:213,1,129.999995231629,2|2,0:0|0:0,0:0:0:0:
502,142,11743,2,0,L|492:55,1,86.6666634877523,2|0,0:0|0:0,0:0:0:0:
428,8,11954,1,2,0:0:0:0:
463,213,12166,6,0,L|472:299,1,86.6666634877523,2|0,0:0|0:0,0:0:0:0:
431,367,12377,1,2,0:0:0:0:
348,196,12518,1,0,0:0:0:0:
335,183,12588,2,0,P|292:180|257:205,1,86.6666634877523,2|0,0:0|0:0,0:0:0:0:
219,279,12799,2,0,P|176:282|141:257,1,86.6666634877523,2|2,0:0|0:0,0:0:0:0:
101,188,13011,5,2,0:0:0:0:
86,349,13152,2,0,L|110:221,1,129.999995231629,2|0,0:0|0:0,0:0:0:0:
69,117,13433,1,8,0:3:0:0:
127,27,13574,2,0,P|189:19|239:59,1,129.999995231629,4|0,0:3|0:0,0:0:0:0:
265,136,13856,6,0,P|325:151|376:113,1,129.999995231629,8|0,0:3|0:0,0:0:0:0:
370,93,14067,6,0,L|456:103,1,86.6666634877523,2|0,0:0|0:0,0:0:0:0:
503,168,14278,1,2,0:0:0:0:
382,302,14419,1,0,0:0:0:0:
369,314,14490,2,0,P|332:321|282:289,1,86.6666634877523,2|0,0:0|0:0,0:0:0:0:
266,220,14701,5,0,0:0:0:0:
215,330,14842,2,0,P|164:367|101:359,1,129.999995231629,2|2,0:0|0:0,0:0:0:0:
65,288,15123,2,0,L|75:201,1,86.6666634877523,2|0,0:0|0:0,0:0:0:0:
119,98,15335,2,0,L|130:140,2,43.3333317438762
98,26,15546,5,4,0:3:0:0:
256,128,15761,1,8,0:3:0:0:
416,42,15977,5,4,0:3:0:0:
340,16,16085,1,8,0:3:0:0:
272,52,16193,1,4,0:3:0:0:
256,128,16301,1,8,0:3:0:0:
360,292,16517,5,4,0:3:0:0:
100,236,16733,1,8,0:3:0:0:
34,276,16840,2,0,P|84:357|184:337,1,194.999992847443,4|0,0:3|0:0,0:0:0:0:
169,269,17265,6,0,L|259:255,1,90.9999938850405,4|2,0:0|0:0,0:0:0:0:
377,207,17686,2,0,L|287:221,1,90.9999938850405,0|2,0:0|0:0,0:0:0:0:
127,162,18107,2,0,L|217:176,1,90.9999938850405,0|2,0:0|0:0,0:0:0:0:
419,314,18528,2,0,L|329:300,1,90.9999938850405,0|2,0:0|0:0,0:0:0:0:
269,109,18949,6,0,P|329:46|415:62,2,181.999987770081,0|2|0,0:0|0:0|0:0,0:0:0:0:
301,186,20001,1,2,0:0:0:0:
297,197,20212,1,0,0:0:0:0:
293,208,20422,1,2,0:0:0:0:
188,300,20633,6,0,P|145:284|100:277,1,90.9999938850405,0|2,0:0|0:0,0:0:0:0:
21,312,21055,1,0,0:0:0:0:
126,197,21266,2,0,P|168:181|213:174,1,90.9999938850405,2|0,0:0|0:0,0:0:0:0:
293,208,21689,1,2,0:0:0:0:
219,57,21900,6,0,P|211:101|194:144,1,90.9999938850405,0|2,0:0|0:0,0:0:0:0:
126,197,22323,1,0,0:0:0:0:
293,208,22534,2,0,P|258:179|229:143,1,90.9999938850405,2|0,0:0|0:0,0:0:0:0:
219,57,22956,1,2,0:0:0:0:
343,283,23168,5,2,0:0:0:0:
425,303,23273,2,0,P|466:255|457:193,1,129.999995231629,2|0,0:0|0:0,0:0:0:0:
401,136,23590,6,0,L|204:191,1,195.000000286102,2|0,0:0|0:0,0:0:0:0:
219,57,23907,2,0,L|265:70,1,48.7500000715256,0|0,3:0|3:0,0:0:0:0:
298,82,24013,6,0,P|323:45|319:0,1,90.9999938850405,4|2,0:0|0:0,0:0:0:0:
93,72,24435,2,0,P|137:82|164:118,1,90.9999938850405,0|2,0:0|0:0,0:0:0:0:
157,256,24858,2,0,P|115:271|92:309,1,90.9999938850405,0|2,0:0|0:0,0:0:0:0:
317,383,25280,2,0,P|287:350|286:305,1,90.9999938850405,0|2,0:0|0:0,0:0:0:0:
373,197,25703,6,0,B|416:210|455:192|455:192|479:89,2,181.999987770081,0|2|0,0:0|0:0|0:0,0:0:0:0:
327,134,26759,1,2,0:0:0:0:
331,123,26970,1,0,0:0:0:0:
335,112,27182,1,2,0:0:0:0:
152,14,27393,6,0,L|172:102,1,90.9999938850405,0|2,0:0|0:0,0:0:0:0:
135,181,27815,1,0,0:0:0:0:
240,338,28027,2,0,L|260:249,1,90.9999938850405,2|0,0:0|0:0,0:0:0:0:
223,171,28449,1,2,0:0:0:0:
328,14,28660,2,0,L|348:102,1,90.9999938850405,0|2,0:0|0:0,0:0:0:0:
311,181,29067,6,0,B|323:239|402:262|452:222|452:222|400:209,1,227.49999165535,8|0,0:3|0:0,0:0:0:0:
161,136,29930,5,8,0:3:0:0:
159,216,30038,2,0,P|201:262|275:233,1,129.999995231629,4|0,0:3|0:0,0:0:0:0:
234,102,30361,6,0,L|41:74,1,195.000000286102,8|0,0:3|0:0,0:0:0:0:
311,181,30677,2,0,L|358:172,1,48.7500000715256,0|0,3:0|3:0,0:0:0:0:
387,166,30783,6,0,P|420:113|407:51,1,129.999995231629,4|2,0:0|0:0,0:0:0:0:
225,199,31135,1,0,0:0:0:0:
212,209,31205,2,0,P|227:250|261:276,1,86.6666634877523
283,355,31416,2,0,P|325:362|364:345,1,86.6666634877523,2|0,0:0|0:0,0:0:0:0:
383,269,31628,6,0,L|511:291,1,129.999995231629,0|2,0:0|0:0,0:0:0:0:
395,151,31980,1,0,0:0:0:0:
387,166,32050,2,0,L|258:188,1,129.999995231629,0|2,0:0|0:0,0:0:0:0:
31,196,32473,6,0,P|73:148|136:143,1,129.999995231629,0|2,0:0|0:0,0:0:0:0:
100,361,32825,1,0,0:0:0:0:
83,356,32895,2,0,P|64:317|68:274,1,86.6666634877523
150,302,33106,2,0,P|185:327|228:331,1,86.6666634877523,2|0,0:0|0:0,0:0:0:0:
214,245,33318,5,8,0:3:0:0:
303,361,33459,2,0,P|345:314|409:308,1,129.999995231629,4|0,0:3|0:0,0:0:0:0:
473,355,33740,5,8,0:3:0:0:
325,278,33881,2,0,P|366:192|354:96,1,195.000000286102,4|0,0:3|0:0,0:0:0:0:
319,21,34163,6,0,P|366:63|430:62,1,129.999995231629,4|2,0:0|0:0,0:0:0:0:
199,106,34515,1,0,0:0:0:0:
183,99,34585,2,0,P|140:107|108:135,1,86.6666634877523
140,209,34797,2,0,P|182:217|214:245,1,86.6666634877523,2|0,0:0|0:0,0:0:0:0:
186,318,35008,6,0,B|28:352,1,129.999995231629,0|2,0:0|0:0,0:0:0:0:
244,164,35360,1,0,0:0:0:0:
254,173,35430,2,0,B|381:200,1,129.999995231629,0|2,0:0|0:0,0:0:0:0:
512,140,35853,5,2,0:0:0:0:
361,68,35994,2,0,P|324:74|285:112,1,86.6666634877523,2|0,0:0|0:0,0:0:0:0:
432,113,36275,2,0,P|393:53|411:-7,1,129.999995231629,2|0,0:0|0:0,0:0:0:0:
506,212,36698,5,8,0:3:0:0:
454,271,36839,2,0,P|382:274|339:229,1,129.999995231629,4|0,0:3|0:0,0:0:0:0:
324,151,37121,6,0,P|249:106|213:184,1,195.000000286102,8|0,0:3|0:0,0:0:0:0:
256,261,37437,2,0,L|242:320,1,48.7500000715256,0|0,3:0|3:0,0:0:0:0:
235,339,37543,6,0,P|173:349|123:311,1,129.999995231629,4|2,0:0|0:0,0:0:0:0:
160,120,37896,1,0,0:0:0:0:
170,113,37967,2,0,P|209:161|204:220,1,86.6666634877523
140,233,38179,2,0,P|130:274|100:305,1,86.6666634877523,2|0,0:0|0:0,0:0:0:0:
20,266,38391,6,0,P|21:201|36:137,1,129.999995231629,0|2,0:0|0:0,0:0:0:0:
220,43,38744,1,0,0:0:0:0:
228,55,38815,2,0,P|226:119|211:183,1,129.999995231629,0|2,0:0|0:0,0:0:0:0:
99,304,39239,6,0,P|150:267|214:271,1,129.999995231629,0|2,0:0|0:0,0:0:0:0:
344,372,39592,1,0,0:0:0:0:
331,380,39663,2,0,P|289:367|259:337,1,86.6666634877523
297,183,39875,2,0,P|306:224|295:266,1,86.6666634877523,2|0,0:0|0:0,0:0:0:0:
190,380,40087,5,8,0:3:0:0:
214,271,40228,2,0,P|157:244|93:253,1,129.999995231629,4|0,0:3|0:0,0:0:0:0:
31,304,40511,5,8,0:3:0:0:
163,205,40652,2,0,P|221:125|174:40,1,195.000000286102,4|0,0:3|0:0,0:0:0:0:
127,0,40935,6,0,L|255:17,1,129.999995231629,6|0,0:0|0:0,0:0:0:0:
407,91,41284,1,0,0:0:0:0:
401,104,41354,6,0,L|253:127,1,149.499997367859,2|0,0:0|0:0,0:0:0:0:
46,183,41704,1,0,0:0:0:0:
58,200,41774,6,0,L|225:222,1,168.999986064912,2|0,0:0|0:0,0:0:0:0:
483,283,42123,1,0,0:0:0:0:
468,308,42193,6,0,L|281:333,1,188.499998838425,2|0,0:0|0:0,0:0:0:0:
44,308,42613,5,4,0:3:0:0:
256,241,42824,1,8,0:3:0:0:
468,308,43035,5,4,0:3:0:0:
387,326,43141,1,8,0:3:0:0:
307,302,43246,1,4,0:3:0:0:
256,241,43352,1,8,0:3:0:0:
360,92,43563,5,4,0:3:0:0:
100,148,43774,1,8,0:3:0:0:
34,108,43880,2,0,P|84:27|184:47,1,194.999992847443,4|0,0:3|0:0,0:0:0:0:
169,115,44303,6,0,L|259:129,1,90.9999938850405,4|0,0:0|0:0,0:0:0:0:
503,172,44725,2,0,P|442:143|422:79,1,136.499990827561,2|0,0:0|0:0,0:0:0:0:
444,66,45148,2,0,P|378:51|323:88,2,136.499990827561,2|0|0,0:0|0:0|0:0,0:0:0:0:
503,172,45993,5,0,0:0:0:0:
341,259,46204,2,0,L|355:169,1,90.9999938850405,0|2,0:0|0:0,0:0:0:0:
323,88,46626,1,0,0:0:0:0:
234,231,46838,5,2,0:0:0:0:
248,321,47049,2,0,L|234:231,1,90.9999938850405
366,18,47401,1,8,0:3:0:0:
378,12,47472,2,0,L|367:71,1,60.666662590027,4|0,0:3|0:0,0:0:0:0:
354,169,47683,5,8,0:3:0:0:
170,36,47894,1,0,0:0:0:0:
143,114,48105,2,0,P|101:130|55:130,1,90.9999938850405,2|0,0:0|0:0,0:0:0:0:
261,97,48528,2,0,L|233:230,2,136.499990827561,2|0|0,0:0|0:0|0:0,0:0:0:0:
170,36,49373,5,2,0:0:0:0:
405,109,49584,1,2,0:0:0:0:
213,158,49795,1,2,0:0:0:0:
330,223,50007,5,2,0:0:0:0:
265,270,50112,2,0,L|131:242,1,136.499990827561,2|0,0:0|0:0,0:0:0:0:
65,154,50641,5,8,0:3:0:0:
274,80,50852,1,4,0:3:0:0:
37,59,51063,6,0,P|92:132|182:112,1,195.000000286102,4|0,0:0|0:0,0:0:0:0:
256,64,51486,6,0,L|274:162,1,90.9999938850405,2|0,0:0|0:0,0:0:0:0:
311,351,51908,5,0,0:0:0:0:
380,313,52014,2,0,L|395:223,1,90.9999938850405,2|0,0:0|0:0,0:0:0:0:
349,165,52331,5,2,0:0:0:0:
491,290,52542,1,0,0:0:0:0:
452,354,52753,5,0,0:0:0:0:
430,154,52964,2,0,P|437:109|460:58,1,90.9999938850405,0|2,0:0|0:0,0:0:0:0:
510,5,53281,2,0,P|467:21|411:27,1,90.9999938850405
337,6,53598,5,0,0:0:0:0:
284,70,53704,1,2,0:0:0:0:
350,17,53810,5,0,0:0:0:0:
200,78,54021,1,2,0:0:0:0:
430,154,54232,1,0,0:0:0:0:
280,215,54443,6,0,L|265:305,1,90.9999938850405,2|0,0:0|0:0,0:0:0:0:
187,183,54795,1,0,0:0:0:0:
194,194,54866,6,0,L|175:302,1,110.499998054504,2|0,0:0|0:0,0:0:0:0:
99,153,55218,1,0,0:0:0:0:
108,171,55288,6,0,L|84:309,1,129.999995231629,2|0,0:0|0:0,0:0:0:0:
15,121,55641,1,0,0:0:0:0:
25,148,55711,6,0,L|-1:307,1,149.499997367859,2|0,0:0|0:0,0:0:0:0:
125,370,56133,5,4,0:3:0:0:
387,370,56345,1,8,0:3:0:0:
159,262,56556,5,4,0:3:0:0:
215,200,56662,1,8,0:3:0:0:
297,200,56767,1,4,0:3:0:0:
353,262,56873,1,8,0:3:0:0:
101,160,57084,5,4,0:3:0:0:
411,160,57295,1,8,0:3:0:0:
480,129,57401,2,0,P|443:41|341:45,1,194.999992847443,4|0,0:3|0:0,0:0:0:0:
346,115,57824,1,8,0:3:0:0:
346,115,59514,5,8,0:3:0:0:
291,54,59619,2,0,P|237:38|146:129,1,194.999992847443,4|0,0:3|0:0,0:0:0:0:
203,301,60148,5,8,0:3:0:0:
148,362,60253,2,0,P|94:378|3:287,1,194.999992847443,4|0,0:3|0:0,0:0:0:0:
54,213,60781,6,0,L|47:240,6,16.2499994039536,8|0|0|0|0|0|0,3:0|3:0|3:0|3:0|3:0|3:0|3:0,0:0:0:0:
44,204,61204,6,0,L|22:110,1,97.4999964237214,2|0,0:0|0:0,0:0:0:0:
21,109,61415,6,0,P|48:70|96:65,1,97.5000001430512,12|0,0:0|0:0,0:0:0:0:
277,130,61626,1,4,0:3:0:0:
212,185,61732,2,0,P|165:180|138:142,1,97.5000001430512,0|8,0:0|0:0,0:0:0:0:
342,75,61943,2,0,L|299:265,1,195.000000286102,2|0,0:0|0:0,0:0:0:0:
385,227,62260,6,0,P|413:188|402:142,1,97.5000001430512,8|0,0:0|0:0,0:0:0:0:
264,2,62472,1,4,0:3:0:0:
212,72,62577,2,0,P|230:115|276:129,1,97.5000001430512,0|8,0:0|0:0,0:0:0:0:
469,103,62788,2,0,L|426:293,1,195.000000286102,2|0,0:0|0:0,0:0:0:0:
338,371,63105,6,0,P|329:298|307:229,1,146.250000214577,8|0,0:0|0:0,0:0:0:0:
296,224,63317,1,4,0:3:0:0:
85,274,63422,6,0,P|158:305|237:322,1,160.874995633364
247,315,63633,1,0,0:0:0:0:
319,96,63739,6,0,P|249:149|190:214,1,175.499988206864,4|0,0:3|0:0,0:0:0:0:
192,226,63950,1,8,0:0:0:0:
348,297,64056,6,0,P|381:243|371:182,1,126.749995834351,0|4,0:0|0:3,0:0:0:0:
174,11,64267,2,0,P|140:64|150:125,1,126.749995834351,0|8,0:0|0:0,0:0:0:0:
296,224,64479,6,0,L|254:33,1,195.000000286102,2|0,0:0|0:0,0:0:0:0:
441,55,64795,6,0,P|437:127|418:198,1,146.250000214577,8|0,0:0|0:0,0:0:0:0:
408,208,65007,1,4,0:3:0:0:
423,339,65112,6,0,P|356:296|300:238,1,160.874995633364
296,224,65324,1,0,0:0:0:0:
161,177,65429,6,0,P|238:137|323:115,1,175.499988206864,4|0,0:3|0:0,0:0:0:0:
338,119,65641,1,8,0:0:0:0:
258,324,65746,6,0,P|196:332|148:293,1,126.749995834351,0|4,0:0|0:3,0:0:0:0:
58,32,65957,2,0,P|119:24|167:63,1,126.749995834351,0|8,0:0|0:0,0:0:0:0:
34,288,66169,6,0,P|46:173|161:177,1,253.499991668701,4|0,0:0|0:0,0:0:0:0:
219,255,66486,6,0,L|334:228,1,97.5000001430512,8|0,0:0|0:0,0:0:0:0:
485,188,66697,2,0,L|496:140,1,48.7500000715256,4|0,0:3|0:0,0:0:0:0:
489,108,66803,2,0,P|453:76|405:76,1,97.5000001430512,0|8,0:0|0:0,0:0:0:0:
258,324,67014,6,0,L|423:285,1,162.499994039536,2|0,0:0|0:0,0:0:0:0:
415,286,67331,6,0,P|281:83|259:325,1,633.749979171753,12|0,0:0|0:0,0:0:0:0:
357,381,67964,1,4,0:3:0:0:
357,381,68176,6,0,P|332:341|339:294,1,97.5000001430512,12|0,0:0|0:0,0:0:0:0:
449,116,68387,1,4,0:3:0:0:
485,188,68493,2,0,P|462:230|418:247,1,97.5000001430512,0|8,0:0|0:0,0:0:0:0:
257,187,68704,2,0,L|239:389,1,195.000000286102,2|0,0:0|0:0,0:0:0:0:
98,333,69021,6,0,P|65:297|65:249,1,97.5000001430512,8|0,0:0|0:0,0:0:0:0:
119,69,69232,1,4,0:3:0:0:
174,131,69338,2,0,P|173:178|141:214,1,97.5000001430512,0|8,0:0|0:0,0:0:0:0:
61,10,69549,2,0,L|262:28,1,195.000000286102,2|0,0:0|0:0,0:0:0:0:
375,79,69866,6,0,P|327:79|292:112,1,97.5000001430512,8|0,0:0|0:0,0:0:0:0:
479,158,70077,1,4,0:3:0:0:
512,83,70183,2,0,P|487:42|441:28,1,97.5000001430512,0|8,0:0|0:0,0:0:0:0:
257,187,70394,2,0,L|275:389,1,195.000000286102,2|0,0:0|0:0,0:0:0:0:
426,251,70711,6,0,P|391:218|343:218,1,97.5000001430512,8|0,0:0|0:0,0:0:0:0:
115,297,70922,1,4,0:3:0:0:
185,340,71028,2,0,P|232:340|267:307,2,97.5000001430512,0|8|0,0:0|0:0|0:0,0:0:0:0:
45,254,71345,2,0,L|57:157,1,97.5000001430512,4|0,0:3|0:0,0:0:0:0:
73,42,71556,6,0,P|90:137|141:219,1,195.000000286102,8|4,0:0|0:3,0:0:0:0:
176,8,71873,2,0,P|103:71|57:157,1,195.000000286102
245,186,72190,2,0,P|227:90|176:8,1,195.000000286102,4|8,0:3|0:0,0:0:0:0:
141,219,72507,2,0,P|214:155|260:70,1,195.000000286102
176,8,72824,1,8,0:0:0:0:
345,316,73035,5,4,0:3:0:0:
410,164,73176,1,8,0:3:0:0:
245,186,73317,1,4,0:3:0:0:
422,259,73457,5,8,0:3:0:0:
323,126,73598,1,4,0:3:0:0:
257,279,73739,1,8,0:3:0:0:
338,227,73880,6,0,L|324:107,1,97.4999964237214,4|0,0:3|0:0,0:0:0:0:
326,129,74091,6,0,P|77:199|272:370,1,633.749979171753,12|0,0:0|0:0,0:0:0:0:
345,316,74725,6,0,L|441:304,1,97.4999964237214,4|0,0:3|0:0,0:0:0:0:
441,304,74936,6,0,P|475:270|474:223,1,97.5000001430512,12|0,0:0|0:0,0:0:0:0:
377,71,75148,1,4,0:3:0:0:
326,129,75253,2,0,P|325:176|358:210,1,97.5000001430512,0|8,0:0|0:0,0:0:0:0:
474,223,75464,2,0,L|496:29,1,195.000000286102,2|0,0:0|0:0,0:0:0:0:
244,95,75781,6,0,P|277:128|324:129,1,97.5000001430512,8|0,0:0|0:0,0:0:0:0:
108,218,75993,1,4,0:3:0:0:
176,266,76098,2,0,P|222:254|246:213,1,97.5000001430512,0|8,0:0|0:0,0:0:0:0:
130,24,76310,2,0,L|107:217,1,195.000000286102,2|0,0:0|0:0,0:0:0:0:
71,384,76626,6,0,P|42:316|29:244,1,146.250000214577,8|0,0:0|0:0,0:0:0:0:
34,230,76838,1,4,0:3:0:0:
256,201,76943,6,0,P|207:265|146:317,1,160.874995633364
131,321,77155,1,0,0:0:0:0:
0,125,77260,6,0,P|86:135|169:165,1,175.499988206864,4|0,0:3|0:0,0:0:0:0:
179,176,77472,1,8,0:0:0:0:
282,328,77577,6,0,P|343:337|392:300,1,126.749995834351,0|4,0:0|0:3,0:0:0:0:
346,97,77788,2,0,P|284:87|235:124,1,126.749995834351,0|8,0:0|0:0,0:0:0:0:
442,230,78000,6,0,L|421:36,1,195.000000286102,2|0,0:0|0:0,0:0:0:0:
352,197,78317,6,0,P|289:234|218:248,1,146.250000214577,8|0,0:0|0:0,0:0:0:0:
208,243,78528,1,4,0:3:0:0:
115,310,78633,6,0,P|114:230|140:154,1,160.874995633364
150,148,78845,1,0,0:0:0:0:
124,28,78950,6,0,P|200:71|258:137,1,175.499988206864,4|0,0:3|0:0,0:0:0:0:
258,149,79162,1,8,0:0:0:0:
78,226,79267,6,0,P|45:173|53:111,1,126.749995834351,0|4,0:0|0:3,0:0:0:0:
352,197,79479,2,0,P|384:249|376:311,1,126.749995834351,0|8,0:0|0:0,0:0:0:0:
114,310,79690,6,0,P|227:270|302:363,1,253.499991668701,4|0,0:0|0:0,0:0:0:0:
375,311,80007,6,0,L|470:292,1,97.5000001430512,8|0,0:0|0:0,0:0:0:0:
442,79,80218,2,0,L|394:88,1,48.7500000715256,4|0,0:3|0:0,0:0:0:0:
368,108,80324,2,0,P|343:149|351:196,1,97.5000001430512,0|8,0:0|0:0,0:0:0:0:
301,361,80535,6,0,L|460:329,1,162.499994039536,2|0,0:0|0:0,0:0:0:0:
460,329,80852,6,0,P|445:150|318:369,1,633.749979171753,12|0,0:0|0:0,0:0:0:0:
375,311,81486,1,4,0:3:0:0:
375,311,81697,6,0,P|381:263|356:223,1,97.5000001430512,12|0,0:0|0:0,0:0:0:0:
193,226,81908,1,4,0:3:0:0:
272,206,82014,2,0,P|297:165|290:118,1,97.5000001430512,0|8,0:0|0:0,0:0:0:0:
69,18,82225,2,0,L|113:207,1,195.000000286102,2|0,0:0|0:0,0:0:0:0:
87,285,82542,6,0,P|39:291|0:266,1,97.5000001430512,8|0,0:0|0:0,0:0:0:0:
272,206,82753,1,4,0:3:0:0:
300,284,82859,2,0,P|281:328|239:350,1,97.5000001430512,0|8,0:0|0:0,0:0:0:0:
185,144,83070,2,0,L|374:188,1,195.000000286102,2|0,0:0|0:0,0:0:0:0:
458,163,83387,6,0,P|483:122|476:75,1,97.5000001430512,8|0,0:0|0:0,0:0:0:0:
272,206,83598,1,4,0:3:0:0:
300,284,83704,2,0,P|322:326|366:344,1,97.5000001430512,0|8,0:0|0:0,0:0:0:0:
375,188,83915,2,0,L|186:144,1,195.000000286102,2|0,0:0|0:0,0:0:0:0:
138,220,84232,6,0,P|97:245|50:238,1,97.5000001430512,8|0,0:0|0:0,0:0:0:0:
119,87,84443,1,4,0:3:0:0:
205,64,84549,2,0,P|247:87|264:131,2,97.5000001430512,0|8|0,0:0|0:0|0:0,0:0:0:0:
138,220,84866,2,0,L|160:314,1,97.5000001430512,4|0,0:3|0:0,0:0:0:0:
415,316,85077,6,0,P|332:264|237:247,1,195.000000286102,8|4,0:0|0:3,0:0:0:0:
484,378,85394,2,0,P|438:292|364:229,1,195.000000286102
185,143,85711,2,0,P|111:206|66:292,1,195.000000286102,4|8,0:3|0:0,0:0:0:0:
315,151,86028,2,0,P|220:168|137:219,1,195.000000286102
60,369,86345,1,8,0:0:0:0:
327,244,86556,5,4,0:3:0:0:
392,92,86699,1,8,0:3:0:0:
227,114,86843,1,4,0:3:0:0:
404,187,86987,5,8,0:3:0:0:
305,54,87131,1,4,0:3:0:0:
239,207,87275,1,8,0:3:0:0:
320,155,87419,6,0,L|306:35,1,97.4999964237214,4|0,0:3|0:0,0:0:0:0:
308,57,87635,6,0,P|58:128|254:297,1,633.749979171753,12|0,0:0|0:0,0:0:0:0:
327,244,88247,5,4,0:3:0:0:
308,57,88439,2,0,L|297:138,1,64.9999976158143,2|0,0:0|0:0,0:0:0:0:
327,244,88666,1,2,0:0:0:0:
267,189,88779,2,0,L|275:124,1,64.9999976158143,2|0,0:0|0:0,0:0:0:0:
137,45,89007,6,0,P|131:108|169:159,1,129.999995231629,4|0,0:3|0:0,0:0:0:0:
267,189,89315,2,0,L|186:178,1,64.9999976158143,2|0,0:0|0:0,0:0:0:0:
52,64,89520,1,2,0:0:0:0:
137,45,89623,2,0,L|201:53,1,64.9999976158143,2|0,0:0|0:0,0:0:0:0:
360,171,89828,6,0,P|423:176|474:138,1,129.999995231629,4|0,0:3|0:0,0:0:0:0:
453,34,90149,1,2,0:0:0:0:
402,100,90256,1,0,0:0:0:0:
486,111,90363,1,4,0:3:0:0:
486,111,90470,2,0,L|475:39,1,64.9999976158143,8|0,0:3|0:0,0:0:0:0:
370,22,90685,1,0,0:0:0:0:
370,22,90899,6,0,P|337:48|300:50,1,64.9999976158143,4|0,0:3|0:0,0:0:0:0:
94,126,91113,2,0,P|138:171|201:179,1,129.999995231629,4|0,0:3|0:0,0:0:0:0:
265,135,91504,2,0,L|253:87,1,32.4999988079071,0|0,3:0|3:0,0:0:0:0:
183,77,91634,5,4,0:3:0:0:
144,268,91845,1,2,0:0:0:0:
175,343,91950,1,0,0:0:0:0:
227,276,92056,1,2,0:0:0:0:
227,276,92162,2,0,B|211:207,1,64.9999976158143,2|0,0:0|0:0,0:0:0:0:
315,51,92373,6,0,P|378:45|431:81,1,129.999995231629,4|0,0:3|0:0,0:0:0:0:
348,279,92690,1,2,0:0:0:0:
298,214,92795,1,0,0:0:0:0:
381,202,92901,2,0,P|426:246|426:309,1,129.999995231629,2|0,0:0|0:0,0:0:0:0:
227,276,93324,5,4,0:3:0:0:
209,183,93464,1,8,0:3:0:0:
298,214,93605,1,4,0:3:0:0:
136,247,93746,5,8,0:3:0:0:
279,120,93887,1,4,0:3:0:0:
317,306,94028,1,8,0:3:0:0:
