osu file format v14

[General]
AudioFilename: audio.mp3
AudioLeadIn: 0
PreviewTime: 61098
Countdown: 0
SampleSet: Soft
StackLeniency: 0.7
Mode: 0
LetterboxInBreaks: 0
WidescreenStoryboard: 1

[Editor]
DistanceSpacing: 1.2
BeatDivisor: 4
GridSize: 32
TimelineZoom: 1.8

[Metadata]
Title:Deal with the devil (TV Size)
TitleUnicode:Deal with the devil (TV Size)
Artist:Tia
ArtistUnicode:Tia
Creator:lcfc
Version:Dash's Normal
Source:賭ケグルイ
Tags:kakegurui dwtd compulsive gambler jabami yumeko lowcombofc trynna dashyy-
BeatmapID:1616374
BeatmapSetID:762301

[Difficulty]
HPDrainRate:3
CircleSize:3
OverallDifficulty:3
ApproachRate:4
SliderMultiplier:1.39999990463257
SliderTickRate:1

[Events]
//Background and Video events
0,0,"BG.jpg",0,0
//Break Periods
//Storyboard Layer 0 (Background)
//Storyboard Layer 1 (Fail)
//Storyboard Layer 2 (Pass)
//Storyboard Layer 3 (Foreground)
//Storyboard Sound Samples

[TimingPoints]
351,425.531914893617,4,2,1,46,1,0
747,425.531914893617,4,2,1,46,1,0
3300,-100,4,2,1,66,0,0
3727,425.531914893617,4,2,1,66,1,0
7131,413.793103448276,4,2,1,56,1,0
8786,422.535211267606,4,2,1,66,1,0
10476,422.535211267606,4,2,1,66,1,0
15546,431.654676258993,4,2,1,66,1,0
16840,425.531914893617,4,2,1,66,1,0
17265,421.052631578947,4,2,1,46,1,0
20633,422.535211267606,4,2,1,46,1,0
23168,-100,4,2,1,56,0,0
24013,422.535211267606,4,2,1,46,1,0
28872,390.879478827362,4,2,1,46,1,0
29067,431.654676258993,4,2,1,66,1,0
30361,422.535211267606,4,2,1,66,1,0
30783,422.535211267606,4,2,1,66,1,0
37543,424.028268551237,4,2,1,66,1,0
40935,419.58041958042,4,2,1,66,1,0
42613,422.535211267606,4,2,1,66,1,0
44303,422.535211267606,4,2,1,66,1,0
61415,-100,4,2,1,76,0,1
86556,431.654676258993,4,2,1,66,1,1
87635,408.163265306122,4,2,1,66,1,1
88247,384.615384615385,4,2,1,66,1,0
88439,454.545454545455,4,2,1,66,1,0
89007,410.958904109589,4,2,1,66,1,0
89828,428.571428571429,4,2,1,66,1,0
91113,521.739130434783,4,2,1,66,1,0
91634,422.535211267606,4,2,1,66,1,0

[Colours]
Combo1 : 210,191,151
Combo2 : 255,106,106
Combo3 : 192,213,149
Combo4 : 181,106,255

[HitObjects]
77,224,2023,6,0,B|84:147|84:147|59:74,2,139.999990463257,2|2|2,0:0|0:0|0:0,0:0:0:0:
1,373,3300,1,4,0:3:0:0:
151,298,3726,6,0,B|231:290|231:290|295:325,1,139.999990463257,8|2,0:3|0:0,0:0:0:0:
330,248,4365,2,0,B|281:212|281:212|255:136,1,139.999990463257,8|2,0:3|0:0,0:0:0:0:
262,53,5003,1,2,0:0:0:0:
97,20,5429,6,0,B|61:85|61:85|-11:109,1,139.999990463257,8|2,0:3|0:0,0:0:0:0:
20,187,6067,2,0,B|87:167|87:167|171:201,1,139.999990463257,8|2,0:3|0:0,0:0:0:0:
227,230,6705,1,8,0:3:0:0:
399,231,7131,6,0,B|407:181|407:181|437:157|437:157|444:58|444:58|365:27|365:27|357:99|357:99|269:79,1,419.999971389771,2|2,0:0|0:0,0:0:0:0:
124,44,8786,1,8,0:3:0:0:
114,342,10476,6,0,B|126:302|126:302|104:258,1,69.9999952316285,8|2,0:3|0:0,0:0:0:0:
50,220,10898,2,0,B|31:179|31:179|64:10,1,209.999985694886,2|0,0:0|0:0,0:0:0:0:
146,19,11743,1,2,0:0:0:0:
146,19,11954,2,0,B|178:40|178:40|233:50,1,69.9999952316285,2|2,0:0|0:0,0:0:0:0:
293,43,12377,1,2,0:0:0:0:
293,43,12588,2,0,B|319:106|319:106|311:183,2,139.999990463257,2|2|8,0:0|0:0|0:3,0:0:0:0:
190,176,13856,6,0,B|191:217|191:217|163:245,1,69.9999952316285,8|2,0:3|0:0,0:0:0:0:
223,302,14278,2,0,B|264:265|264:265|362:276,1,139.999990463257,2|0,0:0|0:0,0:0:0:0:
402,338,14912,1,0,0:0:0:0:
402,338,15123,2,0,B|432:356|432:356|484:345,1,69.9999952316285,2|0,0:0|0:0,0:0:0:0:
506,274,15546,6,0,B|489:237|489:237|495:180,1,69.9999952316285,4|8,0:3|0:3,0:0:0:0:
490,123,15977,2,0,B|496:92|496:92|471:8,2,104.999992847443,4|8|0,0:3|0:3|0:0,0:0:0:0:
421,172,16840,2,0,B|385:149|385:149|332:148,1,69.9999952316285,4|0,0:3|0:0,0:0:0:0:
280,182,17265,5,4,0:0:0:0:
178,47,17686,1,0,0:0:0:0:
117,203,18107,1,0,0:0:0:0:
6,75,18528,1,0,0:0:0:0:
11,242,18949,2,0,B|66:302|66:302|154:306,1,139.999990463257,0|0,0:0|0:0,0:0:0:0:
250,193,19791,2,0,B|306:141|306:141|397:129,1,139.999990463257,0|0,0:0|0:0,0:0:0:0:
424,291,20633,6,0,B|330:274|330:274|201:328,2,209.999985694886,0|2|0,0:0|0:0|0:0,0:0:0:0:
511,147,22323,1,0,0:0:0:0:
511,147,22534,2,0,B|487:114|487:114|312:86,1,209.999985694886,2|2,0:0|0:0,0:0:0:0:
159,136,23590,1,2,0:0:0:0:
264,266,24013,5,4,0:0:0:0:
414,191,24435,1,0,0:0:0:0:
264,114,24858,1,0,0:0:0:0:
418,49,25280,1,0,0:0:0:0:
253,15,25703,2,0,B|226:37|226:37|113:46,1,139.999990463257,0|0,0:0|0:0,0:0:0:0:
12,173,26548,2,0,B|45:201|45:201|63:318,1,139.999990463257,0|0,0:0|0:0,0:0:0:0:
226,320,27393,6,0,B|206:207|206:207|240:94,2,209.999985694886,0|2|0,0:0|0:0|0:0,0:0:0:0:
389,302,29067,6,0,L|362:16,1,279.999980926514,8|8,0:3|0:3,0:0:0:0:
216,113,30361,1,8,0:3:0:0:
58,54,30783,6,0,B|30:93|30:93|51:202,1,139.999990463257,4|0,0:0|0:0,0:0:0:0:
101,247,31416,1,2,0:0:0:0:
101,247,31628,2,0,B|118:283|118:283|100:392,1,139.999990463257,0|0,0:0|0:0,0:0:0:0:
267,353,32473,2,0,B|278:261|278:261|320:228,2,139.999990463257,0|2|8,0:0|0:0|0:3,0:0:0:0:
426,302,33740,2,0,L|419:217,1,69.9999952316285,8|0,0:3|0:0,0:0:0:0:
409,148,34163,6,0,B|427:118|427:118|422:9,1,139.999990463257,4|0,0:0|0:0,0:0:0:0:
338,2,34797,2,0,P|316:34|201:40,1,139.999990463257,2|2,0:0|0:0,0:0:0:0:
145,16,35430,2,0,P|101:14|44:97,1,139.999990463257,0|2,0:0|0:0,0:0:0:0:
87,154,36064,1,0,0:0:0:0:
87,154,36275,2,0,P|107:207|107:241,1,69.9999952316285,2|0,0:0|0:0,0:0:0:0:
70,295,36698,2,0,B|142:300|142:300|167:283|167:283|230:288,1,139.999990463257,8|8,0:3|0:3,0:0:0:0:
368,321,37543,6,0,L|381:178,1,139.999990463257,4|0,0:0|0:0,0:0:0:0:
323,120,38179,1,2,0:0:0:0:
323,120,38391,2,0,B|295:149|295:149|189:139,1,139.999990463257,0|0,0:0|0:0,0:0:0:0:
70,27,39239,2,0,L|47:190,2,139.999990463257,0|2|8,0:0|0:0|0:3,0:0:0:0:
236,8,40511,1,8,0:3:0:0:
170,164,40935,6,0,P|156:210|193:293,1,139.999990463257,6|2,0:0|0:0,0:0:0:0:
158,368,41564,2,0,P|104:339|26:348,1,139.999990463257,0|0,0:0|0:0,0:0:0:0:
0,268,42193,2,0,L|9:184,1,69.9999952316285,2|0,0:0|0:0,0:0:0:0:
28,117,42613,6,0,L|17:40,2,69.9999952316285,4|8|4,0:3|0:3|0:3,0:0:0:0:
102,163,43246,1,4,0:3:0:0:
102,163,43458,2,0,L|193:167,2,69.9999952316285,0|0|4,0:0|0:0|0:3,0:0:0:0:
221,44,44303,6,0,P|273:50|300:66,1,69.9999952316285,4|0,0:0|0:0,0:0:0:0:
354,108,44725,2,0,P|336:156|336:199,1,69.9999952316285,2|0,0:0|0:0,0:0:0:0:
352,256,45148,2,0,L|459:264,2,104.999992847443,2|0|0,0:0|0:0|0:0,0:0:0:0:
191,305,46204,2,0,P|153:324|63:300,1,139.999990463257,0|0,0:0|0:0,0:0:0:0:
34,220,46838,2,0,B|56:190|56:190|72:83,1,139.999990463257,2|0,0:0|0:0,0:0:0:0:
225,21,47683,5,8,0:3:0:0:
225,21,47894,2,0,L|234:104,2,69.9999952316285,0|2|0,0:0|0:0|0:0,0:0:0:0:
309,26,48528,2,0,L|433:31,2,104.999992847443,2|0|0,0:0|0:0|0:0,0:0:0:0:
265,98,49373,2,0,L|272:176,2,69.9999952316285,2|2|2,0:0|0:0|0:0,0:0:0:0:
348,108,50007,1,2,0:0:0:0:
348,108,50218,2,0,L|364:264,1,139.999990463257,0|8,0:0|0:3,0:0:0:0:
373,330,50852,1,4,0:3:0:0:
373,330,51063,6,0,P|329:344|300:337,1,69.9999952316285,4|0,0:0|0:0,0:0:0:0:
236,293,51486,2,0,P|201:280|169:283,1,69.9999952316285,2|0,0:0|0:0,0:0:0:0:
86,296,51908,2,0,L|96:177,2,104.999992847443,0|0|0,0:0|0:0|0:0,0:0:0:0:
23,140,52964,2,0,L|8:20,2,104.999992847443,0|0|0,0:0|0:0|0:0,0:0:0:0:
106,144,53810,1,0,0:0:0:0:
106,144,54021,2,0,P|154:117|179:116,1,69.9999952316285,2|0,0:0|0:0,0:0:0:0:
250,132,54443,6,0,L|262:294,1,139.999990463257,2|2,0:0|0:0,0:0:0:0:
422,227,55288,2,0,L|410:65,1,139.999990463257,2|2,0:0|0:0,0:0:0:0:
252,33,56133,6,0,L|178:37,1,69.9999952316285,4|8,0:3|0:3,0:0:0:0:
108,72,56556,1,4,0:3:0:0:
108,72,56767,1,4,0:3:0:0:
169,129,56979,2,0,B|177:183|177:183|168:205|168:205|178:276,1,139.999990463257,0|4,0:0|0:3,0:0:0:0:
256,192,57824,12,8,59514,0:3:0:0:
119,229,60781,6,0,P|139:189|132:151,1,69.9999952316285,8|0,3:0|3:0,0:0:0:0:
121,81,61204,5,0,0:0:0:0:
121,81,61415,2,0,L|207:68,1,69.9999952316285,2|4,0:0|0:3,0:0:0:0:
276,107,61838,1,8,0:0:0:0:
276,107,62049,2,0,P|241:159|264:242,1,139.999990463257,0|4,0:0|0:3,0:0:0:0:
327,274,62683,2,0,L|408:278,1,69.9999952316285,8|0,0:0|0:0,0:0:0:0:
434,202,63105,6,0,B|429:119|429:119|438:90,2,104.999992847443,8|0|4,0:0|0:0|0:3,0:0:0:0:
396,277,63950,2,0,L|272:266,1,104.999992847443,8|0,0:0|0:0,0:0:0:0:
167,291,64584,1,0,0:0:0:0:
167,291,64795,6,0,P|175:233|159:163,1,104.999992847443,8|0,0:0|0:0,0:0:0:0:
248,90,65429,2,0,P|269:127|326:159,1,104.999992847443,4|0,0:3|0:0,0:0:0:0:
399,125,65957,1,0,0:0:0:0:
482,112,66169,6,0,L|489:238,1,104.999992847443,4|0,0:0|0:0,0:0:0:0:
462,297,66697,2,0,L|357:310,1,104.999992847443,4|2,0:3|0:0,0:0:0:0:
232,304,67331,2,0,P|196:250|62:268,1,209.999985694886,12|4,0:0|0:3,0:0:0:0:
11,198,68176,6,0,B|36:167|36:167|64:50,1,139.999990463257,12|8,0:0|0:0,0:0:0:0:
132,26,68810,1,0,0:0:0:0:
132,26,69021,2,0,P|178:67|265:56,1,139.999990463257,8|8,0:0|0:0,0:0:0:0:
420,58,69866,2,0,L|407:181,1,104.999992847443,8|0,0:0|0:0,0:0:0:0:
363,233,70394,2,0,P|324:205|249:201,1,104.999992847443,2|8,0:0|0:0,0:0:0:0:
189,225,70922,2,0,L|113:235,1,69.9999952316285,4|8,0:3|0:0,0:0:0:0:
17,100,71556,6,0,L|140:91,2,104.999992847443,8|0|4,0:0|0:0|0:3,0:0:0:0:
14,226,72507,2,0,L|118:233,1,104.999992847443,0|8,0:0|0:0,0:0:0:0:
172,296,73035,6,0,L|170:382,2,46.6666634877523,4|8|4,0:3|0:3|0:3,0:0:0:0:
213,256,73457,2,0,L|205:198,2,46.6666634877523,8|4|8,0:3|0:3|0:3,0:0:0:0:
244,302,73880,1,4,0:3:0:0:
244,302,74091,2,0,P|290:268|372:290,1,139.999990463257,12|0,0:0|0:0,0:0:0:0:
447,137,74936,6,0,L|300:130,1,139.999990463257,12|8,0:0|0:0,0:0:0:0:
232,170,75570,1,0,0:0:0:0:
232,170,75781,2,0,P|193:213|104:213,1,139.999990463257,8|8,0:0|0:0,0:0:0:0:
49,165,76415,2,0,L|46:77,1,69.9999952316285,0|8,0:0|0:0,0:0:0:0:
111,41,76838,6,0,L|264:42,1,139.999990463257,4|4,0:3|0:3,0:0:0:0:
332,61,77472,2,0,L|347:193,2,104.999992847443,8|0|0,0:0|0:0|0:0,0:0:0:0:
409,27,78317,6,0,B|440:66|440:66|436:138,2,104.999992847443,8|0|4,0:0|0:0|0:3,0:0:0:0:
325,18,79162,2,0,P|285:42|212:29,1,104.999992847443,8|0,0:0|0:0,0:0:0:0:
146,20,79690,6,0,B|170:58|170:58|152:196,1,174.999988079071,4|4,0:0|0:3,0:0:0:0:
148,355,80641,1,0,0:0:0:0:
148,355,80852,2,0,P|201:317|290:342,1,139.999990463257,12|0,0:0|0:0,0:0:0:0:
437,353,81697,6,0,B|410:314|410:314|419:217,1,139.999990463257,12|8,0:0|0:0,0:0:0:0:
426,137,82331,1,0,0:0:0:0:
426,137,82542,2,0,P|381:110|295:131,1,139.999990463257,8|8,0:0|0:0,0:0:0:0:
149,204,83387,6,0,L|31:213,1,104.999992847443,8|0,0:0|0:0,0:0:0:0:
7,135,83915,2,0,P|47:117|95:62,1,104.999992847443,2|8,0:0|0:0,0:0:0:0:
157,24,84443,2,0,L|240:25,1,69.9999952316285,4|8,0:3|0:0,0:0:0:0:
394,39,85077,6,0,L|407:170,2,104.999992847443,8|0|4,0:0|0:0|0:3,0:0:0:0:
270,66,86028,2,0,L|139:79,1,104.999992847443,0|8,0:0|0:0,0:0:0:0:
140,153,86556,6,0,L|81:162,2,46.6666634877523,4|8|4,0:3|0:3|0:3,0:0:0:0:
187,183,86987,2,0,L|241:190,2,46.6666634877523,8|4|8,0:3|0:3|0:3,0:0:0:0:
146,222,87419,1,4,0:3:0:0:
146,222,87635,2,0,B|153:274|153:274|144:303|144:303|152:383,1,139.999990463257,12|0,0:0|0:0,0:0:0:0:
242,353,88247,5,4,0:3:0:0:
242,353,88439,2,0,P|281:332|363:358,1,104.999992847443,2|2,0:0|0:0,0:0:0:0:
423,299,89007,5,4,0:3:0:0:
423,299,89212,2,0,B|404:251|404:251|416:154,1,139.999990463257,0|2,0:0|0:0,0:0:0:0:
428,83,89828,5,4,0:3:0:0:
428,83,90042,2,0,L|281:92,1,139.999990463257,0|8,0:0|0:3,0:0:0:0:
204,99,90685,1,0,0:0:0:0:
215,182,90899,2,0,L|224:265,1,69.9999952316285,4|4,0:3|0:3,0:0:0:0:
37,345,91634,5,4,0:3:0:0:
36,345,91845,2,0,P|72:265|77:178,1,174.999988079071,2|4,0:0|0:3,0:0:0:0:
51,60,92690,2,0,P|97:91|179:62,1,139.999990463257,2|0,0:0|0:0,0:0:0:0:
253,67,93324,6,0,L|258:13,2,46.6666634877523,4|8|4,0:3|0:3|0:3,0:0:0:0:
287,110,93746,2,0,L|294:165,2,46.6666634877523,8|4|8,0:3|0:3|0:3,0:0:0:0:
