osu file format v14

[General]
AudioFilename: audio.mp3
AudioLeadIn: 0
PreviewTime: 3495
Countdown: 0
SampleSet: Soft
StackLeniency: 0.7
Mode: 0
LetterboxInBreaks: 0
WidescreenStoryboard: 1

[Editor]
Bookmarks: 61315,93975
DistanceSpacing: 1.1
BeatDivisor: 4
GridSize: 4
TimelineZoom: 1.8

[Metadata]
Title:Deal with the devil (TV Size)
TitleUnicode:Deal with the devil (TVサイズ)
Artist:Tia
ArtistUnicode:Tia
Creator:Kyuukai
Version:Easy : High Card
Source:賭ケグルイ
Tags:Kakegurui Compulsive Gambler goldenwolf alheak yf_bmp hazu- hysteria pachiru xfraczynho
BeatmapID:1394031
BeatmapSetID:643935

[Difficulty]
HPDrainRate:2
CircleSize:3
OverallDifficulty:2
ApproachRate:3
SliderMultiplier:0.8
SliderTickRate:1

[Events]
//Background and Video events
0,0,"deal with the devil.jpg",0,0
//Break Periods
//Storyboard Layer 0 (Background)
//Storyboard Layer 1 (Fail)
//Storyboard Layer 2 (Pass)
//Storyboard Layer 3 (Foreground)
//Storyboard Sound Samples

[TimingPoints]
869,405.405405405405,4,2,1,55,1,0
869,-100,4,2,1,55,0,0
1071,-100,4,2,2,40,0,0
1274,415.800415800416,4,2,1,55,1,0
1274,-100,4,2,1,55,0,0
1481,-100,4,2,2,40,0,0
1689,-100,4,2,1,70,0,0
1897,-100,4,2,2,55,0,0
2105,-100,4,2,1,85,0,0
2313,-100,4,2,2,40,0,0
2521,433.212996389892,4,2,1,85,1,0
2521,-100,4,2,1,85,0,0
2954,-100,4,2,1,85,0,0
3387,-100,4,2,1,85,0,0
3604,-100,4,2,1,5,0,0
3820,-100,4,2,4,85,0,0
3928,-100,4,2,4,5,0,0
4253,422.535211267606,4,2,1,70,1,0
4253,-100,4,2,1,70,0,0
4358,-100,4,2,10,70,0,0
4464,-100,4,2,1,70,0,0
4675,-100,4,2,10,70,0,0
4781,-100,4,2,1,70,0,0
4939,-100,4,2,12,55,0,0
4992,-100,4,2,11,70,0,0
5045,-100,4,2,10,40,0,0
5098,-100,4,2,1,70,0,0
5309,-100,4,2,10,70,0,0
5520,-100,4,2,1,70,0,0
5626,-100,4,2,11,85,0,0
5731,-100,4,2,10,85,0,0
5943,424.028268551237,4,2,1,70,1,0
5943,-100,4,2,1,70,0,0
6049,-100,4,2,10,70,0,0
6261,-100,4,2,1,70,0,0
6367,-100,4,2,12,70,0,0
6579,-100,4,2,1,70,0,0
6685,-100,4,2,10,70,0,0
6897,-100,4,2,1,70,0,0
7003,-100,4,2,12,70,0,0
7215,405.405405405405,4,2,1,85,1,0
7316,441.176470588235,4,2,4,85,1,0
7426,-100,4,2,4,5,0,0
7646,413.365483982087,4,2,1,100,1,0
7749,-100,4,2,1,5,0,0
9092,-100,4,2,4,70,0,0
9299,476.190476190476,4,2,1,100,1,0
9418,-100,4,2,1,40,0,0
9775,392.156862745098,4,2,1,40,1,0
9971,389.61038961039,4,2,1,40,1,0
10166,419.58041958042,4,2,1,40,1,0
10585,400,4,2,1,70,1,0
10985,424.628450106157,4,2,1,100,1,0
11091,-100,4,2,3,70,0,0
13674,-100,4,2,12,70,0,0
13745,-100,4,2,3,70,0,0
13886,-100,4,2,2,70,0,0
14098,-100,4,2,4,70,0,0
14382,-100,4,2,4,70,0,0
14806,-100,4,2,3,70,0,0
14948,-100,4,2,12,70,0,0
15018,-100,4,2,3,70,0,0
15231,-100,4,2,11,70,0,0
15372,-100,4,2,3,70,0,0
16080,424.478245489919,4,2,2,100,1,0
16080,-100,4,2,2,100,0,0
17459,-100,4,2,2,5,0,0
17777,421.644413211525,4,2,4,100,1,0
17882,-100,4,2,2,70,0,0
17987,-100,4,2,3,40,0,0
18093,-100,4,2,2,55,0,0
18198,-100,4,2,2,70,0,0
18409,-100,4,2,3,40,0,0
18514,-100,4,2,2,55,0,0
18620,-100,4,2,2,70,0,0
18831,-100,4,2,3,40,0,0
18936,-100,4,2,2,55,0,0
19041,-100,4,2,2,70,0,0
19252,-100,4,2,3,40,0,0
19358,-100,4,2,2,55,0,0
19463,-100,4,2,2,70,0,0
19674,-100,4,2,3,40,0,0
19779,-100,4,2,2,55,0,0
19885,-100,4,2,2,70,0,0
20096,-100,4,2,3,40,0,0
20201,-100,4,2,2,55,0,0
20306,-100,4,2,2,70,0,0
21150,-100,4,2,2,70,0,0
23785,-100,4,2,4,70,0,0
24101,410.958904109589,4,2,3,70,1,0
24169,-100,4,2,2,40,0,0
24306,-100,4,2,2,70,0,0
24374,-100,4,2,2,40,0,0
24443,-100,4,2,2,85,0,0
24512,434.782608695652,4,2,4,70,1,0
24840,-100,4,2,2,55,0,0
24946,423.579244617014,4,2,2,70,1,0
25263,-100,4,2,2,55,0,0
25369,-100,4,2,2,70,0,0
25581,-100,4,2,3,70,0,0
25687,-100,4,2,2,55,0,0
25793,-100,4,2,2,70,0,0
26004,-100,4,2,3,70,0,0
26110,-100,4,2,2,55,0,0
26217,423.579244617014,4,2,2,70,1,0
26428,-100,4,2,3,70,0,0
26534,-100,4,2,2,55,0,0
26640,-100,4,2,2,70,0,0
26852,-100,4,2,3,70,0,0
26958,-100,4,2,2,55,0,0
27064,-100,4,2,2,70,0,0
29182,408.163265306122,4,2,2,70,1,0
29605,423.579244617014,4,2,3,70,1,0
29605,-100,4,2,3,70,0,0
29710,-100,4,2,4,5,0,0
30452,-100,4,2,1,70,0,0
30453,-100,4,2,1,70,0,0
30558,-100,4,2,4,70,0,0
30875,-100,4,2,4,55,0,0
31087,-100,4,2,4,70,0,0
31300,421.348314606742,4,2,1,85,1,0
31721,-100,4,2,2,70,0,0
31932,-100,4,2,3,70,0,0
32037,-100,4,2,2,70,0,0
32353,-100,4,2,3,70,0,0
32458,-100,4,2,2,70,0,0
32774,-100,4,2,3,70,0,0
32880,-100,4,2,2,70,0,0
33196,-100,4,2,3,70,0,0
33301,-100,4,2,2,70,0,0
33617,-100,4,2,3,70,0,0
33722,-100,4,2,2,70,0,0
34038,-100,4,2,3,70,0,0
34144,-100,4,2,2,70,0,0
34354,-100,4,2,4,85,0,0
35092,-100,4,2,2,70,0,0
35302,-100,4,2,3,70,0,0
35373,-100,4,2,2,70,0,0
35724,-100,4,2,3,70,0,0
35794,-100,4,2,2,70,0,0
36145,-100,4,2,3,70,0,0
36250,-100,4,2,2,70,0,0
36566,-100,4,2,3,70,0,0
36672,-100,4,2,2,70,0,0
36988,-100,4,2,3,70,0,0
37093,-100,4,2,2,70,0,0
37409,-100,4,2,3,70,0,0
37620,-100,4,2,4,70,0,0
38041,422.535211267606,4,2,4,85,1,0
38357,-100,4,2,3,85,0,0
38463,-100,4,2,3,70,0,0
39097,-100,4,2,2,70,0,0
39308,-100,4,2,3,70,0,0
39519,-100,4,2,2,70,0,0
39731,-100,4,2,3,70,0,0
40893,-100,4,2,2,70,0,0
41147,397.350993377483,4,2,1,85,1,0
41445,419.58041958042,4,2,1,100,1,0
41864,-100,4,2,1,70,0,0
43123,421.052631578947,4,2,1,100,1,0
44807,422.113098169436,4,2,1,100,1,0
51560,424.028268551237,4,2,1,100,1,0
58345,419.14076143905,4,2,1,100,1,0
60021,422.535211267606,4,2,1,100,1,0
61288,405.405405405405,4,2,1,100,1,0
61732,379.746835443038,4,2,1,100,1,0
61921,422.535211267606,4,2,1,100,1,1
65301,427.807486631016,4,2,1,100,1,1
67226,451.127819548872,4,2,1,100,1,1
67452,394.088669950739,4,2,1,100,1,1
67846,422.535211267606,4,2,1,100,1,1
68479,-100,4,2,1,100,0,0
68691,421.644413211525,4,2,1,100,1,1
75226,-100,4,2,1,100,0,0
75437,422.386483632524,4,2,1,100,1,1
81983,-100,4,2,1,100,0,0
82195,-100,4,2,1,100,0,1
85574,422.535211267606,4,2,1,100,1,1
87052,433.212996389892,4,2,1,100,1,0
88135,422.535211267606,4,2,1,100,1,0
88980,422.535211267606,4,2,1,100,1,0
92360,434.782608695652,4,2,1,100,1,0
92686,408.163265306122,4,2,1,100,1,0
92890,413.793103448276,4,2,1,100,1,0
93200,413.793103448276,4,2,1,100,1,0
93821,434.782608695652,4,2,1,100,1,1
94581,-100,4,2,1,100,0,0

[Colours]
Combo1 : 192,192,192
Combo2 : 240,5,5

[HitObjects]
399,18,869,6,0,L|407:104,1,80,2|2,0:0|0:0,0:0:0:0:
475,151,1689,2,0,L|467:230,1,80,2|2,0:0|0:0,0:0:0:0:
420,300,2521,6,0,P|333:275|306:281,1,80,0|0,0:0|0:0,0:0:0:0:
288,340,3387,2,0,P|201:365|174:359,1,80,0|2,0:0|3:2,0:0:0:0:
136,320,4253,6,0,P|123:266|128:189,2,120,8|8|8,0:0|0:0|0:0,0:0:0:0:
214,366,5943,6,0,P|273:368|332:355,2,120,8|8|8,0:0|0:0|0:0,0:0:0:0:
136,320,7646,5,4,3:2:0:0:
256,192,7749,12,8,9299,0:0:0:0:
44,49,10985,6,0,L|132:61,1,80,6|2,3:2|0:0,0:0:0:0:
178,128,11834,2,0,L|257:117,1,80,10|2,3:2|3:2,0:0:0:0:
333,161,12683,2,0,P|344:100|324:61,2,80,2|10|8,0:0|0:0|0:0,0:0:0:0:
278,230,13957,1,2,0:0:0:0:
221,297,14382,6,0,P|182:292|142:297,1,80,12|10,3:2|3:2,0:0:0:0:
68,344,15231,2,0,P|54:307|59:268,1,80,8|8,0:3|0:0,0:0:0:0:
125,210,16080,2,0,P|85:185|36:183,2,80,8|8|0,0:0|0:0|0:0,0:0:0:0:
142,297,17353,1,8,0:0:0:0:
209,239,17777,6,0,P|246:233|303:249,1,80,2|2,3:2|0:0,0:0:0:0:
352,300,18620,2,0,P|389:306|446:290,1,80,2|2,0:0|0:0,0:0:0:0:
481,226,19463,2,0,L|471:137,2,80,2|2|2,0:0|0:0|0:0,0:0:0:0:
430,297,20728,1,2,0:0:0:0:
378,225,21150,6,0,L|388:136,1,80,2|2,0:0|0:0,0:0:0:0:
347,66,21993,2,0,P|304:63|267:74,1,80,0|2,0:0|0:0,0:0:0:0:
211,140,22836,2,0,P|168:143|131:131,1,80,2|0,0:0|0:0,0:0:0:0:
68,71,23680,2,0,P|51:99|53:176,1,80,2|2,0:0|0:0,0:0:0:0:
67,230,24511,5,2,3:2:0:0:
95,315,24946,2,0,P|56:314|4:343,2,80,2|2|2,0:0|0:0|0:0,0:0:0:0:
161,372,26216,2,0,L|251:348,1,80,2|2,0:0|0:0,0:0:0:0:
292,281,27064,2,0,L|369:301,1,80,2|2,0:0|0:0,0:0:0:0:
422,372,27911,6,0,P|456:313|450:269,1,80,2|2,0:0|0:0,0:0:0:0:
414,225,28758,2,0,L|424:140,1,80,0|2,0:0|0:0,0:0:0:0:
435,58,29590,1,0,0:0:0:0:
270,129,30452,2,0,L|176:124,1,80,10|8,0:0|0:0,0:0:0:0:
102,120,31299,6,0,P|109:159|102:198,1,80,2|0,3:2|3:0,0:0:0:0:
62,276,32142,2,0,P|101:286|140:277,1,80,0|2,3:0|0:0,0:0:0:0:
225,258,32985,2,0,L|217:351,2,80,2|0|0,0:0|3:0|3:0,0:0:0:0:
232,170,34249,1,2,3:2:0:0:
303,221,34670,6,0,P|349:228|401:214,1,80,2|2,3:2|3:2,0:0:0:0:
457,177,35513,2,0,L|450:79,2,80,2|2|2,3:2|3:2|3:2,0:0:0:0:
463,264,36777,1,2,3:2:0:0:
469,351,37198,2,0,P|425:362|358:355,1,80,2|2,3:2|0:0,0:0:0:0:
326,301,38041,6,0,P|287:290|247:290,1,80,4|0,3:2|3:0,0:0:0:0:
168,250,38886,2,0,L|182:164,2,80,0|2|2,3:0|0:0|0:0,0:0:0:0:
172,337,40153,1,0,3:0:0:0:
93,297,40576,2,0,P|42:304|-1:290,1,80,0|0,3:0|0:0,0:0:0:0:
54,212,41445,6,0,L|53:124,1,80,4|0,3:2|0:0,0:0:0:0:
133,95,42284,2,0,L|132:15,1,80,0|0,0:0|0:0,0:0:0:0:
215,43,43123,1,0,0:0:0:0:
298,71,43544,2,0,L|401:56,1,80,0|0,0:0|0:0,0:0:0:0:
463,44,44386,1,0,0:0:0:0:
508,118,44807,5,0,0:0:0:0:
499,205,45229,2,0,L|489:301,1,80,0|0,0:0|0:0,0:0:0:0:
409,319,46073,2,0,L|400:239,1,80,0|0,0:0|0:0,0:0:0:0:
338,177,46917,2,0,P|398:153|420:155,2,80,0|0|0,0:0|0:0|0:0,0:0:0:0:
291,251,48183,5,0,0:0:0:0:
222,195,48606,2,0,P|162:171|140:173,1,80,0|0,0:0|0:0,0:0:0:0:
60,184,49450,1,0,0:0:0:0:
115,252,49872,2,0,L|128:349,2,80,0|0|0,0:0|0:0|0:0,0:0:0:0:
147,171,51138,1,0,0:0:0:0:
178,89,51560,6,0,L|257:78,1,80,0|0,0:0|0:0,0:0:0:0:
318,141,52408,2,0,L|397:151,2,80,0|0|0,0:0|0:0|0:0,0:0:0:0:
267,212,53680,1,0,0:0:0:0:
213,281,54104,2,0,L|134:271,1,80,0|0,0:0|0:0,0:0:0:0:
59,319,54952,6,0,P|46:268|59:224,1,80,0|0,0:0|0:0,0:0:0:0:
119,187,55800,2,0,P|123:147|110:109,1,80,0|0,0:0|0:0,0:0:0:0:
82,26,56648,2,0,L|-8:20,2,80,0|0|0,0:0|0:0|0:0,0:0:0:0:
169,32,57920,1,0,0:0:0:0:
210,109,58345,6,0,B|347:66|310:167|476:109,1,240,0|0,0:0|0:0,0:0:0:0:
486,195,60021,2,0,P|496:264|471:327,2,120,0|0|0,0:0|0:0|0:0,0:0:0:0:
365,248,61921,6,0,L|254:242,1,80,0|0,0:0|0:0,0:0:0:0:
216,188,62766,2,0,L|136:192,1,80,0|0,0:0|0:0,0:0:0:0:
61,239,63611,2,0,P|49:202|57:155,1,80,0|0,0:0|0:0,0:0:0:0:
121,105,64456,2,0,L|201:100,1,80,0|0,0:0|0:0,0:0:0:0:
275,54,65301,6,0,P|287:91|279:138,1,80,0|0,0:0|0:0,0:0:0:0:
214,188,66156,2,0,L|226:294,1,100,0|0,0:0|0:0,0:0:0:0:
302,358,67226,1,0,0:0:0:0:
396,349,67649,2,0,L|447:344,1,40,0|0,0:0|0:0,0:0:0:0:
496,281,68268,1,0,0:0:0:0:
418,238,68691,6,0,L|424:158,1,80,0|0,0:0|0:0,0:0:0:0:
481,91,69534,2,0,P|424:72|392:77,1,80,0|0,0:0|0:0,0:0:0:0:
339,132,70377,2,0,L|245:135,1,80,0|0,0:0|0:0,0:0:0:0:
174,108,71220,2,0,L|180:188,1,80,0|0,0:0|0:0,0:0:0:0:
243,249,72064,6,0,P|286:245|326:255,2,80,0|0|0,0:0|0:0|0:0,0:0:0:0:
168,295,73329,2,0,L|173:344,2,40,0|0|0,0:0|0:0|0:0,0:0:0:0:
103,235,74172,1,0,0:0:0:0:
38,175,74594,2,0,L|42:82,1,80,0|0,0:0|0:0,0:0:0:0:
118,52,75437,6,0,P|159:57|209:49,1,80,0|0,0:0|0:0,0:0:0:0:
280,24,76281,2,0,P|319:19|359:24,1,80,0|0,0:0|0:0,0:0:0:0:
425,83,77126,2,0,P|445:44|444:1,2,80,0|0|0,0:0|0:0|0:0,0:0:0:0:
366,148,78393,1,0,0:0:0:0:
305,212,78816,6,0,L|220:207,1,80,0|0,0:0|0:0,0:0:0:0:
180,131,79660,2,0,L|68:137,1,100,0|0,0:0|0:0,0:0:0:0:
7,219,80716,1,0,0:0:0:0:
72,277,81139,2,0,L|70:327,1,40,0|0,0:0|0:0,0:0:0:0:
138,372,81772,1,0,0:0:0:0:
206,316,82195,6,0,P|245:308|290:318,1,80,0|0,0:0|0:0,0:0:0:0:
351,372,83039,2,0,P|390:380|435:370,1,80,0|0,0:0|0:0,0:0:0:0:
492,311,83884,2,0,L|499:219,2,80,0|0|0,0:0|0:0|0:0,0:0:0:0:
428,372,85151,1,0,0:0:0:0:
364,311,85574,6,0,L|357:219,1,80,0|0,0:0|0:0,0:0:0:0:
350,143,86419,1,0,0:0:0:0:
278,92,86841,2,0,L|286:53,2,40
203,140,87701,2,0,L|209:219,1,80,0|0,0:0|0:0,0:0:0:0:
151,338,88768,6,0,P|73:323|7:349,2,140,0|0|0,0:0|0:0|0:0,0:0:0:0:
231,373,90670,2,0,L|242:319,1,40,0|0,0:0|0:0,0:0:0:0:
333,277,91409,2,0,L|340:316,1,40,0|0,0:0|0:0,0:0:0:0:
442,358,92149,6,0,L|458:210,1,140,0|0,0:0|0:0,0:0:0:0:
468,131,93303,1,0,0:0:0:0:
386,64,93821,2,0,P|311:76|264:62,1,120
