osu file format v14

[General]
AudioFilename: audio.mp3
AudioLeadIn: 0
PreviewTime: 3495
Countdown: 0
SampleSet: Soft
StackLeniency: 0.2
Mode: 1
LetterboxInBreaks: 0
WidescreenStoryboard: 1

[Editor]
Bookmarks: 61315,93975
DistanceSpacing: 1
BeatDivisor: 6
GridSize: 4
TimelineZoom: 2.999999

[Metadata]
Title:Deal with the devil (TV Size)
TitleUnicode:Deal with the devil (TVサイズ)
Artist:Tia
ArtistUnicode:Tia
Creator:Kyuukai
Version:Collab Muzukashii
Source:賭ケグルイ
Tags:Kakegurui Compulsive Gambler goldenwolf alheak yf_bmp hazu- hysteria pachiru xfraczynho
BeatmapID:1492131
BeatmapSetID:643935

[Difficulty]
HPDrainRate:5
CircleSize:2
OverallDifficulty:5
ApproachRate:10
SliderMultiplier:1.39559983568192
SliderTickRate:3

[Events]
//Background and Video events
0,0,"836145.png",0,40
//Break Periods
//Storyboard Layer 0 (Background)
//Storyboard Layer 1 (Fail)
//Storyboard Layer 2 (Pass)
//Storyboard Layer 3 (Foreground)
//Storyboard Sound Samples

[TimingPoints]
869,405.405405405405,4,2,1,70,1,0
1274,415.800415800416,4,2,1,70,1,0
2521,433.212996389892,4,2,1,70,1,0
4253,422.535211267606,4,2,1,70,1,0
5943,424.028268551237,4,2,1,70,1,0
7215,405.405405405405,4,2,1,70,1,0
7316,441.176470588235,4,2,4,70,1,0
7646,413.365483982087,4,2,1,70,1,0
9299,476.190476190476,4,2,1,70,1,0
9775,392.156862745098,4,2,1,70,1,0
9971,389.61038961039,4,2,1,70,1,0
10166,419.58041958042,4,2,1,70,1,0
10585,400,4,2,1,70,1,0
10985,424.628450106157,4,2,1,70,1,0
16080,424.478245489919,4,2,2,70,1,0
17777,421.644413211525,4,2,4,70,1,0
24101,410.958904109589,4,2,3,70,1,0
24512,434.782608695652,4,2,4,70,1,0
24946,423.579244617014,4,2,2,70,1,0
26217,423.579244617014,4,2,2,70,1,0
29182,408.163265306122,4,2,2,70,1,0
29605,423.579244617014,4,2,3,70,1,0
31300,421.348314606742,4,2,1,70,1,0
38041,422.535211267606,4,2,4,70,1,0
41147,397.350993377483,4,2,1,70,1,0
41445,419.58041958042,4,2,1,70,1,0
43123,421.052631578947,4,2,1,70,1,0
44807,422.113098169436,4,2,1,70,1,0
51560,424.028268551237,4,2,1,70,1,0
58345,419.14076143905,4,2,1,70,1,0
60021,422.535211267606,4,2,1,70,1,0
61288,405.405405405405,4,2,1,70,1,0
61732,379.746835443038,4,2,1,70,1,0
61921,422.535211267606,4,2,1,70,1,1
65301,427.807486631016,4,2,1,70,1,1
67226,451.127819548872,4,2,1,70,1,1
67452,394.088669950739,4,2,1,70,1,1
67846,422.535211267606,4,2,1,70,1,1
68691,421.644413211525,4,2,1,70,1,1
75437,422.386483632524,4,2,1,70,1,1
85574,422.535211267606,4,2,1,70,1,1
87052,433.212996389892,4,2,1,70,1,0
88135,422.535211267606,4,2,1,70,1,0
88980,422.535211267606,4,2,1,70,1,0
92360,434.782608695652,4,2,1,70,1,0
92686,408.163265306122,4,2,1,70,1,0
92890,413.793103448276,4,2,1,70,1,0
93200,413.793103448276,4,2,1,70,1,0
93821,434.782608695652,4,2,1,70,1,1
94545,-100,4,2,1,70,0,0

[HitObjects]
256,192,869,5,0,1:0:0:0:
256,192,1274,1,0,1:0:0:0:
256,192,1689,1,0,1:0:0:0:
256,192,1897,1,0,1:0:0:0:
256,192,2001,1,0,1:0:0:0:
256,192,2105,1,0,1:0:0:0:
256,192,3820,1,8,1:0:0:0:
256,192,4253,1,4,1:0:0:0:
256,192,4675,1,8,1:0:0:0:
256,192,4886,1,4,1:0:0:0:
256,192,5308,1,8,1:0:0:0:
256,192,5731,1,0,1:0:0:0:
256,192,5943,1,4,1:0:0:0:
256,192,6367,1,8,1:0:0:0:
256,192,6579,1,4,1:0:0:0:
256,192,7003,1,8,1:0:0:0:
256,192,7316,1,8,1:0:0:0:
256,192,7646,12,8,9299,1:0:0:0:
256,192,10585,5,0,1:0:0:0:
256,192,10685,1,0,1:0:0:0:
256,192,10785,1,0,1:0:0:0:
256,192,10985,1,12,1:0:0:0:
256,192,11409,1,8,1:0:0:0:
256,192,11621,1,0,1:0:0:0:
256,192,11940,1,8,1:0:0:0:
256,192,12152,1,0,1:0:0:0:
256,192,12259,1,0,1:0:0:0:
256,192,12471,1,8,1:0:0:0:
256,192,12683,1,0,1:0:0:0:
256,192,13108,1,8,1:0:0:0:
256,192,13320,1,0,1:0:0:0:
256,192,13426,1,0,1:0:0:0:
256,192,13638,1,8,1:0:0:0:
256,192,13957,1,8,1:0:0:0:
256,192,14169,1,0,1:0:0:0:
256,192,14382,1,12,1:0:0:0:
256,192,14806,1,8,1:0:0:0:
256,192,15018,1,0,1:0:0:0:
256,192,15337,1,8,1:0:0:0:
256,192,15549,1,0,1:0:0:0:
256,192,15656,1,0,1:0:0:0:
256,192,15868,1,8,1:0:0:0:
256,192,16080,1,4,1:0:0:0:
256,192,16292,1,12,1:0:0:0:
256,192,16504,1,12,1:0:0:0:
256,192,16822,1,4,1:0:0:0:
256,192,17035,1,4,1:0:0:0:
256,192,17353,1,12,1:0:0:0:
256,192,17777,1,0,1:0:0:0:
256,192,18198,1,8,1:0:0:0:
256,192,18620,1,0,1:0:0:0:
256,192,19041,1,8,1:0:0:0:
256,192,19252,1,8,1:0:0:0:
256,192,19463,1,0,1:0:0:0:
256,192,19885,1,8,1:0:0:0:
256,192,20307,1,0,1:0:0:0:
256,192,20517,1,0,1:0:0:0:
256,192,20728,1,8,1:0:0:0:
256,192,20939,1,8,1:0:0:0:
256,192,21150,1,0,1:0:0:0:
256,192,21571,1,0,1:0:0:0:
256,192,21782,1,8,1:0:0:0:
256,192,22204,1,8,1:0:0:0:
256,192,22415,1,8,1:0:0:0:
256,192,22836,1,8,1:0:0:0:
256,192,23047,1,0,1:0:0:0:
256,192,23469,1,0,1:0:0:0:
256,192,23680,1,8,1:0:0:0:
256,192,23785,1,8,1:0:0:0:
256,192,24101,1,8,1:0:0:0:
256,192,24306,1,0,1:0:0:0:
256,192,24409,1,0,1:0:0:0:
256,192,24511,1,0,1:0:0:0:
256,192,24946,1,8,1:0:0:0:
256,192,25369,1,0,1:0:0:0:
256,192,25793,1,8,1:0:0:0:
256,192,26004,1,8,1:0:0:0:
256,192,26217,1,0,1:0:0:0:
256,192,26640,1,8,1:0:0:0:
256,192,27064,1,0,1:0:0:0:
256,192,27275,1,8,1:0:0:0:
256,192,27487,1,8,1:0:0:0:
256,192,27699,1,8,1:0:0:0:
256,192,27911,1,0,1:0:0:0:
256,192,28334,1,0,1:0:0:0:
256,192,28546,1,8,1:0:0:0:
256,192,28970,1,8,1:0:0:0:
256,192,29182,1,0,1:0:0:0:
256,192,29605,1,4,1:0:0:0:
256,192,31300,1,0,1:0:0:0:
256,192,31721,1,8,1:0:0:0:
256,192,31932,1,0,1:0:0:0:
256,192,32142,1,8,1:0:0:0:
256,192,32564,1,8,1:0:0:0:
256,192,32774,1,0,1:0:0:0:
256,192,32880,1,0,1:0:0:0:
256,192,32985,1,0,1:0:0:0:
256,192,33406,1,8,1:0:0:0:
256,192,33617,1,8,1:0:0:0:
256,192,33828,1,0,1:0:0:0:
256,192,34249,1,0,1:0:0:0:
256,192,34354,1,0,1:0:0:0:
256,192,34460,1,0,1:0:0:0:
256,192,34670,1,8,1:0:0:0:
256,192,35092,1,0,1:0:0:0:
256,192,35302,1,8,1:0:0:0:
256,192,35724,1,0,1:0:0:0:
256,192,35934,1,8,1:0:0:0:
256,192,36356,1,8,1:0:0:0:
256,192,36777,1,0,1:0:0:0:
256,192,36988,1,8,1:0:0:0:
256,192,37198,1,0,1:0:0:0:
256,192,37409,1,0,1:0:0:0:
256,192,37620,1,8,1:0:0:0:
256,192,38041,1,0,1:0:0:0:
256,192,38463,1,0,1:0:0:0:
256,192,38674,1,0,1:0:0:0:
256,192,38886,1,8,1:0:0:0:
256,192,39308,1,8,1:0:0:0:
256,192,39519,1,0,1:0:0:0:
256,192,39625,1,0,1:0:0:0:
256,192,39731,1,0,1:0:0:0:
256,192,40153,1,0,1:0:0:0:
256,192,40364,1,0,1:0:0:0:
256,192,40575,1,8,1:0:0:0:
256,192,40786,1,0,1:0:0:0:
256,192,40998,1,8,1:0:0:0:
256,192,41147,1,0,1:0:0:0:
256,192,41445,1,8,1:0:0:0:
256,192,41864,1,0,1:0:0:0:
256,192,42074,1,8,1:0:0:0:
256,192,42493,1,8,1:0:0:0:
256,192,42703,1,0,1:0:0:0:
256,192,43123,1,4,1:0:0:0:
256,192,43333,1,12,1:0:0:0:
256,192,43544,1,12,1:0:0:0:
256,192,43859,1,4,1:0:0:0:
256,192,44070,1,4,1:0:0:0:
256,192,44386,1,12,1:0:0:0:
256,192,44807,1,0,1:0:0:0:
256,192,45229,1,8,1:0:0:0:
256,192,45651,1,8,1:0:0:0:
256,192,45967,1,0,1:0:0:0:
256,192,46284,1,8,1:0:0:0:
256,192,46706,1,0,1:0:0:0:
256,192,46917,1,0,1:0:0:0:
256,192,47128,1,0,1:0:0:0:
256,192,47339,1,8,1:0:0:0:
256,192,47761,1,8,1:0:0:0:
256,192,47867,1,8,1:0:0:0:
256,192,47972,1,8,1:0:0:0:
256,192,48183,1,0,1:0:0:0:
256,192,48394,1,8,1:0:0:0:
256,192,48817,1,0,1:0:0:0:
256,192,49028,1,8,1:0:0:0:
256,192,49450,1,8,1:0:0:0:
256,192,49661,1,0,1:0:0:0:
256,192,49872,1,8,1:0:0:0:
256,192,50083,1,8,1:0:0:0:
256,192,50294,1,0,1:0:0:0:
256,192,50505,1,0,1:0:0:0:
256,192,50610,1,0,1:0:0:0:
256,192,50822,1,8,1:0:0:0:
256,192,51138,1,0,1:0:0:0:
256,192,51349,1,0,1:0:0:0:
256,192,51560,1,12,1:0:0:0:
256,192,51984,1,0,1:0:0:0:
256,192,52408,1,0,1:0:0:0:
256,192,52514,1,0,1:0:0:0:
256,192,52726,1,8,1:0:0:0:
256,192,53044,1,0,1:0:0:0:
256,192,53468,1,8,1:0:0:0:
256,192,53786,1,8,1:0:0:0:
256,192,54104,1,0,1:0:0:0:
256,192,54210,1,0,1:0:0:0:
256,192,54316,1,0,1:0:0:0:
256,192,54528,1,8,1:0:0:0:
256,192,54634,1,8,1:0:0:0:
256,192,54952,1,0,1:0:0:0:
256,192,55376,1,0,1:0:0:0:
256,192,55588,1,0,1:0:0:0:
256,192,55800,1,8,1:0:0:0:
256,192,56224,1,8,1:0:0:0:
256,192,56648,1,12,1:0:0:0:
256,192,56860,1,4,1:0:0:0:
256,192,57072,1,4,1:0:0:0:
256,192,57390,1,12,1:0:0:0:
256,192,57602,1,12,1:0:0:0:
256,192,57920,1,4,1:0:0:0:
256,192,58345,2,0,B|252:188|252:188|260:188|260:188|260:196|260:196|248:196|248:196|248:184|248:184|264:184|264:184|264:200|264:200|244:200|244:200|244:180|244:180|268:180|268:180|268:200|268:200|268:200,3,139.559983568192,0|0|0|0,1:0|1:0|1:0|1:0,1:0:0:0:
256,32,60021,1,12,1:0:0:0:
32,352,60443,1,0,1:0:0:0:
480,352,60654,1,12,1:0:0:0:
256,192,61288,1,4,1:0:0:0:
256,192,61389,1,0,1:0:0:0:
256,192,61490,1,0,1:0:0:0:
256,192,61592,1,0,1:0:0:0:
256,192,61693,1,0,1:0:0:0:
256,192,61921,1,12,1:0:0:0:
256,192,62132,1,0,1:0:0:0:
256,192,62237,1,0,1:0:0:0:
256,192,62449,1,8,1:0:0:0:
256,192,62766,1,8,1:0:0:0:
256,192,62977,1,8,1:0:0:0:
256,192,63082,1,8,1:0:0:0:
256,192,63294,1,8,1:0:0:0:
256,192,63611,1,8,1:0:0:0:
256,192,63822,1,0,1:0:0:0:
256,192,63928,1,0,1:0:0:0:
256,192,64139,1,0,1:0:0:0:
256,192,64244,1,0,1:0:0:0:
256,192,64456,1,8,1:0:0:0:
256,192,64561,1,8,1:0:0:0:
256,192,64773,1,0,1:0:0:0:
256,192,64984,1,0,1:0:0:0:
256,192,65301,1,8,1:0:0:0:
256,192,65514,1,8,1:0:0:0:
256,192,65621,1,8,1:0:0:0:
256,192,65835,1,8,1:0:0:0:
256,192,65942,1,8,1:0:0:0:
256,192,66156,1,0,1:0:0:0:
256,192,66263,1,0,1:0:0:0:
256,192,66477,1,8,1:0:0:0:
256,192,66691,1,4,1:0:0:0:
256,192,67226,1,0,1:0:0:0:
256,192,67338,1,8,1:0:0:0:
256,192,67550,1,8,1:0:0:0:
256,192,67846,1,4,1:0:0:0:
256,192,68691,1,4,1:0:0:0:
256,192,68901,1,8,1:0:0:0:
256,192,69007,1,8,1:0:0:0:
256,192,69218,1,8,1:0:0:0:
256,192,69534,1,8,1:0:0:0:
256,192,69745,1,8,1:0:0:0:
256,192,69955,1,4,1:0:0:0:
256,192,70377,1,0,1:0:0:0:
256,192,70588,1,8,1:0:0:0:
256,192,70693,1,8,1:0:0:0:
256,192,70904,1,8,1:0:0:0:
256,192,71220,1,0,1:0:0:0:
256,192,71431,1,0,1:0:0:0:
256,192,71642,1,8,1:0:0:0:
256,192,71853,1,0,1:0:0:0:
256,192,72064,1,8,1:0:0:0:
224,192,72380,1,8,1:0:0:0:
224,192,72696,1,8,1:0:0:0:
224,192,73012,1,8,1:0:0:0:
224,192,73329,1,0,1:0:0:0:
224,192,73539,1,0,1:0:0:0:
192,192,73680,1,8,1:0:0:0:
224,192,73821,1,8,1:0:0:0:
224,192,73961,1,8,1:0:0:0:
224,192,74102,1,8,1:0:0:0:
224,192,74242,1,8,1:0:0:0:
224,192,74383,1,0,1:0:0:0:
224,192,74594,1,12,1:0:0:0:
256,192,75437,1,12,1:0:0:0:
256,192,75648,1,0,1:0:0:0:
256,192,75753,1,0,1:0:0:0:
256,192,75964,1,8,1:0:0:0:
256,192,76281,1,8,1:0:0:0:
256,192,76492,1,8,1:0:0:0:
256,192,76598,1,8,1:0:0:0:
256,192,76809,1,0,1:0:0:0:
256,192,77126,1,8,1:0:0:0:
256,192,77337,1,8,1:0:0:0:
256,192,77443,1,8,1:0:0:0:
256,192,77654,1,8,1:0:0:0:
256,192,77760,1,8,1:0:0:0:
256,192,77971,1,0,1:0:0:0:
256,192,78076,1,0,1:0:0:0:
256,192,78288,1,8,1:0:0:0:
256,192,78499,1,0,1:0:0:0:
256,192,78816,1,8,1:0:0:0:
256,192,79027,1,8,1:0:0:0:
256,192,79132,1,8,1:0:0:0:
256,192,79344,1,0,1:0:0:0:
256,192,79449,1,0,1:0:0:0:
256,192,79660,1,8,1:0:0:0:
256,192,79766,1,8,1:0:0:0:
256,192,79977,1,8,1:0:0:0:
256,192,80188,1,4,1:0:0:0:
256,192,80716,1,8,1:0:0:0:
256,192,80822,1,8,1:0:0:0:
256,192,81033,1,8,1:0:0:0:
256,192,81350,1,4,1:0:0:0:
256,192,82195,1,8,1:0:0:0:
256,192,82406,1,8,1:0:0:0:
256,192,82511,1,8,1:0:0:0:
256,192,82723,1,8,1:0:0:0:
256,192,83039,1,8,1:0:0:0:
256,192,83251,1,0,1:0:0:0:
256,192,83356,1,0,1:0:0:0:
256,192,83567,1,8,1:0:0:0:
256,192,83884,1,8,1:0:0:0:
256,192,84095,1,8,1:0:0:0:
256,192,84201,1,8,1:0:0:0:
256,192,84412,1,8,1:0:0:0:
256,192,84729,1,8,1:0:0:0:
256,192,84940,1,0,1:0:0:0:
256,192,85151,1,8,1:0:0:0:
256,192,85574,1,8,1:0:0:0:
256,224,85890,1,8,1:0:0:0:
256,224,86207,1,8,1:0:0:0:
256,224,86524,1,8,1:0:0:0:
256,224,86841,1,8,1:0:0:0:
256,192,87052,5,0,1:0:0:0:
256,192,87485,1,8,1:0:0:0:
256,192,87629,1,8,1:0:0:0:
256,192,87774,1,8,1:0:0:0:
256,192,87918,1,8,1:0:0:0:
256,192,88135,1,4,1:0:0:0:
256,192,88768,1,4,1:0:0:0:
256,192,89191,1,8,1:0:0:0:
256,192,89296,1,8,1:0:0:0:
256,192,89508,1,12,1:0:0:0:
256,192,89930,1,0,1:0:0:0:
256,192,90035,1,0,1:0:0:0:
256,192,90353,1,12,1:0:0:0:
256,192,90670,1,0,1:0:0:0:
256,192,90776,1,0,1:0:0:0:
256,192,90881,1,0,1:0:0:0:
256,192,91303,1,0,1:0:0:0:
256,192,91409,1,0,1:0:0:0:
256,192,91620,1,12,1:0:0:0:
256,192,92149,1,4,1:0:0:0:
256,192,92577,1,8,1:0:0:0:
256,192,92686,1,8,1:0:0:0:
256,192,92890,1,12,1:0:0:0:
256,192,93200,1,0,1:0:0:0:
256,192,93303,1,0,1:0:0:0:
256,192,93406,1,0,1:0:0:0:
256,192,93820,12,0,94545,1:0:0:0:
